Subcategories
Tags
Language
Tags

Marlene Dietrich - Einfach das Beste (2000)

Posted By: tirexiss
Marlene Dietrich - Einfach das Beste (2000)

Marlene Dietrich - Einfach das Beste (2000)
EAC | FLAC (tracks+.cue, log) - 246 MB | MP3 (CBR 320 kbps) - 114 MB | Covers Included | 35:30
Genre: Pop, Chanson | Label: Columbia | Catalog: 498368 2

Wer sich Musik von Marlene Dietrich kauft, weiss nie so recht, wann die Aufnahmen entstanden sind und aus welchem ursprünglichen Zusammenhang sie stammen. "Einfach das Beste" ist eine stimmige Zusammenstellung, müsste aber eigentlich das "Berlin-Album" genannt werden. Es ist keine eigentliche "Best Of", sondern eine CD mit 14 Liedern, die sich inhaltlich hauptsächlich um Marlenes Heimatstadt Berlin drehen. Mit "Lili Marleen" und "La vie en rose" sind zwei ihrer grossen Hits mit darauf, aber sonst sind es hauptsächlich Berliner Lieder. Und dank dieses durchgehenden Themas hinterlässt das Album einen thematisch homogenen Eindruck. Die Aufnahmen sind in einem guten Zustand, auch wenn man nicht erfährt, wann diese entstanden sind. Auch sonst sind keine Informationen vorhanden. Die Lieder werden korrekt mit Komponisten und Verlägen genannt, das wars dann aber auch schon. Der grafische Auftritt ist spartanisch und verwendet dasselbe Bild gerade dreimal.

Marlene Dietrich - Einfach das Beste (2000)

Track List:

01. Wenn ein Maedel einen Herrn hat [1:55]
02. Es gibt im Leben manchmal Momente [1:45]
03. Das war in Schoeneberg [2:34]
04. Ja, das haben die Maedchen so gerne [3:11]
05. La Vie En Rose [2:49]
06. Lieber Leierkastenmann [3:38]
07. Lili Marleen [3:06 ]
08. Wenn du einmal eine Braut hast [2:03]
09. Durch Berlin fliesst immer noch die Spree [2:23]
10. Das ist Berlin wie's weint, das ist Berlin wie's lacht [2:27]
11. Solang noch untern Linden [1:32]
12. Nach meene Beene ist ja ganz Berlin verrueckt [3:28]
13. Mit dir, mit dir da moecht ich am Sonntag angeln gehn [2:48]
14. Du hast ja keine Ahnung wie schoen du bist Berlin [1:05]

Exact Audio Copy V1.0 beta 3 from 29. August 2011

Отчёт EAC об извлечении, выполненном 3. января 2012, 3:50

Marlene Dietrich / Einfach das Beste

Дисковод: HL-DT-STDVDRAM GH22NS50 Adapter: 2 ID: 0

Режим чтения : Достоверность
Использование точного потока : Да
Отключение кэша аудио : Да
Использование указателей C2 : Нет

Коррекция смещения при чтении : 667
Способность читать области Lead-in и Lead-out : Нет
Заполнение пропущенных сэмплов тишиной : Да
Удаление блоков с тишиной в начале и конце : Нет
При вычислениях CRC использовались нулевые сэмплы : Да
Интерфейс : Встроенный Win32-интерфейс для Win NT/2000
Обработка зазоров : Добавлено к предыдущему треку

Выходной формат : Пользовательский кодировщик
Выбранный битрейт : 320 kBit/s
Качество : Высокий
Добавление ID3-тега : Нет
Утилита сжатия : C:\Program Files\Exact Audio Copy\Flac\flac.exe
Дополнительные параметры : -V -8 -T "Genre=%genre%" -T "Artist=%artist%" -T "Title=%title%" -T "Album=%albumtitle%" -T "Date=%year%" -T "Tracknumber=%tracknr%" -T "Comment=%comment%" %source%


TOC извлечённого CD

Трек | Старт | Длительность | Начальный сектор | Конечный сектор
––––––––––––––––––––––––––––––––––-
1 | 0:00.00 | 1:57.52 | 0 | 8826
2 | 1:57.52 | 1:49.13 | 8827 | 17014
3 | 3:46.65 | 2:36.72 | 17015 | 28786
4 | 6:23.62 | 3:14.45 | 28787 | 43381
5 | 9:38.32 | 2:51.65 | 43382 | 56271
6 | 12:30.22 | 3:42.13 | 56272 | 72934
7 | 16:12.35 | 3:08.12 | 72935 | 87046
8 | 19:20.47 | 2:06.30 | 87047 | 96526
9 | 21:27.02 | 2:26.20 | 96527 | 107496
10 | 23:53.22 | 2:29.25 | 107497 | 118696
11 | 26:22.47 | 1:32.68 | 118697 | 125664
12 | 27:55.40 | 3:37.00 | 125665 | 141939
13 | 31:32.40 | 2:52.50 | 141940 | 154889
14 | 34:25.15 | 1:05.25 | 154890 | 159789


Трек 1

Имя файла F:\mymus\1\01 Wenn ein Maedel einen Herrn hat.wav

Длина предзазора 0:00:02.00

Пиковый уровень 97.6 %
Скорость извлечения 0.8 X
Качество трека 100.0 %
CRC теста B697585C
CRC копии B697585C
Трек не обнаружен в базе AccurateRip
Копирование… OK

Трек 2

Имя файла F:\mymus\1\02 Es gibt im Leben manchmal Momente.wav

Длина предзазора 0:00:01.12

Пиковый уровень 98.7 %
Скорость извлечения 0.8 X
Качество трека 100.0 %
CRC теста 6215FD3E
CRC копии 6215FD3E
Трек не обнаружен в базе AccurateRip
Копирование… OK

Трек 3

Имя файла F:\mymus\1\03 Das war in Schoeneberg.wav

Длина предзазора 0:00:01.15

Пиковый уровень 97.9 %
Скорость извлечения 1.0 X
Качество трека 100.0 %
CRC теста 02F20CA5
CRC копии 02F20CA5
Трек не обнаружен в базе AccurateRip
Копирование… OK

Трек 4

Имя файла F:\mymus\1\04 Ja, das haben die Maedchen so gerne.wav

Длина предзазора 0:00:01.12

Пиковый уровень 98.0 %
Скорость извлечения 1.1 X
Качество трека 100.0 %
CRC теста 988002FF
CRC копии 988002FF
Трек не обнаружен в базе AccurateRip
Копирование… OK

Трек 5

Имя файла F:\mymus\1\05 La Vie En Rose.wav

Длина предзазора 0:00:01.17

Пиковый уровень 97.6 %
Скорость извлечения 1.2 X
Качество трека 100.0 %
CRC теста B5C5FE01
CRC копии B5C5FE01
Трек не обнаружен в базе AccurateRip
Копирование… OK

Трек 6

Имя файла F:\mymus\1\06 Lieber Leierkastenmann.wav

Длина предзазора 0:00:01.07

Пиковый уровень 97.9 %
Скорость извлечения 1.3 X
Качество трека 100.0 %
CRC теста EFECA9F7
CRC копии EFECA9F7
Трек не обнаружен в базе AccurateRip
Копирование… OK

Трек 7

Имя файла F:\mymus\1\07 Lili Marleen.wav

Длина предзазора 0:00:01.05

Пиковый уровень 88.0 %
Скорость извлечения 1.3 X
Качество трека 100.0 %
CRC теста F28021D7
CRC копии F28021D7
Трек не обнаружен в базе AccurateRip
Копирование… OK

Трек 8

Имя файла F:\mymus\1\08 Wenn du einmal eine Braut hast.wav

Длина предзазора 0:00:01.07

Пиковый уровень 98.0 %
Скорость извлечения 1.3 X
Качество трека 100.0 %
CRC теста 50E8543D
CRC копии 50E8543D
Трек не обнаружен в базе AccurateRip
Копирование… OK

Трек 9

Имя файла F:\mymus\1\09 Durch Berlin fliesst immer noch die Spree.wav

Длина предзазора 0:00:01.12

Пиковый уровень 97.7 %
Скорость извлечения 1.4 X
Качество трека 100.0 %
CRC теста EFDFF1F4
CRC копии EFDFF1F4
Трек не обнаружен в базе AccurateRip
Копирование… OK

Трек 10

Имя файла F:\mymus\1\10 Das ist Berlin wie's weint, das ist Berlin wie's lacht.wav

Длина предзазора 0:00:01.12

Пиковый уровень 97.8 %
Скорость извлечения 1.4 X
Качество трека 100.0 %
CRC теста 6B0931C1
CRC копии 6B0931C1
Трек не обнаружен в базе AccurateRip
Копирование… OK

Трек 11

Имя файла F:\mymus\1\11 Solang noch untern Linden.wav

Длина предзазора 0:00:01.10

Пиковый уровень 97.9 %
Скорость извлечения 1.3 X
Качество трека 100.0 %
CRC теста E98D48BF
CRC копии E98D48BF
Трек не обнаружен в базе AccurateRip
Копирование… OK

Трек 12

Имя файла F:\mymus\1\12 Nach meene Beene ist ja ganz Berlin verrueckt.wav

Длина предзазора 0:00:01.08

Пиковый уровень 98.3 %
Скорость извлечения 1.6 X
Качество трека 100.0 %
CRC теста 2BDA5283
CRC копии 2BDA5283
Трек не обнаружен в базе AccurateRip
Копирование… OK

Трек 13

Имя файла F:\mymus\1\13 Mit dir, mit dir da moecht ich am Sonntag angeln gehn.wav

Длина предзазора 0:00:01.13

Пиковый уровень 97.9 %
Скорость извлечения 1.6 X
Качество трека 100.0 %
CRC теста 335A8878
CRC копии 335A8878
Трек не обнаружен в базе AccurateRip
Копирование… OK

Трек 14

Имя файла F:\mymus\1\14 Du hast ja keine Ahnung wie schoen du bist Berlin.wav

Длина предзазора 0:00:01.18

Пиковый уровень 98.3 %
Скорость извлечения 1.3 X
Качество трека 100.0 %
CRC теста 582E1DA2
CRC копии 582E1DA2
Трек не обнаружен в базе AccurateRip
Копирование… OK


Ни одного трека нет в базе AccurateRip

Ошибок не произошло

Конец отчёта

==== Контрольная сумма отчёта 6267C3C23F46C6C6636AC91CFC0B1D482F3F3F1988E912B415CEF16978C5DA9D ====

––––––––––––––––––––––––––––––

Exact Audio Copy V1.0 beta 3 from 29. August 2011

Отчёт EAC об извлечении, выполненном 4. января 2012, 1:17

Marlene Dietrich / Einfach das Beste

Дисковод: HL-DT-STDVDRAM GH22NS50 Adapter: 2 ID: 0

Режим чтения : Достоверность
Использование точного потока : Да
Отключение кэша аудио : Да
Использование указателей C2 : Нет

Коррекция смещения при чтении : 667
Способность читать области Lead-in и Lead-out : Нет
Заполнение пропущенных сэмплов тишиной : Да
Удаление блоков с тишиной в начале и конце : Нет
При вычислениях CRC использовались нулевые сэмплы : Да
Интерфейс : Встроенный Win32-интерфейс для Win NT/2000
Обработка зазоров : Добавлено к предыдущему треку

Выходной формат : Внутренние WAV-операции
Формат сэмплов : 44.100 Гц; 16 бит; стерео


TOC извлечённого CD

Трек | Старт | Длительность | Начальный сектор | Конечный сектор
––––––––––––––––––––––––––––––––––-
1 | 0:00.00 | 1:57.52 | 0 | 8826
2 | 1:57.52 | 1:49.13 | 8827 | 17014
3 | 3:46.65 | 2:36.72 | 17015 | 28786
4 | 6:23.62 | 3:14.45 | 28787 | 43381
5 | 9:38.32 | 2:51.65 | 43382 | 56271
6 | 12:30.22 | 3:42.13 | 56272 | 72934
7 | 16:12.35 | 3:08.12 | 72935 | 87046
8 | 19:20.47 | 2:06.30 | 87047 | 96526
9 | 21:27.02 | 2:26.20 | 96527 | 107496
10 | 23:53.22 | 2:29.25 | 107497 | 118696
11 | 26:22.47 | 1:32.68 | 118697 | 125664
12 | 27:55.40 | 3:37.00 | 125665 | 141939
13 | 31:32.40 | 2:52.50 | 141940 | 154889
14 | 34:25.15 | 1:05.25 | 154890 | 159789


Трек 1

Имя файла F:\mymus\1\01 Wenn ein Maedel einen Herrn hat.wav

Длина предзазора 0:00:02.00

Пиковый уровень 97.6 %
Скорость извлечения 0.8 X
Качество трека 100.0 %
CRC копии B697585C
Трек не обнаружен в базе AccurateRip
Копирование… OK


Ни одного трека нет в базе AccurateRip

Ошибок не произошло

Конец отчёта

==== Контрольная сумма отчёта 2F5E0B22BB544F941EA03F6B37C5E7FCE0FCA2E18AA53235F34DDA4308030402 ====

Thanks to the Original ripper (unknown)!

Download: