Subcategories
Tags
Language
Tags

Marta Gomez - Entre Cada Palabra (2005)

Posted By: popsakov
Marta Gomez - Entre Cada Palabra (2005)

Marta Gomez - Entre Cada Palabra (2005)
EAC Rip | FLAC (Img) + Cue + Log ~ 299 Mb | MP3 CBR320 ~ 155 Mb
Full Scans | 00:54:11 | RAR 5% Recovery
Latin, Pop, Jazz | Chesky Records #JD301

Colombian singer/songwriter Marta Gomez is a wonderful, enigmatic talent. Her voice has the lulling softness that evokes Brazil's female vocal icons, yet there's a depth to her writing that goes far beneath the surface. She's also something of an expert on Latin rhythms – there are 13 different ones on this disc, all of them rooted in different cultures, from Colombian bambuco to Argentine chamame. But everything is so perfectly put together that you forget the academic side, pulled along by the music and voice. Recorded over just three days, it's a small masterwork. It doesn't matter if you don't understand Spanish, as Gomez evokes delicate moods in her work, each piece beautifully arranged and shaded, with a very live sound. Her last album saw her labeled as a jazz singer, but there's little evidence of that here, possibly quite deliberately. Instead it's an album of low-key Latin music that at times edges toward a more straightforward singer/songwriter stance – albeit a very classy one (think Joni Mitchell, for example). On the evidence of this and her previous disc, Gomez is a rapidly rising star of genuine quality and inspiration.

~ Chris Nickson, All Music

***************

Marta Gomez - Entre Cada Palabra (2005)

Marta Gomez - Entre Cada Palabra (2005)

Track List:

01. Maria Mulata [03:30]
02. Dona Luisa [02:56]
03. De Amarillo se viste la tarde [03:32]
04. Mar Adentro, despacito [04:55]
05. Casi [03:34]
06. Un pedacito de tu amor [03:42]
07. ?Quien se acordara? [03:55]
08. Esta Linda la Mar [03:35]
09. Lucia [04:32]
10. Negrito [03:45]
11. Cielito Lindo [03:57]
12. Como un Secreto [03:08]
13. Entre Cada Palabra [04:44]
14. Pececito de agua [04:27]

Exact Audio Copy V1.0 beta 3 from 29. August 2011

EAC extraction logfile from 12. August 2016, 20:55

Marta Gomez / Entre Cada Palabra

Used drive : MATSHITABD-CMB UJ242AS Adapter: 0 ID: 1

Read mode : Secure
Utilize accurate stream : Yes
Defeat audio cache : Yes
Make use of C2 pointers : No

Read offset correction : 103
Overread into Lead-In and Lead-Out : No
Fill up missing offset samples with silence : Yes
Delete leading and trailing silent blocks : No
Null samples used in CRC calculations : Yes
Used interface : Installed external ASPI interface

Used output format : User Defined Encoder
Selected bitrate : 1024 kBit/s
Quality : High
Add ID3 tag : Yes
Command line compressor : C:\Program Files (x86)\Exact Audio Copy\Flac\flac.exe
Additional command line options : -V -8 -T "Date=%year%" -T "Genre=%genre%" %source%


TOC of the extracted CD

Track | Start | Length | Start sector | End sector
––––––––––––––––––––––––––––-
1 | 0:00.00 | 3:29.10 | 0 | 15684
2 | 3:29.10 | 2:56.00 | 15685 | 28884
3 | 6:25.10 | 3:32.00 | 28885 | 44784
4 | 9:57.10 | 4:55.00 | 44785 | 66909
5 | 14:52.10 | 3:34.00 | 66910 | 82959
6 | 18:26.10 | 3:42.00 | 82960 | 99609
7 | 22:08.10 | 3:55.00 | 99610 | 117234
8 | 26:03.10 | 3:35.00 | 117235 | 133359
9 | 29:38.10 | 4:32.00 | 133360 | 153759
10 | 34:10.10 | 3:45.00 | 153760 | 170634
11 | 37:55.10 | 3:57.00 | 170635 | 188409
12 | 41:52.10 | 3:08.00 | 188410 | 202509
13 | 45:00.10 | 4:44.00 | 202510 | 223809
14 | 49:44.10 | 4:26.20 | 223810 | 243779


Range status and errors

Selected range

Filename C:\EACrip\Marta Gomez - Entre Cada Palabra.wav

Peak level 99.9 %
Extraction speed 4.2 X
Range quality 100.0 %
Test CRC 97F04DFA
Copy CRC 97F04DFA
Copy OK

No errors occurred


AccurateRip summary

Track 1 accurately ripped (confidence 18) [FC41B41B] (AR v2)
Track 2 accurately ripped (confidence 18) [82C69681] (AR v2)
Track 3 accurately ripped (confidence 18) [C4B46996] (AR v2)
Track 4 accurately ripped (confidence 18) [6AF74F7B] (AR v2)
Track 5 accurately ripped (confidence 18) [6A7BEFEB] (AR v2)
Track 6 accurately ripped (confidence 18) [21C38803] (AR v2)
Track 7 accurately ripped (confidence 18) [82AAB644] (AR v2)
Track 8 accurately ripped (confidence 18) [9163961F] (AR v2)
Track 9 accurately ripped (confidence 17) [5200A81D] (AR v2)
Track 10 accurately ripped (confidence 17) [5F6C0C4F] (AR v2)
Track 11 accurately ripped (confidence 18) [D2D8C534] (AR v2)
Track 12 accurately ripped (confidence 17) [772B3047] (AR v2)
Track 13 accurately ripped (confidence 18) [ACD67053] (AR v2)
Track 14 accurately ripped (confidence 18) [7868B96F] (AR v2)

All tracks accurately ripped

End of status report

==== Log checksum BEBBF28D10AF38D5D7290BD1D45B15EFBF134D74BE32C36879B229CC75B9319A ====

[CUETools log; Date: 15.08.2016 17:41:30; Version: 2.1.5]
[CTDB TOCID: Rei.bpJX_NNLvBv_sXaS6ZrWoAc-] found.
Track | CTDB Status
1 | (26/27) Accurately ripped
2 | (27/27) Accurately ripped
3 | (27/27) Accurately ripped
4 | (27/27) Accurately ripped
5 | (27/27) Accurately ripped
6 | (27/27) Accurately ripped
7 | (27/27) Accurately ripped
8 | (27/27) Accurately ripped
9 | (26/27) Accurately ripped
10 | (26/27) Accurately ripped
11 | (27/27) Accurately ripped
12 | (26/27) Accurately ripped
13 | (27/27) Accurately ripped
14 | (27/27) Accurately ripped
[AccurateRip ID: 001b0b2f-0122e101-c10cb20e] found.
Track [ CRC | V2 ] Status
01 [2372a836|fc41b41b] (12+18/47) Accurately ripped
02 [3ce8fbff|82c69681] (13+18/48) Accurately ripped
03 [8da51d62|c4b46996] (13+18/48) Accurately ripped
04 [9e875ea6|6af74f7b] (13+18/48) Accurately ripped
05 [c41f45f3|6a7befeb] (13+18/48) Accurately ripped
06 [e47b7bc5|21c38803] (13+18/48) Accurately ripped
07 [8a4d85f5|82aab644] (12+18/47) Accurately ripped
08 [7ba085dd|9163961f] (12+18/47) Accurately ripped
09 [77437a73|5200a81d] (12+17/46) Accurately ripped
10 [04c25782|5f6c0c4f] (13+17/47) Accurately ripped
11 [71683e84|d2d8c534] (13+18/48) Accurately ripped
12 [16e7dbe9|772b3047] (13+17/47) Accurately ripped
13 [92654cf6|acd67053] (13+18/48) Accurately ripped
14 [13157196|7868b96f] (13+18/48) Accurately ripped
Offsetted by 36:
01 [1f9cf44d] (09/47) Accurately ripped
02 [abf41a99] (09/48) Accurately ripped
03 [b0f345b6] (09/48) Accurately ripped
04 [a2697c9f] (09/48) Accurately ripped
05 [4ce7b13a] (09/48) Accurately ripped
06 [0ee7611d] (09/48) Accurately ripped
07 [3d68a225] (09/47) Accurately ripped
08 [2c4d6b30] (09/47) Accurately ripped
09 [3958758a] (09/46) Accurately ripped
10 [8b1bf5fd] (09/47) Accurately ripped
11 [ba9f06bf] (09/48) Accurately ripped
12 [01bdcc48] (09/47) Accurately ripped
13 [109e7391] (09/48) Accurately ripped
14 [7f8bcb6a] (09/48) Accurately ripped
Offsetted by 635:
01 [14699c7a] (02/47) Accurately ripped
02 [290c7865] (02/48) Accurately ripped
03 [f28bb945] (02/48) Accurately ripped
04 [f11eba2d] (02/48) Accurately ripped
05 [d6be0498] (02/48) Accurately ripped
06 [107da11e] (02/48) Accurately ripped
07 [1f99d62d] (02/47) Accurately ripped
08 [afc0af64] (02/47) Accurately ripped
09 [16c05e1e] (02/46) Accurately ripped
10 [ac2c2e23] (02/47) Accurately ripped
11 [5a9ad49f] (02/48) Accurately ripped
12 [8a75c173] (02/47) Accurately ripped
13 [d8557cde] (02/48) Accurately ripped
14 [9304dd27] (02/48) Accurately ripped

Track Peak [ CRC32 ] [W/O NULL] [ LOG ]
– 99,9 [97F04DFA] [B7117B97] CRC32
01 99,3 [A46EA62C] [7EDE0912]
02 95,5 [2750FC31] [1613A991]
03 98,5 [595B2359] [1D8E67F8]
04 99,9 [8354B879] [CFA17FF1]
05 57,7 [7112E8B1] [B9FBBE09]
06 81,4 [CA060C7C] [C37798E7]
07 99,1 [E96BE663] [245CC49C]
08 95,3 [9C16F5D7] [5D0FD843]
09 82,4 [BF94CEA4] [8E80CE13]
10 79,3 [6D1EE362] [5A75B469]
11 55,6 [DAACCE8D] [E4790288]
12 78,4 [9A830D22] [BC79B1AC]
13 99,2 [CA670A97] [B6F1A40B]
14 99,2 [067CECB1] [BAFBEC48]

Marta Gomez - Entre Cada Palabra (2005)


All thanks go to RD

>>> My Blog <<<

DOWNLOAD: