Martha Argerich, Daniel Barenboim - Live from Buenos Aires: Schumann, Debussy, Bartók (2016)

Posted By: tirexiss
Martha Argerich, Daniel Barenboim - Live from Buenos Aires: Schumann, Debussy, Bartók (2016)

Martha Argerich, Daniel Barenboim - Live from Buenos Aires: Schumann, Debussy, Bartók (2016)
EAC | FLAC (image+.cue, log) | Covers Included | 59:04 | 189 MB
Genre: Classical | Label: Deutsche Grammophon | Catalog: 002460802

The connections between Martha Argerich and Daniel Barenboim run deeper than the fact that they are both Argentines; Argerich studied with Vincenzo Scaramuzza, who also taught Barenboim's father, and the pianists both have Russian-Jewish-Argentine ancestry. They have the kind of instinctive understanding, coming from shared experiences, that makes for successful duo piano work, and that sets this live recording apart from the majority of superstar pairings. An additional bonus is what the booklet notes claim as "an intellectual standard that was uncompromising and unreliant on dramatic effect." You might think this means that the interpretations as a whole are a bit cool, and you'd be right. But Argerich and Barenboim bring a fairly rare work, Schumann's Six Studies in Canon Form, Op. 56, and they do it justice. These little pieces were originally written for organ or the now obsolete pedal piano (which ought to be revived by historical specialists); they were arranged for two pianos by none other than Debussy. Argerich and Barenboim bring a smooth clockwork feel to the music that's quite hypnotic; sample any one of the six as a way into this album. Debussy's En blanc et noir is also elegantly finished, and the Deutsche Grammophon live sound from the famed Teatro Colón is remarkably detailed. The Bartók Sonata for two pianos and percussion, Sz 110, doesn't stand out, but this is recommended for fans of these two defining artists of our time. – James Manheim

Martha Argerich, Daniel Barenboim - Live from Buenos Aires: Schumann, Debussy, Bartók (2016)

Track List:

Robert Schumann
[1]-[6] Six Studies in Canon Form, Op.56

Claude Debussy
[7]-[9] En blanc et noir

Béla Bartók
[10]-[12] Sonata for Two Pianos and Percussion
Pedro Manuel Torrejón González, Lev Loftus percussion
Recorded live at Buenos Aires, Teatro Colón, 26 July 2015

Performers:
Martha Argerich & Daniel Barenboim, pianos

Exact Audio Copy V1.1 from 23. June 2015

EAC extraction logfile from 17. December 2016, 1:12

Martha Argerich, Daniel Barenboim / Live From Buenos Aires

Used drive : HL-DT-STDVDRAM GU70N Adapter: 1 ID: 0

Read mode : Secure
Utilize accurate stream : Yes
Defeat audio cache : Yes
Make use of C2 pointers : No

Read offset correction : 48
Overread into Lead-In and Lead-Out : No
Fill up missing offset samples with silence : Yes
Delete leading and trailing silent blocks : No
Null samples used in CRC calculations : Yes
Used interface : Native Win32 interface for Win NT & 2000

Used output format : User Defined Encoder
Selected bitrate : 128 kBit/s
Quality : High
Add ID3 tag : No
Command line compressor : C:\Program Files (x86)\Exact Audio Copy\Flac\flac.exe
Additional command line options : -V -8 -T "Date=%year%" -T "Genre=%genre%" %source%


TOC of the extracted CD

Track | Start | Length | Start sector | End sector
––––––––––––––––––––––––––––-
1 | 0:00.00 | 2:26.73 | 0 | 11022
2 | 2:26.73 | 3:26.24 | 11023 | 26496
3 | 5:53.22 | 1:55.36 | 26497 | 35157
4 | 7:48.58 | 3:27.33 | 35158 | 50715
5 | 11:16.16 | 2:16.30 | 50716 | 60945
6 | 13:32.46 | 2:54.05 | 60946 | 74000
7 | 16:26.51 | 4:21.25 | 74001 | 93600
8 | 20:48.01 | 6:12.25 | 93601 | 121525
9 | 27:00.26 | 4:25.40 | 121526 | 141440
10 | 31:25.66 | 13:23.68 | 141441 | 201733
11 | 44:49.59 | 6:50.20 | 201734 | 232503
12 | 51:40.04 | 7:23.57 | 232504 | 265785


Range status and errors

Selected range

Filename C:\temp\Live from Buenos Aires - Argerich, Barenboim\Live From Buenos Aires.wav

Peak level 97.2 %
Extraction speed 5.2 X
Range quality 100.0 %
Test CRC CD1CDC62
Copy CRC CD1CDC62
Copy OK

No errors occurred


AccurateRip summary

Track 1 accurately ripped (confidence 6) [430154A9] (AR v2)
Track 2 accurately ripped (confidence 6) [D3BB77F1] (AR v2)
Track 3 accurately ripped (confidence 6) [3CDEEA56] (AR v2)
Track 4 accurately ripped (confidence 6) [D3B8BCE7] (AR v2)
Track 5 accurately ripped (confidence 6) [C593A22D] (AR v2)
Track 6 accurately ripped (confidence 6) [68662908] (AR v2)
Track 7 accurately ripped (confidence 6) [D745C8A5] (AR v2)
Track 8 accurately ripped (confidence 6) [DED5D532] (AR v2)
Track 9 accurately ripped (confidence 6) [A632ADE8] (AR v2)
Track 10 accurately ripped (confidence 6) [9ED4D071] (AR v2)
Track 11 accurately ripped (confidence 6) [2ED3C316] (AR v2)
Track 12 accurately ripped (confidence 6) [DF4C8F3D] (AR v2)

All tracks accurately ripped

End of status report

==== Log checksum 350A2633104EC1BFD27961DECD8CE271A9F0512898E79D29A14E4A009265D1C5 ====

[CUETools log; Date: 16.09.2017 9:26:16; Version: 2.1.5]
[CTDB TOCID: _3SMu.Pku3rTG2eB0c6ZZXpqNZc-] found.
Track | CTDB Status
1 | (51/51) Accurately ripped
2 | (50/51) Accurately ripped
3 | (50/51) Accurately ripped
4 | (50/51) Accurately ripped
5 | (50/51) Accurately ripped
6 | (50/51) Accurately ripped
7 | (49/51) Accurately ripped
8 | (49/51) Accurately ripped
9 | (48/51) Accurately ripped
10 | (49/51) Accurately ripped
11 | (50/51) Accurately ripped
12 | (49/51) Accurately ripped
[AccurateRip ID: 00141075-00c7e6b5-a50dd70c] found.
Track [ CRC | V2 ] Status
01 [f763f009|430154a9] (00+10/10) Accurately ripped
02 [7cb0b196|d3bb77f1] (00+10/10) Accurately ripped
03 [0f4423a2|3cdeea56] (00+10/10) Accurately ripped
04 [44f00450|d3b8bce7] (00+10/10) Accurately ripped
05 [440767ed|c593a22d] (00+10/10) Accurately ripped
06 [65c4b4f5|68662908] (00+10/10) Accurately ripped
07 [e972eff0|d745c8a5] (00+10/10) Accurately ripped
08 [e3835909|ded5d532] (00+10/10) Accurately ripped
09 [d5e692ab|a632ade8] (00+10/10) Accurately ripped
10 [3aa11336|9ed4d071] (00+10/10) Accurately ripped
11 [e2006f2e|2ed3c316] (00+10/10) Accurately ripped
12 [edd5d7ed|df4c8f3d] (00+10/10) Accurately ripped

Track Peak [ CRC32 ] [W/O NULL] [ LOG ]
– 97,2 [CD1CDC62] [61A2A06C] CRC32
01 34,9 [D2167081] [28BA934C]
02 46,9 [CA807E79] [25E751B2]
03 47,1 [58E53E49] [BDCD64B4]
04 63,2 [899727F6] [6B56D8A2]
05 52,5 [EF090A64] [6B1F4B05]
06 33,4 [3D3D1496] [977395E8]
07 84,7 [2A449733] [4D486F2E]
08 96,6 [43F8C5F6] [61E8972A]
09 79,9 [F13E4FB0] [D3165B19]
10 97,2 [44A3B54A] [354D905B]
11 59,4 [57B86EEB] [BB088559]
12 86,7 [EC6C89E6] [8C56FBD2]

Thanks to the Original ripper A-Z!

Download: