Subcategories
Tags
Language
Tags

Martin Barre - A Trick Of Memory (1994)

Posted By: popsakov
Martin Barre - A Trick Of Memory (1994)

Martin Barre - A Trick Of Memory (1994)
EAC Rip | FLAC (Img) + Cue + Log ~ 331 Mb | MP3 CBR320 ~ 129 Mb
Full Scans | Martin Barre | RAR 5% Recovery
Progressive Rock / Art Rock / Hard Rock / Jazz Rock / Folk
ZYX Music #ZYX 3613-2 / ZYX 20282-2

Martin Barre is an English rock musician best known for his work with progressive rock band Jethro Tull, with whom he recorded and toured from their second album in 1969 to the band's initial dissolution in 2012. In the early 1990s he went solo, and has recorded four studio albums and made several guest appearances.

A decent debut album, featuring a lively mix of hard-rock and r&b with progressive rock, folk, and blues sources. Ex-King Crimson alumnus Mel Collins blows the sax, and Fairport Convention's Martin Allcock and Ric Sanders turn up on a couple of tracks, but the dominant sound is Barre's guitars, soaring, crunching, grinding, or noodling gently, either blues or English folk tunes–he's not as focused here as he is on Tull's records, and his sense of melody isn't as strong as Ian Anderson's, but his playing can be entertaining and diverting. The folk-like title track is practically a lost Tull number, with a great beat and Barre singing like Anderson while playing a sweet mix of acoustic and electric guitars and mandolin. But most of the rest here is blues, r&b, and hard rock–Maggie Reeday provides the soulful lead vocals on "A Blues For All Reasons," sharing the spotlight with Barre's stinging solos and acoustic blues noodlings, and Andy Giddings' pumping Hammond organ. Some of the lyrics are dispensible, and the material doen't hold up for 50 minutes, but any fan looking for something between Tull tours may enjoy it.

~ Bruce Eder, All Music

***************

Martin Barre - A Trick Of Memory (1994)

Martin Barre - A Trick Of Memory (1994)

Track List:

01. Bug [0:04:08.72]
02. Way Before Your Time [0:04:37.30]
03. Bug Bee [0:00:51.25]
04. Empty Cafe [0:02:08.60]
05. Suspicion [0:04:26.55]
06. I Be Thank You [0:02:18.43]
07. A Blues for all Reasons [0:07:17.02]
08. A Trick of Memory [0:04:10.38]
09. Steal [0:04:48.55]
10. Another View [0:01:45.40]
11. Cold Heart [0:05:20.67]
12. Bug C [0:00:51.48]
13. Morris Minus [0:03:06.30]
14. In the Shade of the Shadow [0:04:10.02]

Exact Audio Copy V0.99 prebeta 5 from 4. May 2009

EAC extraction logfile from 26. June 2009, 12:57

Martin Barre / A Trick Of Memory

Used drive : HL-DT-STDVD-ROM GDR8164B Adapter: 2 ID: 1

Read mode : Secure
Utilize accurate stream : Yes
Defeat audio cache : Yes
Make use of C2 pointers : No

Read offset correction : 102
Overread into Lead-In and Lead-Out : No
Fill up missing offset samples with silence : Yes
Delete leading and trailing silent blocks : No
Null samples used in CRC calculations : Yes
Used interface : Native Win32 interface for Win NT & 2000

Used output format : User Defined Encoder
Selected bitrate : 1024 kBit/s
Quality : High
Add ID3 tag : No
Command line compressor : C:\Programms\EAC\flac.exe
Additional command line options : -V -8 -T "artist=%a" -T "title=%t" -T "album=%g" -T "date=%y" -T "tracknumber=%n" -T "genre=%m" %s


TOC of the extracted CD

Track | Start | Length | Start sector | End sector
––––––––––––––––––––––––––––-
1 | 0:00.00 | 4:08.72 | 0 | 18671
2 | 4:08.72 | 4:37.30 | 18672 | 39476
3 | 8:46.27 | 0:51.25 | 39477 | 43326
4 | 9:37.52 | 2:08.60 | 43327 | 52986
5 | 11:46.37 | 4:26.55 | 52987 | 72991
6 | 16:13.17 | 2:18.43 | 72992 | 83384
7 | 18:31.60 | 7:17.02 | 83385 | 116161
8 | 25:48.62 | 4:10.38 | 116162 | 134949
9 | 29:59.25 | 4:48.55 | 134950 | 156604
10 | 34:48.05 | 1:45.40 | 156605 | 164519
11 | 36:33.45 | 5:20.67 | 164520 | 188586
12 | 41:54.37 | 0:51.48 | 188587 | 192459
13 | 42:46.10 | 3:06.30 | 192460 | 206439
14 | 45:52.40 | 4:10.02 | 206440 | 225191


Range status and errors

Selected range

Filename C:\EAC\0Flac\Martin Barre - A Trick of Memory.wav

Peak level 99.9 %
Range quality 100.0 %
Test CRC B902419E
Copy CRC B902419E
Copy OK

No errors occurred


AccurateRip summary

Track 1 accurately ripped (confidence 3) [2086FE82]
Track 2 accurately ripped (confidence 3) [357D2698]
Track 3 accurately ripped (confidence 3) [0FF02A80]
Track 4 accurately ripped (confidence 3) [165DF122]
Track 5 accurately ripped (confidence 3) [B15A68F3]
Track 6 accurately ripped (confidence 3) [46CEE81E]
Track 7 accurately ripped (confidence 3) [0435E831]
Track 8 accurately ripped (confidence 3) [0E2459FB]
Track 9 accurately ripped (confidence 3) [4CA97753]
Track 10 accurately ripped (confidence 3) [8598D4CC]
Track 11 accurately ripped (confidence 3) [D201DA0E]
Track 12 accurately ripped (confidence 3) [C98EA0F9]
Track 13 accurately ripped (confidence 3) [0C5D10AE]
Track 14 accurately ripped (confidence 2) [85B43D0E]

All tracks accurately ripped

End of status report

[CUETools log; Date: 25.07.2019 13:49:00; Version: 2.1.6]
[CTDB TOCID: wrttzUk6uKsr0ztRFYxYKfHTELA-] found.
Track | CTDB Status
1 | (21/21) Accurately ripped
2 | (21/21) Accurately ripped
3 | (21/21) Accurately ripped
4 | (21/21) Accurately ripped
5 | (21/21) Accurately ripped
6 | (21/21) Accurately ripped
7 | (21/21) Accurately ripped
8 | (21/21) Accurately ripped
9 | (21/21) Accurately ripped
10 | (21/21) Accurately ripped
11 | (21/21) Accurately ripped
12 | (21/21) Accurately ripped
13 | (21/21) Accurately ripped
14 | (21/21) Accurately ripped
[AccurateRip ID: 0019e00c-01153a1a-bd0bba0e] found.
Track [ CRC | V2 ] Status
01 [2086fe82|11502eee] (05+12/19) Accurately ripped
02 [357d2698|02266d46] (05+12/19) Accurately ripped
03 [0ff02a80|95b6c18a] (05+12/19) Accurately ripped
04 [165df122|22e3719b] (05+12/19) Accurately ripped
05 [b15a68f3|06fca4cd] (05+12/19) Accurately ripped
06 [46cee81e|1f616cd1] (05+12/19) Accurately ripped
07 [0435e831|20764567] (05+12/19) Accurately ripped
08 [0e2459fb|b9e6d150] (05+12/19) Accurately ripped
09 [4ca97753|6906ecc9] (05+12/19) Accurately ripped
10 [8598d4cc|b1401146] (05+12/19) Accurately ripped
11 [d201da0e|8a3c4193] (05+12/19) Accurately ripped
12 [c98ea0f9|f08b848d] (05+12/19) Accurately ripped
13 [0c5d10ae|71d66096] (05+12/19) Accurately ripped
14 [85b43d0e|9922dd1d] (04+12/18) Accurately ripped
Offsetted by -107:
01 [7c4f6f7d] (00/19) No match (V2 was not tested)
02 [3b1974f2] (00/19) No match (V2 was not tested)
03 [bd5d7732] (00/19) No match (V2 was not tested)
04 [a44c1d66] (00/19) No match (V2 was not tested)
05 [c0750489] (00/19) No match (V2 was not tested)
06 [50981b90] (00/19) No match (V2 was not tested)
07 [13ca9304] (00/19) No match (V2 was not tested)
08 [eb2214d3] (00/19) No match (V2 was not tested)
09 [ce0d5468] (00/19) No match (V2 was not tested)
10 [b1a20d39] (00/19) No match (V2 was not tested)
11 [42fb74e8] (00/19) No match (V2 was not tested)
12 [63e6d034] (00/19) No match (V2 was not tested)
13 [fcccba55] (00/19) No match (V2 was not tested)
14 [34f60965] (00/18) No match (V2 was not tested)

Track Peak [ CRC32 ] [W/O NULL] [ LOG ]
– 99,9 [B902419E] [E62691D7] CRC32
01 96,5 [263836AC] [57258E9D]
02 99,9 [3A5C4272] [3AF22BF4]
03 67,6 [ED9262F4] [B466059B]
04 64,7 [5EB721B5] [CEBA64EF]
05 91,3 [CBF89898] [6DBEC8BF]
06 57,2 [19CACA89] [7ABAD12D]
07 99,8 [26AD2D6F] [D55583C5]
08 98,3 [DEF309EE] [06B195AA]
09 92,6 [07BB1486] [90D3BEC0]
10 70,7 [6AF5B913] [9BDE1DAC]
11 88,9 [BFDC431B] [65F89AC7]
12 58,9 [EBB1AEFB] [6C74C851]
13 90,7 [E39386DE] [A91D5BF7]
14 73,2 [C7473D6D] [F637DFE8]

Martin Barre - A Trick Of Memory (1994)


All thanks go to vsimonov

>>> Martin Barre in my Blog <<<

DOWNLOAD: