Tags
Language
Tags

Marvin Gaye - Midnight Love & The Sexual Healing Sessions (1982) 2CDs Deluxe Edition, Remastered Reissue 2007

Posted By: Designol
Marvin Gaye - Midnight Love & The Sexual Healing Sessions (1982) 2CDs Deluxe Edition, Remastered Reissue 2007

Marvin Gaye - Midnight Love & The Sexual Healing Sessions (1982)
2CDs Deluxe Edition, Remastered Reissue 2007

EAC | FLAC | Image (Cue&Log) ~ 734 Mb | Mp3 (CBR320) ~ 260 Mb | Scans ~ 49 Mb
Soul, Funk, Quiet Storm | Label: Columbia/Legacy | # 88697 07557 2 | 01:53:54

Midnight Love is the seventeenth and final studio album (that is not a posthumous one) by Marvin Gaye. He signed with the label Columbia in March 1982 following his exit from Motown. The final album to be released before his death, it ultimately became the most successful album of Gaye's entire career. The disc was certified triple platinum in the United States, selling well over six million copies worldwide. It was nominated for a 1984 Grammy for Best Male R&B Vocal Performance, spawning the two-time Grammy Award-winning smash, "Sexual Healing". It was ranked number 37 on the Rolling Stone list of the best albums of the 1980s decade and the NME named the album as its Album of the Year in 1983. In 1998, Sony Music re-released the album as a two-CD "Legacy" edition set titled Midnight Love and the Sexual Healing Sessions. The same edition would be re-released in 2007, to celebrate the album's 25th anniversary since its release.

After a series of business and personal upheavals as well as a couple of artistically satisfying but commercially disappointing albums, Marvin Gaye scored a final triumph with Midnight Love on which he embraced dancefloor rhythms derived from Rick James, horn charts that echoed Earth, Wind & Fire, and the kind of loverman lyrics he himself had pioneered on earlier hits such as "Let's Get It On." The breakthrough track was his last major hit, "Sexual Healing," a relaxed groove tune with burbling percussion, doo wop backup vocals, and a new twist on the old romantic come-on. But the album as a whole made Gaye's case as a contemporary R&B artist. Then he was gone. This reissue compilation contains the entire Midnight Love album on the first disc, followed by a full 74-minute disc of previously unreleased work tapes and alternate takes of most of the album's songs, among them four versions of "Sexual Healing." Since Gaye developed the tracks himself, playing keyboards and percussion, the alternates illuminate his creative process, but they contain no real revelations and will be of interest primarily to Gaye fans and hip-hop musicians searching for samples. Everybody else can stick with the original album.

Review by William Ruhlmann, Allmusic.com

Marvin Gaye - Midnight Love & The Sexual Healing Sessions (1982) 2CDs Deluxe Edition, Remastered Reissue 2007



Tracklist:

CD1 - Midnight Love (39:33)

01. Midnight Lady (5:18)
02. Sexual Healing (4:00)
03. Rockin' After Midnight (6:04)
04. 'Til Tomorrow (4:57)
05. Turn On Some Music (5:08)
06. Third World Girl (4:36)
07. Joy (4:23)
08. My Love Is Waiting (5:07)

CD2 - The Sexual Healing Sessions (1:14:21)

01. Clique Games/Rick James (Original Version Of 'Midnight Lady') (5:39)
02. Sexual Healing (Alternate 12-inch Instrumental) (4:38)
03. Sexual Healing (Original Vocal Version) (4:40)
04. Sexual Healing (Alternate Vocal/Mix) (4:49)
05. I Bet You Wonder (Original Version Of 'Rockin' After Midnight') (6:43)
06. Rockin' After Midnight (Instrumental) (7:00)
07. Baby, Baby, Baby (Original Version Of ''Til Tomorrow') (6:54)
08. I've Got My Music (Original Version Of 'Turn On Some Music') (5:33)
09. Turn On Some Music (Alternate Vocal/Mix) (5:16)
10. Third World Girl (Original Reggae Version) (8:01)
11. Third World Girl (Alternate Vocal/Mix) (6:34)
12. My Love Is Waiting (Alternate Vocal/Mix) (5:16)
13. Marvin's Message To The CBS Record Staff (1:03)
14. Sexual Healing (Rehearsal Tape Courtesy Of David Ritz) (2:15)


Exact Audio Copy V1.0 beta 3 from 29. August 2011

EAC extraction logfile from 8. May 2013, 21:35

Marvin Gaye / Midnight Love

Used drive : ASUS DRW-24B5ST Adapter: 2 ID: 0

Read mode : Secure
Utilize accurate stream : Yes
Defeat audio cache : Yes
Make use of C2 pointers : No

Read offset correction : 6
Overread into Lead-In and Lead-Out : No
Fill up missing offset samples with silence : Yes
Delete leading and trailing silent blocks : No
Null samples used in CRC calculations : Yes
Used interface : Installed external ASPI interface

Used output format : User Defined Encoder
Selected bitrate : 128 kBit/s
Quality : High
Add ID3 tag : No
Command line compressor : C:\Exact Audio Copy [installed]\Flac\flac.exe
Additional command line options : -V -8 -T "Date=%year%" -T "COMMENT=ripped by Andy aka yetiisyou" -T "Genre=%genre%" %source%


TOC of the extracted CD

Track | Start | Length | Start sector | End sector
––––––––––––––––––––––––––––-
1 | 0:00.00 | 5:17.57 | 0 | 23831
2 | 5:17.57 | 3:59.55 | 23832 | 41811
3 | 9:17.37 | 6:03.58 | 41812 | 69094
4 | 15:21.20 | 4:57.22 | 69095 | 91391
5 | 20:18.42 | 5:08.23 | 91392 | 114514
6 | 25:26.65 | 4:35.60 | 114515 | 135199
7 | 30:02.50 | 4:22.65 | 135200 | 154914
8 | 34:25.40 | 5:07.30 | 154915 | 177969


Range status and errors

Selected range

Filename E:\!Rips\Marvin Gaye - Midnight Love & The Sexual Healing Sessions [2007]\Marvin Gaye - Midnight Love.wav

Peak level 100.0 %
Extraction speed 8.6 X
Range quality 100.0 %
Test CRC DD69602F
Copy CRC DD69602F
Copy OK

No errors occurred


AccurateRip summary

Track 1 accurately ripped (confidence 6) [73615D13] (AR v1)
Track 2 accurately ripped (confidence 7) [5C818E2F] (AR v1)
Track 3 accurately ripped (confidence 6) [2BEAD2E6] (AR v1)
Track 4 accurately ripped (confidence 6) [4141B8B2] (AR v1)
Track 5 accurately ripped (confidence 6) [BE4386E8] (AR v1)
Track 6 accurately ripped (confidence 6) [84C57609] (AR v1)
Track 7 accurately ripped (confidence 6) [4A7D893B] (AR v1)
Track 8 accurately ripped (confidence 5) [70BEBC96] (AR v1)

All tracks accurately ripped

End of status report

–– CUETools DB Plugin V2.1.3

[CTDB TOCID: AuyWp9M0Lne91zHzL4_queDa1_E-] found, Submit result: AuyWp9M0Lne91zHzL4_queDa1_E- has been confirmed
[a4cf6bfb] (14/14) Accurately ripped


==== Log checksum C34C7DA0ECD59BCCA4805210067DD31DE703EA75F8F900E0FCB9C10CEB2380CA ====

[CUETools log; Date: 30.10.2018 1:30:43; Version: 2.1.4]
[CTDB TOCID: AuyWp9M0Lne91zHzL4_queDa1_E-] found.
Track | CTDB Status
1 | (48/48) Accurately ripped
2 | (48/48) Accurately ripped
3 | (48/48) Accurately ripped
4 | (48/48) Accurately ripped
5 | (47/48) Accurately ripped
6 | (48/48) Accurately ripped
7 | (48/48) Accurately ripped
8 | (47/48) Accurately ripped
[AccurateRip ID: 000c571b-00521b75-61094408] found.
Track [ CRC | V2 ] Status
01 [73615d13|5686fd45] (06+10/62) Accurately ripped
02 [5c818e2f|a278f1fc] (07+10/64) Accurately ripped
03 [2bead2e6|5693e3bd] (06+10/62) Accurately ripped
04 [4141b8b2|107df3ba] (06+10/61) Accurately ripped
05 [be4386e8|f2512a59] (06+10/62) Accurately ripped
06 [84c57609|ca270791] (06+10/58) Accurately ripped
07 [4a7d893b|211a5c1c] (06+10/60) Accurately ripped
08 [70bebc96|cdb58495] (05+10/58) Accurately ripped

Track Peak [ CRC32 ] [W/O NULL] [ LOG ]
– 99,9 [DD69602F] [A9031567] CRC32
01 99,9 [1E3ACA5E] [8E3472C6]
02 99,9 [9F71FB36] [8EFB9825]
03 99,9 [6FE78166] [9CBA7903]
04 99,9 [9E0B84A6] [E3A6050F]
05 99,9 [9F572A5A] [F3BAA0E5]
06 99,9 [3699CAC4] [24DE1350]
07 99,9 [BE6DD248] [FB98D6F7]
08 99,9 [18D61690] [A826123C]

foobar2000 1.2 / Dynamic Range Meter 1.1.1
log date: 2018-10-30 01:39:04

––––––––––––––––––––––––––––––––––––––––
Analyzed: Marvin Gaye / Midnight Love
––––––––––––––––––––––––––––––––––––––––

DR Peak RMS Duration Track
––––––––––––––––––––––––––––––––––––––––
DR10 0.00 dB -11.69 dB 5:18 01-Midnight Lady
DR12 0.00 dB -13.00 dB 4:00 02-Sexual Healing
DR10 0.00 dB -11.83 dB 6:04 03-Rockin' After Midnight
DR12 0.00 dB -13.81 dB 4:57 04-'Til Tomorrow
DR11 0.00 dB -12.03 dB 5:08 05-Turn On Some Music
DR11 0.00 dB -12.07 dB 4:36 06-Third World Girl
DR11 0.00 dB -12.03 dB 4:23 07-Joy
DR11 0.00 dB -11.90 dB 5:07 08-My Love Is Waiting
––––––––––––––––––––––––––––––––––––––––

Number of tracks: 8
Official DR value: DR11

Samplerate: 44100 Hz
Channels: 2
Bits per sample: 16
Bitrate: 951 kbps
Codec: FLAC
================================================================================


Exact Audio Copy V1.0 beta 3 from 29. August 2011

EAC extraction logfile from 8. May 2013, 21:53

Marvin Gaye / The Sexual Healing Sessions

Used drive : ASUS DRW-24B5ST Adapter: 2 ID: 0

Read mode : Secure
Utilize accurate stream : Yes
Defeat audio cache : Yes
Make use of C2 pointers : No

Read offset correction : 6
Overread into Lead-In and Lead-Out : No
Fill up missing offset samples with silence : Yes
Delete leading and trailing silent blocks : No
Null samples used in CRC calculations : Yes
Used interface : Installed external ASPI interface

Used output format : User Defined Encoder
Selected bitrate : 128 kBit/s
Quality : High
Add ID3 tag : No
Command line compressor : C:\Exact Audio Copy [installed]\Flac\flac.exe
Additional command line options : -V -8 -T "Date=%year%" -T "COMMENT=ripped by Andy aka yetiisyou" -T "Genre=%genre%" %source%


TOC of the extracted CD

Track | Start | Length | Start sector | End sector
––––––––––––––––––––––––––––-
1 | 0:00.00 | 5:38.52 | 0 | 25401
2 | 5:38.52 | 4:38.33 | 25402 | 46284
3 | 10:17.10 | 4:40.10 | 46285 | 67294
4 | 14:57.20 | 4:49.32 | 67295 | 89001
5 | 19:46.52 | 6:42.45 | 89002 | 119196
6 | 26:29.22 | 7:00.25 | 119197 | 150721
7 | 33:29.47 | 6:54.28 | 150722 | 181799
8 | 40:24.00 | 5:33.07 | 181800 | 206781
9 | 45:57.07 | 5:15.65 | 206782 | 230471
10 | 51:12.72 | 8:00.45 | 230472 | 266516
11 | 59:13.42 | 6:33.73 | 266517 | 296064
12 | 65:47.40 | 5:15.62 | 296065 | 319751
13 | 71:03.27 | 1:02.50 | 319752 | 324451
14 | 72:06.02 | 2:14.43 | 324452 | 334544


Range status and errors

Selected range

Filename E:\!Rips\Marvin Gaye - Midnight Love & The Sexual Healing Sessions [2007]\Marvin Gaye - The Sexual Healing Sessions.wav

Peak level 98.8 %
Extraction speed 10.0 X
Range quality 100.0 %
Test CRC C9A4A3F7
Copy CRC C9A4A3F7
Copy OK

No errors occurred


AccurateRip summary

Track 1 accurately ripped (confidence 7) [1C36EB30] (AR v1)
Track 2 accurately ripped (confidence 7) [C01D35AE] (AR v1)
Track 3 accurately ripped (confidence 7) [6BE5E452] (AR v1)
Track 4 accurately ripped (confidence 6) [DACB3905] (AR v1)
Track 5 accurately ripped (confidence 7) [FEA0522E] (AR v1)
Track 6 accurately ripped (confidence 7) [8B0F1E2E] (AR v1)
Track 7 accurately ripped (confidence 7) [927BFB22] (AR v1)
Track 8 accurately ripped (confidence 7) [FEABE9D0] (AR v1)
Track 9 accurately ripped (confidence 6) [50CAFF58] (AR v1)
Track 10 accurately ripped (confidence 7) [74073008] (AR v1)
Track 11 accurately ripped (confidence 6) [6BF36BE6] (AR v1)
Track 12 accurately ripped (confidence 6) [0F47C01F] (AR v1)
Track 13 accurately ripped (confidence 7) [A8727BFD] (AR v1)
Track 14 accurately ripped (confidence 7) [7A1A27C0] (AR v1)

All tracks accurately ripped

End of status report

–– CUETools DB Plugin V2.1.3

[CTDB TOCID: wrSqR8ESnNCAQWl_swZLyt7UHyI-] found, Submit result: wrSqR8ESnNCAQWl_swZLyt7UHyI- has been confirmed
[cc1bf394] (6/6) Accurately ripped


==== Log checksum C83210D5C524C1BA4CB78C3E1F4B7647B7F9E2FD38977DEA93700AFF72A9840D ====

[CUETools log; Date: 30.10.2018 1:32:34; Version: 2.1.4]
[CTDB TOCID: wrSqR8ESnNCAQWl_swZLyt7UHyI-] found.
Track | CTDB Status
1 | (40/40) Accurately ripped
2 | (39/40) Accurately ripped
3 | (40/40) Accurately ripped
4 | (40/40) Accurately ripped
5 | (40/40) Accurately ripped
6 | (39/40) Accurately ripped
7 | (40/40) Accurately ripped
8 | (40/40) Accurately ripped
9 | (40/40) Accurately ripped
10 | (40/40) Accurately ripped
11 | (40/40) Accurately ripped
12 | (40/40) Accurately ripped
13 | (40/40) Accurately ripped
14 | (40/40) Accurately ripped
[AccurateRip ID: 00288ff0-01b2d076-d9116c0e] found.
Track [ CRC | V2 ] Status
01 [1c36eb30|4294a036] (06+10/54) Accurately ripped
02 [c01d35ae|f9c0a3b6] (06+10/54) Accurately ripped
03 [6be5e452|3d771f7d] (06+10/55) Accurately ripped
04 [dacb3905|d7a7310b] (05+10/53) Accurately ripped
05 [fea0522e|762ceb39] (06+10/54) Accurately ripped
06 [8b0f1e2e|b15207fe] (06+09/53) Accurately ripped
07 [927bfb22|cf7824b2] (06+10/52) Accurately ripped
08 [feabe9d0|7a5e1109] (06+10/55) Accurately ripped
09 [50caff58|5dbf538d] (05+10/50) Accurately ripped
10 [74073008|42aa2215] (06+10/50) Accurately ripped
11 [6bf36be6|98de2a58] (05+09/47) Accurately ripped
12 [0f47c01f|74133602] (05+09/46) Accurately ripped
13 [a8727bfd|cf9025db] (06+10/48) Accurately ripped
14 [7a1a27c0|b2b005e5] (06+09/47) Accurately ripped

Track Peak [ CRC32 ] [W/O NULL] [ LOG ]
– 98,8 [C9A4A3F7] [857E1119] CRC32
01 98,8 [5CC7AE0C] [F4DAB040]
02 98,8 [5CFB0539] [4236CF79]
03 88,5 [E29DE44B] [D1C021A8]
04 98,8 [D6F6E1C4] [0B9476BF]
05 98,8 [437B5262] [6A2A4C7F]
06 98,8 [0A9A2732] [50E6A5D4]
07 90,6 [E319CFE8] [EAA0DDDC]
08 89,5 [F51D8535] [0BD5F467]
09 98,8 [F2569A62] [0B91DD59]
10 98,8 [06C1EF3C] [45D5B367]
11 98,8 [AE16455B] [009C1FA3]
12 98,8 [D2D3692A] [67971735]
13 59,4 [F881A0E1] [27300CC5]
14 98,8 [350BFC85] [80E271BE]

foobar2000 1.2 / Dynamic Range Meter 1.1.1
log date: 2018-10-30 01:39:50

––––––––––––––––––––––––––––––––––––––––
Analyzed: Marvin Gaye / The Sexual Healing Sessions
––––––––––––––––––––––––––––––––––––––––

DR Peak RMS Duration Track
––––––––––––––––––––––––––––––––––––––––
DR10 -0.10 dB -11.67 dB 5:39 01-Clique Games/Rick James (Original Version Of 'Midnight Lady')
DR13 -0.10 dB -14.01 dB 4:38 02-Sexual Healing (Alternate 12-inch Instrumental)
DR13 -1.06 dB -16.26 dB 4:40 03-Sexual Healing (Original Vocal Version)
DR11 -0.10 dB -12.71 dB 4:49 04-Sexual Healing (Alternate Vocal/Mix)
DR11 -0.10 dB -13.18 dB 6:43 05-I Bet You Wonder (Original Version Of 'Rockin' After Midnight')
DR12 -0.10 dB -13.25 dB 7:00 06-Rockin' After Midnight (Instrumental)
DR12 -0.86 dB -16.51 dB 6:54 07-Baby, Baby, Baby (Original Version Of ''Til Tomorrow')
DR13 -0.96 dB -16.22 dB 5:33 08-I've Got My Music (Original Version Of 'Turn On Some Music')
DR11 -0.10 dB -12.56 dB 5:16 09-Turn On Some Music (Alternate Vocal/Mix)
DR11 -0.10 dB -12.28 dB 8:01 10-Third World Girl (Original Reggae Version)
DR10 -0.10 dB -11.98 dB 6:34 11-Third World Girl (Alternate Vocal/Mix)
DR10 -0.10 dB -11.42 dB 5:16 12-My Love Is Waiting (Alternate Vocal/Mix)
DR15 -4.51 dB -24.46 dB 1:03 13-Marvin's Message To The CBS Record Staff
DR13 -0.10 dB -16.52 dB 2:15 14-Sexual Healing (Rehearsal Tape Courtesy Of David Ritz)
––––––––––––––––––––––––––––––––––––––––

Number of tracks: 14
Official DR value: DR12

Samplerate: 44100 Hz
Channels: 2
Bits per sample: 16
Bitrate: 875 kbps
Codec: FLAC
================================================================================

Marvin Gaye - Midnight Love & The Sexual Healing Sessions (1982) 2CDs Deluxe Edition, Remastered Reissue 2007

Marvin Gaye - Midnight Love & The Sexual Healing Sessions (1982) 2CDs Deluxe Edition, Remastered Reissue 2007

All thanks to original releaser

More interesting music in My Blog