Tags
Language
Tags

Marvin Gaye - The Master 1961-1984 (1995) [4CD Box set]

Posted By:
Marvin Gaye - The Master 1961-1984 (1995) [4CD Box set]

Marvin Gaye - The Master 1961-1984 (1995)
XLD | Flac(Image) + Cue + Log & MP3 CBR 320Kbps
Motown Master Series, 31453 0492 2 | ~ 1790 or 723 Mb | Scans(png) -> 629 Mb
R&B, Soul, Funk

The average fan is better off with Anthology, which covers almost all of Marvin Gaye's true classics. But for those who want the hits and then some, and have the budget and interest to go further, this four-CD box set is an excellent retrospective of his career. The 89 tracks include all the chart hits (both on his own and with Mary Wells, Kim Weston, Tammi Terrell, and Diana Ross) and many interesting B-sides, album tracks, and misses. There are also over a dozen previously unreleased cuts, most dating from the early part of his career; they don't rank among his best work, but they're almost all good and interesting. With a long essay by his biographer, David Ritz, this is the best overview of Gaye's evolution and versatility, and a much-recommended alternative to the previous Gaye box, The Marvin Gaye Collection.

by Richie Unterberger, allmusic
Marvin Gaye - The Master 1961-1984 (1995):

Marvin Gaye - The Master 1961-1984 (1995) [4CD Box set]

Tracklist CD1:

01. Marvin Gaye & The Vandellas - Stubborn Kind Of Fellow - 02:45
02. Marvin Gaye - Pride And Joy - 02:08
03. Marvin Gaye & The Vandellas - Hitch Hike - 02:33
04. Marvin Gaye - Wherever I Lay My Hat (That's My Home) - 02:15
05. Marvin Gaye - What Do You Want With Him - 02:38
06. Marvin Gaye & Mary Wells - Once Upon A Time - 02:33
07. Marvin Gaye & Mary Wells - What's The Matter With You Baby - 02:23
08. Marvin Gaye - Can I Get A Witness - 02:48
09. Marvin Gaye - Couldn't Ask For More - 02:43
10. Marvin Gaye - You're Wonderful - 02:45
11. Marvin Gaye - I Wonder - 03:45
12. Marvin Gaye - You're A Wonderful One - 02:45
13. Marvin Gaye - It's Got To Be Love - 02:39
14. Marvin Gaye - Try It Baby - 03:01
15. Marvin Gaye - Leavin' - 02:22
16. Marvin Gaye - My Love For You - 03:00
17. Marvin Gaye - How Sweet It Is (To Be Loved By You) - 02:59
18. Marvin Gaye - Baby Don't You Do It - 02:33
19. Marvin Gaye - Just Like A Man - 02:50
20. Marvin Gaye - Pretty Little Baby - 02:36
21. Marvin Gaye - Talk About A Good Feeling - 02:24
22. Marvin Gaye - I'll Be Doggone - 02:51
23. Marvin Gaye - Little Darling (I Need You) - 02:46
24. Marvin Gaye - One More Heartache - 02:35
25. Marvin Gaye - Ain't That Peculiar - 03:00
26. Marvin Gaye - You're The One For Me - 03:42
27. Marvin Gaye - Take This Heart Of Mine - 02:44
28. Marvin Gaye - Your Unchanging Love - 03:03

Converted to Image (CUETools 2.1.4)

X Lossless Decoder version 20130407 (143.0)

XLD extraction logfile from 2014-02-24 15:31:35 -0800

Various Artists / The Master 1961-1984 [Disc 1]

Used drive : HL-DT-ST DVDRW GA32N (revision KE06)
Media type : Pressed CD

Ripper mode : XLD Secure Ripper
Disable audio cache : OK for the drive with a cache less than 1375KiB
Make use of C2 pointers : NO
Read offset correction : 103
Max retry count : 100
Gap status : Analyzed, Appended (except HTOA)

TOC of the extracted CD
Track | Start | Length | Start sector | End sector
––––––––––––––––––––––––––––-
1 | 00:00:00 | 02:44:70 | 0 | 12369
2 | 02:44:70 | 02:07:35 | 12370 | 21929
3 | 04:52:30 | 02:32:70 | 21930 | 33399
4 | 07:25:25 | 02:14:58 | 33400 | 43507
5 | 09:40:08 | 02:37:30 | 43508 | 55312
6 | 12:17:38 | 02:32:32 | 55313 | 66744
7 | 14:49:70 | 02:22:65 | 66745 | 77459
8 | 17:12:60 | 02:47:55 | 77460 | 90039
9 | 20:00:40 | 02:42:28 | 90040 | 102217
10 | 22:42:68 | 02:45:10 | 102218 | 114602
11 | 25:28:03 | 03:44:35 | 114603 | 131437
12 | 29:12:38 | 02:45:12 | 131438 | 143824
13 | 31:57:50 | 02:38:55 | 143825 | 155729
14 | 34:36:30 | 03:00:35 | 155730 | 169264
15 | 37:36:65 | 02:22:18 | 169265 | 179932
16 | 39:59:08 | 02:59:42 | 179933 | 193399
17 | 42:58:50 | 02:59:10 | 193400 | 206834
18 | 45:57:60 | 02:33:03 | 206835 | 218312
19 | 48:30:63 | 02:49:70 | 218313 | 231057
20 | 51:20:58 | 02:35:67 | 231058 | 242749
21 | 53:56:50 | 02:24:00 | 242750 | 253549
22 | 56:20:50 | 02:50:40 | 253550 | 266339
23 | 59:11:15 | 02:45:68 | 266340 | 278782
24 | 61:57:08 | 02:34:32 | 278783 | 290364
25 | 64:31:40 | 02:59:33 | 290365 | 303822
26 | 67:30:73 | 03:42:17 | 303823 | 320489
27 | 71:13:15 | 02:43:63 | 320490 | 332777
28 | 73:57:03 | 03:02:57 | 332778 | 346484

AccurateRip Summary (DiscID: 004a813c-05de3552-9f120b1c)
Track 01 : OK (v1+v2, confidence 58/66)
Track 02 : OK (v1+v2, confidence 58/66)
Track 03 : OK (v1+v2, confidence 57/65)
Track 04 : OK (v1+v2, confidence 59/67)
Track 05 : OK (v1+v2, confidence 57/65)
Track 06 : OK (v1+v2, confidence 58/66)
Track 07 : OK (v1+v2, confidence 58/66)
Track 08 : OK (v1+v2, confidence 58/66)
Track 09 : OK (v1+v2, confidence 58/66)
Track 10 : OK (v1+v2, confidence 58/66)
Track 11 : OK (v1+v2, confidence 58/66)
Track 12 : OK (v1+v2, confidence 58/66)
Track 13 : OK (v1+v2, confidence 58/66)
Track 14 : OK (v1+v2, confidence 58/66)
Track 15 : OK (v1+v2, confidence 58/66)
Track 16 : OK (v1+v2, confidence 57/65)
Track 17 : OK (v1+v2, confidence 57/65)
Track 18 : OK (v1+v2, confidence 58/66)
Track 19 : OK (v1+v2, confidence 58/66)
Track 20 : OK (v1+v2, confidence 56/64)
Track 21 : OK (v1+v2, confidence 58/66)
Track 22 : OK (v1+v2, confidence 57/65)
Track 23 : OK (v1+v2, confidence 57/65)
Track 24 : OK (v1+v2, confidence 57/65)
Track 25 : OK (v1+v2, confidence 55/63)
Track 26 : OK (v1+v2, confidence 56/64)
Track 27 : OK (v1+v2, confidence 57/65)
Track 28 : OK (v1+v2, confidence 56/64)
->All tracks accurately ripped.

All Tracks
Album gain : -8.21 dB
Peak : 1.000000
Statistics
Read error : 0
Jitter error (maybe fixed) : 0
Retry sector count : 0
Damaged sector count : 0

Track 01
Filename : /Volumes/OWC Mercury Elite Pro - #2/Needs something/ Music/Marvin Gaye - The Master 1961-1984 (1995) [FLAC] {Motown Master Series 4cd set}/CD1/01 - Stubborn Kind Of Fellow.flac
Pre-gap length : 00:02:00

Track gain : -8.42 dB
Peak : 1.000000
CRC32 hash (test run) : 3A087C62
CRC32 hash : 3A087C62
CRC32 hash (skip zero) : CFAAD40B
AccurateRip v1 signature : 0C9BDD04
AccurateRip v2 signature : EECDA299
->Accurately ripped (v1+v2, confidence 39+19/66)
Statistics
Read error : 0
Jitter error (maybe fixed) : 0
Retry sector count : 0
Damaged sector count : 0

Track 02
Filename : /Volumes/OWC Mercury Elite Pro - #2/Needs something/ Music/Marvin Gaye - The Master 1961-1984 (1995) [FLAC] {Motown Master Series 4cd set}/CD1/02 - Pride And Joy.flac

Track gain : -8.49 dB
Peak : 1.000000
CRC32 hash (test run) : A176E4DE
CRC32 hash : A176E4DE
CRC32 hash (skip zero) : D0AB1E6C
AccurateRip v1 signature : 5C05FC92
AccurateRip v2 signature : CEDF4472
->Accurately ripped (v1+v2, confidence 39+19/66)
Statistics
Read error : 0
Jitter error (maybe fixed) : 0
Retry sector count : 0
Damaged sector count : 0

Track 03
Filename : /Volumes/OWC Mercury Elite Pro - #2/Needs something/ Music/Marvin Gaye - The Master 1961-1984 (1995) [FLAC] {Motown Master Series 4cd set}/CD1/03 - Hitch Hike.flac
Pre-gap length : 00:02:20

Track gain : -8.03 dB
Peak : 1.000000
CRC32 hash (test run) : 3ABF7051
CRC32 hash : 3ABF7051
CRC32 hash (skip zero) : 0134B3DB
AccurateRip v1 signature : F8F62F1A
AccurateRip v2 signature : 0ECF8A04
->Accurately ripped (v1+v2, confidence 39+18/65)
Statistics
Read error : 0
Jitter error (maybe fixed) : 0
Retry sector count : 0
Damaged sector count : 0

Track 04
Filename : /Volumes/OWC Mercury Elite Pro - #2/Needs something/ Music/Marvin Gaye - The Master 1961-1984 (1995) [FLAC] {Motown Master Series 4cd set}/CD1/04 - Wherever I Lay My Hat (That's My Home).flac
Pre-gap length : 00:00:67

Track gain : -7.73 dB
Peak : 0.999969
CRC32 hash (test run) : 410ED6B4
CRC32 hash : 410ED6B4
CRC32 hash (skip zero) : 46C9DAAF
AccurateRip v1 signature : 9C2BB271
AccurateRip v2 signature : CA04EA91
->Accurately ripped (v1+v2, confidence 40+19/67)
Statistics
Read error : 0
Jitter error (maybe fixed) : 0
Retry sector count : 0
Damaged sector count : 0

Track 05
Filename : /Volumes/OWC Mercury Elite Pro - #2/Needs something/ Music/Marvin Gaye - The Master 1961-1984 (1995) [FLAC] {Motown Master Series 4cd set}/CD1/05 - What Do You Want With Him.flac
Pre-gap length : 00:01:25

Track gain : -7.83 dB
Peak : 1.000000
CRC32 hash (test run) : A906C2DF
CRC32 hash : A906C2DF
CRC32 hash (skip zero) : A1693679
AccurateRip v1 signature : 17CF3185
AccurateRip v2 signature : E49CCDEA
->Accurately ripped (v1+v2, confidence 38+19/65)
Statistics
Read error : 0
Jitter error (maybe fixed) : 0
Retry sector count : 0
Damaged sector count : 0

Track 06
Filename : /Volumes/OWC Mercury Elite Pro - #2/Needs something/ Music/Marvin Gaye - The Master 1961-1984 (1995) [FLAC] {Motown Master Series 4cd set}/CD1/06 - Once Upon A Time.flac

Track gain : -6.33 dB
Peak : 1.000000
CRC32 hash (test run) : 94745EA1
CRC32 hash : 94745EA1
CRC32 hash (skip zero) : BD2B9512
AccurateRip v1 signature : 773EA85D
AccurateRip v2 signature : 3E51A35E
->Accurately ripped (v1+v2, confidence 39+19/66)
Statistics
Read error : 0
Jitter error (maybe fixed) : 0
Retry sector count : 0
Damaged sector count : 0

Track 07
Filename : /Volumes/OWC Mercury Elite Pro - #2/Needs something/ Music/Marvin Gaye - The Master 1961-1984 (1995) [FLAC] {Motown Master Series 4cd set}/CD1/07 - What's The Matter With You Baby.flac
Pre-gap length : 00:00:67

Track gain : -5.76 dB
Peak : 0.967590
CRC32 hash (test run) : 1E31D6CC
CRC32 hash : 1E31D6CC
CRC32 hash (skip zero) : C94CBBD0
AccurateRip v1 signature : 4A2F27E8
AccurateRip v2 signature : C31A5875
->Accurately ripped (v1+v2, confidence 39+19/66)
Statistics
Read error : 0
Jitter error (maybe fixed) : 0
Retry sector count : 0
Damaged sector count : 0

Track 08
Filename : /Volumes/OWC Mercury Elite Pro - #2/Needs something/ Music/Marvin Gaye - The Master 1961-1984 (1995) [FLAC] {Motown Master Series 4cd set}/CD1/08 - Can I Get A Witness.flac
Pre-gap length : 00:00:57

Track gain : -7.03 dB
Peak : 1.000000
CRC32 hash (test run) : 456DB70F
CRC32 hash : 456DB70F
CRC32 hash (skip zero) : 026A50AF
AccurateRip v1 signature : 31457813
AccurateRip v2 signature : 9D038058
->Accurately ripped (v1+v2, confidence 39+19/66)
Statistics
Read error : 0
Jitter error (maybe fixed) : 0
Retry sector count : 0
Damaged sector count : 0

Track 09
Filename : /Volumes/OWC Mercury Elite Pro - #2/Needs something/ Music/Marvin Gaye - The Master 1961-1984 (1995) [FLAC] {Motown Master Series 4cd set}/CD1/09 - Couldn't Ask For More.flac
Pre-gap length : 00:01:07

Track gain : -7.42 dB
Peak : 1.000000
CRC32 hash (test run) : DDDDAB6D
CRC32 hash : DDDDAB6D
CRC32 hash (skip zero) : F3502164
AccurateRip v1 signature : 58593DC8
AccurateRip v2 signature : 1E28A9D5
->Accurately ripped (v1+v2, confidence 39+19/66)
Statistics
Read error : 0
Jitter error (maybe fixed) : 0
Retry sector count : 0
Damaged sector count : 0

Track 10
Filename : /Volumes/OWC Mercury Elite Pro - #2/Needs something/ Music/Marvin Gaye - The Master 1961-1984 (1995) [FLAC] {Motown Master Series 4cd set}/CD1/10 - You're Wonderful.flac
Pre-gap length : 00:00:30

Track gain : -7.92 dB
Peak : 1.000000
CRC32 hash (test run) : 5FC3744D
CRC32 hash : 5FC3744D
CRC32 hash (skip zero) : 4B2094B2
AccurateRip v1 signature : C97504A1
AccurateRip v2 signature : A1821E61
->Accurately ripped (v1+v2, confidence 39+19/66)
Statistics
Read error : 0
Jitter error (maybe fixed) : 0
Retry sector count : 0
Damaged sector count : 0

Track 11
Filename : /Volumes/OWC Mercury Elite Pro - #2/Needs something/ Music/Marvin Gaye - The Master 1961-1984 (1995) [FLAC] {Motown Master Series 4cd set}/CD1/11 - I Wonder.flac

Track gain : -6.99 dB
Peak : 1.000000
CRC32 hash (test run) : 7F901F1F
CRC32 hash : 7F901F1F
CRC32 hash (skip zero) : 968C34B6
AccurateRip v1 signature : 3DEC5ED6
AccurateRip v2 signature : 50A4AF69
->Accurately ripped (v1+v2, confidence 39+19/66)
Statistics
Read error : 0
Jitter error (maybe fixed) : 0
Retry sector count : 0
Damaged sector count : 0

Track 12
Filename : /Volumes/OWC Mercury Elite Pro - #2/Needs something/ Music/Marvin Gaye - The Master 1961-1984 (1995) [FLAC] {Motown Master Series 4cd set}/CD1/12 - You're A Wonderful One.flac
Pre-gap length : 00:01:00

Track gain : -8.48 dB
Peak : 1.000000
CRC32 hash (test run) : 59BEAB33
CRC32 hash : 59BEAB33
CRC32 hash (skip zero) : EBB92E97
AccurateRip v1 signature : 9A4025ED
AccurateRip v2 signature : 01F5F8D2
->Accurately ripped (v1+v2, confidence 39+19/66)
Statistics
Read error : 0
Jitter error (maybe fixed) : 0
Retry sector count : 0
Damaged sector count : 0

Track 13
Filename : /Volumes/OWC Mercury Elite Pro - #2/Needs something/ Music/Marvin Gaye - The Master 1961-1984 (1995) [FLAC] {Motown Master Series 4cd set}/CD1/13 - It's Got To Be Love.flac
Pre-gap length : 00:00:07

Track gain : -7.62 dB
Peak : 1.000000
CRC32 hash (test run) : 2CDA2192
CRC32 hash : 2CDA2192
CRC32 hash (skip zero) : 9FE6BD30
AccurateRip v1 signature : 363F2442
AccurateRip v2 signature : DC9A1667
->Accurately ripped (v1+v2, confidence 39+19/66)
Statistics
Read error : 0
Jitter error (maybe fixed) : 0
Retry sector count : 0
Damaged sector count : 0

Track 14
Filename : /Volumes/OWC Mercury Elite Pro - #2/Needs something/ Music/Marvin Gaye - The Master 1961-1984 (1995) [FLAC] {Motown Master Series 4cd set}/CD1/14 - Try It Baby.flac

Track gain : -8.29 dB
Peak : 1.000000
CRC32 hash (test run) : BFEDDC52
CRC32 hash : BFEDDC52
CRC32 hash (skip zero) : 901D1A31
AccurateRip v1 signature : E493B7C1
AccurateRip v2 signature : E7668C57
->Accurately ripped (v1+v2, confidence 39+19/66)
Statistics
Read error : 0
Jitter error (maybe fixed) : 0
Retry sector count : 0
Damaged sector count : 0

Track 15
Filename : /Volumes/OWC Mercury Elite Pro - #2/Needs something/ Music/Marvin Gaye - The Master 1961-1984 (1995) [FLAC] {Motown Master Series 4cd set}/CD1/15 - Leavin'.flac
Pre-gap length : 00:00:72

Track gain : -7.69 dB
Peak : 0.999969
CRC32 hash (test run) : 06BA1CD5
CRC32 hash : 06BA1CD5
CRC32 hash (skip zero) : 09D9DC60
AccurateRip v1 signature : E1231919
AccurateRip v2 signature : FC4B015E
->Accurately ripped (v1+v2, confidence 39+19/66)
Statistics
Read error : 0
Jitter error (maybe fixed) : 0
Retry sector count : 0
Damaged sector count : 0

Track 16
Filename : /Volumes/OWC Mercury Elite Pro - #2/Needs something/ Music/Marvin Gaye - The Master 1961-1984 (1995) [FLAC] {Motown Master Series 4cd set}/CD1/16 - My Love For You.flac
Pre-gap length : 00:00:48

Track gain : -8.99 dB
Peak : 1.000000
CRC32 hash (test run) : 5D311B68
CRC32 hash : 5D311B68
CRC32 hash (skip zero) : 32D5127B
AccurateRip v1 signature : 7311216B
AccurateRip v2 signature : DFBA6649
->Accurately ripped (v1+v2, confidence 38+19/65)
Statistics
Read error : 0
Jitter error (maybe fixed) : 0
Retry sector count : 0
Damaged sector count : 0

Track 17
Filename : /Volumes/OWC Mercury Elite Pro - #2/Needs something/ Music/Marvin Gaye - The Master 1961-1984 (1995) [FLAC] {Motown Master Series 4cd set}/CD1/17 - How Sweet It Is (To Be Loved By You).flac
Pre-gap length : 00:00:30

Track gain : -6.54 dB
Peak : 1.000000
CRC32 hash (test run) : 3C95362A
CRC32 hash : 3C95362A
CRC32 hash (skip zero) : 23B7B409
AccurateRip v1 signature : A8D1F866
AccurateRip v2 signature : 1E036BE5
->Accurately ripped (v1+v2, confidence 38+19/65)
Statistics
Read error : 0
Jitter error (maybe fixed) : 0
Retry sector count : 0
Damaged sector count : 0

Track 18
Filename : /Volumes/OWC Mercury Elite Pro - #2/Needs something/ Music/Marvin Gaye - The Master 1961-1984 (1995) [FLAC] {Motown Master Series 4cd set}/CD1/18 - Baby Don't You Do It.flac
Pre-gap length : 00:01:25

Track gain : -8.81 dB
Peak : 0.891235
CRC32 hash (test run) : 20D13551
CRC32 hash : 20D13551
CRC32 hash (skip zero) : 019E6424
AccurateRip v1 signature : AB89D686
AccurateRip v2 signature : 50C6866D
->Accurately ripped (v1+v2, confidence 39+19/66)
Statistics
Read error : 0
Jitter error (maybe fixed) : 0
Retry sector count : 0
Damaged sector count : 0

Track 19
Filename : /Volumes/OWC Mercury Elite Pro - #2/Needs something/ Music/Marvin Gaye - The Master 1961-1984 (1995) [FLAC] {Motown Master Series 4cd set}/CD1/19 - Just Like A Man.flac
Pre-gap length : 00:00:38

Track gain : -8.57 dB
Peak : 1.000000
CRC32 hash (test run) : 5A6B17F9
CRC32 hash : 5A6B17F9
CRC32 hash (skip zero) : 661E7C0C
AccurateRip v1 signature : 57C1FE54
AccurateRip v2 signature : 3F829FDC
->Accurately ripped (v1+v2, confidence 39+19/66)
Statistics
Read error : 0
Jitter error (maybe fixed) : 0
Retry sector count : 0
Damaged sector count : 0

Track 20
Filename : /Volumes/OWC Mercury Elite Pro - #2/Needs something/ Music/Marvin Gaye - The Master 1961-1984 (1995) [FLAC] {Motown Master Series 4cd set}/CD1/20 - Pretty Little Baby.flac
Pre-gap length : 00:00:68

Track gain : -8.31 dB
Peak : 0.936676
CRC32 hash (test run) : B90DA432
CRC32 hash : B90DA432
CRC32 hash (skip zero) : 3E8C766F
AccurateRip v1 signature : 6DDE73E9
AccurateRip v2 signature : 6735BC18
->Accurately ripped (v1+v2, confidence 38+18/64)
Statistics
Read error : 0
Jitter error (maybe fixed) : 0
Retry sector count : 0
Damaged sector count : 0

Track 21
Filename : /Volumes/OWC Mercury Elite Pro - #2/Needs something/ Music/Marvin Gaye - The Master 1961-1984 (1995) [FLAC] {Motown Master Series 4cd set}/CD1/21 - Talk About A Good Feeling.flac
Pre-gap length : 00:00:27

Track gain : -10.10 dB
Peak : 0.999878
CRC32 hash (test run) : 4BF99D69
CRC32 hash : 4BF99D69
CRC32 hash (skip zero) : FDD6DFAB
AccurateRip v1 signature : 5F8A96AC
AccurateRip v2 signature : 5A820A5A
->Accurately ripped (v1+v2, confidence 40+18/66)
Statistics
Read error : 0
Jitter error (maybe fixed) : 0
Retry sector count : 0
Damaged sector count : 0

Track 22
Filename : /Volumes/OWC Mercury Elite Pro - #2/Needs something/ Music/Marvin Gaye - The Master 1961-1984 (1995) [FLAC] {Motown Master Series 4cd set}/CD1/22 - I'll Be Doggone.flac
Pre-gap length : 00:00:70

Track gain : -8.32 dB
Peak : 1.000000
CRC32 hash (test run) : 869F6DB5
CRC32 hash : 869F6DB5
CRC32 hash (skip zero) : 4598BF16
AccurateRip v1 signature : 49A60B0D
AccurateRip v2 signature : CDE50637
->Accurately ripped (v1+v2, confidence 39+18/65)
Statistics
Read error : 0
Jitter error (maybe fixed) : 0
Retry sector count : 0
Damaged sector count : 0

Track 23
Filename : /Volumes/OWC Mercury Elite Pro - #2/Needs something/ Music/Marvin Gaye - The Master 1961-1984 (1995) [FLAC] {Motown Master Series 4cd set}/CD1/23 - Little Darling (I Need You).flac
Pre-gap length : 00:00:30

Track gain : -8.54 dB
Peak : 1.000000
CRC32 hash (test run) : BCCD80CE
CRC32 hash : BCCD80CE
CRC32 hash (skip zero) : E247122D
AccurateRip v1 signature : 8B7E3B02
AccurateRip v2 signature : C70E32B9
->Accurately ripped (v1+v2, confidence 39+18/65)
Statistics
Read error : 0
Jitter error (maybe fixed) : 0
Retry sector count : 0
Damaged sector count : 0

Track 24
Filename : /Volumes/OWC Mercury Elite Pro - #2/Needs something/ Music/Marvin Gaye - The Master 1961-1984 (1995) [FLAC] {Motown Master Series 4cd set}/CD1/24 - One More Heartache.flac
Pre-gap length : 00:00:38

Track gain : -7.84 dB
Peak : 1.000000
CRC32 hash (test run) : 478E62DC
CRC32 hash : 478E62DC
CRC32 hash (skip zero) : 96BABFB2
AccurateRip v1 signature : 7B0D3D35
AccurateRip v2 signature : 2D8BC069
->Accurately ripped (v1+v2, confidence 39+18/65)
Statistics
Read error : 0
Jitter error (maybe fixed) : 0
Retry sector count : 0
Damaged sector count : 0

Track 25
Filename : /Volumes/OWC Mercury Elite Pro - #2/Needs something/ Music/Marvin Gaye - The Master 1961-1984 (1995) [FLAC] {Motown Master Series 4cd set}/CD1/25 - Ain't That Peculiar.flac
Pre-gap length : 00:00:20

Track gain : -8.20 dB
Peak : 1.000000
CRC32 hash (test run) : 9D0780D1
CRC32 hash : 9D0780D1
CRC32 hash (skip zero) : 763B4D9E
AccurateRip v1 signature : D8FA92F0
AccurateRip v2 signature : 95087125
->Accurately ripped (v1+v2, confidence 37+18/63)
Statistics
Read error : 0
Jitter error (maybe fixed) : 0
Retry sector count : 0
Damaged sector count : 0

Track 26
Filename : /Volumes/OWC Mercury Elite Pro - #2/Needs something/ Music/Marvin Gaye - The Master 1961-1984 (1995) [FLAC] {Motown Master Series 4cd set}/CD1/26 - You're The One For Me.flac
Pre-gap length : 00:00:37

Track gain : -8.24 dB
Peak : 1.000000
CRC32 hash (test run) : 189425A3
CRC32 hash : 189425A3
CRC32 hash (skip zero) : C1120D97
AccurateRip v1 signature : 4ADEC981
AccurateRip v2 signature : 1C087A85
->Accurately ripped (v1+v2, confidence 38+18/64)
Statistics
Read error : 0
Jitter error (maybe fixed) : 0
Retry sector count : 0
Damaged sector count : 0

Track 27
Filename : /Volumes/OWC Mercury Elite Pro - #2/Needs something/ Music/Marvin Gaye - The Master 1961-1984 (1995) [FLAC] {Motown Master Series 4cd set}/CD1/27 - Take This Heart Of Mine.flac
Pre-gap length : 00:00:20

Track gain : -9.54 dB
Peak : 1.000000
CRC32 hash (test run) : 25782D48
CRC32 hash : 25782D48
CRC32 hash (skip zero) : 694A126C
AccurateRip v1 signature : CAC31626
AccurateRip v2 signature : 6D37F16E
->Accurately ripped (v1+v2, confidence 38+19/65)
Statistics
Read error : 0
Jitter error (maybe fixed) : 0
Retry sector count : 0
Damaged sector count : 0

Track 28
Filename : /Volumes/OWC Mercury Elite Pro - #2/Needs something/ Music/Marvin Gaye - The Master 1961-1984 (1995) [FLAC] {Motown Master Series 4cd set}/CD1/28 - Your Unchanging Love.flac
Pre-gap length : 00:01:28

Track gain : -7.35 dB
Peak : 1.000000
CRC32 hash (test run) : BE342E06
CRC32 hash : BE342E06
CRC32 hash (skip zero) : 32F3A91B
AccurateRip v1 signature : 619D0147
AccurateRip v2 signature : 0790D263
->Accurately ripped (v1+v2, confidence 38+18/64)
Statistics
Read error : 0
Jitter error (maybe fixed) : 0
Retry sector count : 0
Damaged sector count : 0

No errors occurred

End of status report

––-BEGIN XLD SIGNATURE––-
sxbm7xUYoSn3PQ8wd5ae5_j2i1yyAggT7jgy547ieNh3J1U3mmgIYwEtJseAG_coLhuosyvUB7QEoXfv5cJj_faLQU6sfVQ34hnFUfS
––-END XLD SIGNATURE––-


[CUETools log; Date: 27.01.2018 15:18:08; Version: 2.1.5]
[AccurateRip ID: 004a813c-05de3552-9f120b1c] found.
Track [ CRC | V2 ] Status
01 [0c9bdd04|eecda299] (39+36/83) Accurately ripped
02 [5c05fc92|cedf4472] (39+35/82) Accurately ripped
03 [f8f62f1a|0ecf8a04] (39+34/81) Accurately ripped
04 [9c2bb271|ca04ea91] (40+35/83) Accurately ripped
05 [17cf3185|e49ccdea] (38+36/82) Accurately ripped
06 [773ea85d|3e51a35e] (39+35/82) Accurately ripped
07 [4a2f27e8|c31a5875] (39+34/81) Accurately ripped
08 [31457813|9d038058] (39+34/81) Accurately ripped
09 [58593dc8|1e28a9d5] (39+33/80) Accurately ripped
10 [c97504a1|a1821e61] (39+34/81) Accurately ripped
11 [3dec5ed6|50a4af69] (39+33/80) Accurately ripped
12 [9a4025ed|01f5f8d2] (39+34/81) Accurately ripped
13 [363f2442|dc9a1667] (39+35/82) Accurately ripped
14 [e493b7c1|e7668c57] (39+35/82) Accurately ripped
15 [e1231919|fc4b015e] (39+34/81) Accurately ripped
16 [7311216b|dfba6649] (38+34/80) Accurately ripped
17 [a8d1f866|1e036be5] (38+35/81) Accurately ripped
18 [ab89d686|50c6866d] (39+35/82) Accurately ripped
19 [57c1fe54|3f829fdc] (39+34/81) Accurately ripped
20 [6dde73e9|6735bc18] (38+33/79) Accurately ripped
21 [5f8a96ac|5a820a5a] (40+33/81) Accurately ripped
22 [49a60b0d|cde50637] (39+33/80) Accurately ripped
23 [8b7e3b02|c70e32b9] (39+32/79) Accurately ripped
24 [7b0d3d35|2d8bc069] (39+31/78) Accurately ripped
25 [d8fa92f0|95087125] (37+33/78) Accurately ripped
26 [4adec981|1c087a85] (38+33/79) Accurately ripped
27 [cac31626|6d37f16e] (38+34/80) Accurately ripped
28 [619d0147|0790d263] (38+31/77) Accurately ripped

Track Peak [ CRC32 ] [W/O NULL]
– 100,0 [C15807F2] [4D17562F]
01 100,0 [3A087C62] [CFAAD40B]
02 100,0 [A176E4DE] [D0AB1E6C]
03 100,0 [3ABF7051] [0134B3DB]
04 100,0 [410ED6B4] [46C9DAAF]
05 100,0 [A906C2DF] [A1693679]
06 100,0 [94745EA1] [BD2B9512]
07 96,7 [1E31D6CC] [C94CBBD0]
08 100,0 [456DB70F] [026A50AF]
09 100,0 [DDDDAB6D] [F3502164]
10 100,0 [5FC3744D] [4B2094B2]
11 100,0 [7F901F1F] [968C34B6]
12 100,0 [59BEAB33] [EBB92E97]
13 100,0 [2CDA2192] [9FE6BD30]
14 100,0 [BFEDDC52] [901D1A31]
15 100,0 [06BA1CD5] [09D9DC60]
16 100,0 [5D311B68] [32D5127B]
17 100,0 [3C95362A] [23B7B409]
18 89,1 [20D13551] [019E6424]
19 100,0 [5A6B17F9] [661E7C0C]
20 93,6 [B90DA432] [3E8C766F]
21 99,9 [4BF99D69] [FDD6DFAB]
22 100,0 [869F6DB5] [4598BF16]
23 100,0 [BCCD80CE] [E247122D]
24 100,0 [478E62DC] [96BABFB2]
25 100,0 [9D0780D1] [763B4D9E]
26 100,0 [189425A3] [C1120D97]
27 100,0 [25782D48] [694A126C]
28 100,0 [BE342E06] [32F3A91B]


Marvin Gaye - The Master 1961-1984 (1995) [4CD Box set]

Tracklist CD2:

01. Marvin Gaye & Kim Weston - It Takes Two - 02:58
02. Marvin Gaye & Kim Weston - I Couldn't Help Falling For You - 02:55
03. Marvin Gaye - Lonely Lover (Alt. Mix) - 02:26
04. Marvin Gaye - Without Your Sweet Lovin' - 02:30
05. Marvin Gaye & Tammi Terrell - Ain't No Mountain High Enough - 02:28
06. Marvin Gaye & Tammi Terrell - If I Could Build My Whole World Around You - 02:22
07. Marvin Gaye & Tammi Terrell - Your Precious Love - 03:01
08. Marvin Gaye & Tammi Terrell - If This World Were Mine - 02:44
09. Marvin Gaye - Without You (My World Is Lonely) - 02:42
10. Marvin Gaye - Together We Stand (Divided We Fall) - 02:52
11. Marvin Gaye - You - 02:26
12. Marvin Gaye - Chained - 02:36
13. Marvin Gaye - I Heard It Through The Grapevine - 03:14
14. Marvin Gaye - You're What's Happening (In The World Today) - 02:20
15. Marvin Gaye - This Love Starved Heart Of Mine (It's Killing Me) - 02:42
16. Marvin Gaye & Tammi Terrell - Ain't Nothing Like The Real Thing - 02:17
17. Marvin Gaye & Tammi Terrell - Keep On Lovin' Me Honey - 02:30
18. Marvin Gaye & Tammi Terrell - You're All I Need To Get By - 02:40
19. Marvin Gaye - Too Busy Thinking About My Baby - 02:57
20. Marvin Gaye - More Than A Heart Can Stand - 02:56
21. Marvin Gaye - How Can I Forget - 02:04
22. Marvin Gaye - That's The Way Love Is - 03:37
23. Marvin Gaye - Yesterday - 03:25
24. Marvin Gaye - The End Of Our Road - 02:46
25. Marvin Gaye & Tammi Terrell - Good Lovin' Ain't Easy To Come By - 02:19
26. Marvin Gaye & Tammi Terrell - What You Gave Me - 02:37

Converted to Image (CUETools 2.1.4)

X Lossless Decoder version 20130407 (143.0)

XLD extraction logfile from 2014-02-24 16:24:35 -0800

Various Artists / The Master 1961-1984 [Disc 2]

Used drive : HL-DT-ST DVDRW GA32N (revision KE06)
Media type : Pressed CD

Ripper mode : XLD Secure Ripper
Disable audio cache : OK for the drive with a cache less than 1375KiB
Make use of C2 pointers : NO
Read offset correction : 103
Max retry count : 100
Gap status : Analyzed, Appended (except HTOA)

TOC of the extracted CD
Track | Start | Length | Start sector | End sector
––––––––––––––––––––––––––––-
1 | 00:00:00 | 02:57:40 | 0 | 13314
2 | 02:57:40 | 02:54:70 | 13315 | 26434
3 | 05:52:35 | 02:25:30 | 26435 | 37339
4 | 08:17:65 | 02:29:50 | 37340 | 48564
5 | 10:47:40 | 02:28:15 | 48565 | 59679
6 | 13:15:55 | 02:22:12 | 59680 | 70341
7 | 15:37:67 | 03:00:25 | 70342 | 83866
8 | 18:38:17 | 02:43:35 | 83867 | 96126
9 | 21:21:52 | 02:41:33 | 96127 | 108234
10 | 24:03:10 | 02:51:70 | 108235 | 121129
11 | 26:55:05 | 02:25:40 | 121130 | 132044
12 | 29:20:45 | 02:36:17 | 132045 | 143761
13 | 31:56:62 | 03:13:60 | 143762 | 158296
14 | 35:10:47 | 02:19:58 | 158297 | 168779
15 | 37:30:30 | 02:42:12 | 168780 | 180941
16 | 40:12:42 | 02:17:05 | 180942 | 191221
17 | 42:29:47 | 02:29:73 | 191222 | 202469
18 | 44:59:45 | 02:40:10 | 202470 | 214479
19 | 47:39:55 | 02:57:10 | 214480 | 227764
20 | 50:36:65 | 02:56:07 | 227765 | 240971
21 | 53:32:72 | 02:03:65 | 240972 | 250261
22 | 55:36:62 | 03:36:38 | 250262 | 266499
23 | 59:13:25 | 03:25:17 | 266500 | 281891
24 | 62:38:42 | 02:45:55 | 281892 | 294321
25 | 65:24:22 | 02:19:10 | 294322 | 304756
26 | 67:43:32 | 02:36:60 | 304757 | 316516

List of alternate offset correction values
# | Absolute | Relative | Confidence
–––––––––––––––––––––
1 | -2131 | -2234 | 34
2 | -262 | -365 | 9

AccurateRip Summary (DiscID: 0040b295-04b8a713-79107c1a)
Track 01 : OK (v1+v2, confidence 27/114)
Track 02 : OK (v1+v2, confidence 27/114)
Track 03 : OK (v1+v2, confidence 27/115)
Track 04 : OK (v1+v2, confidence 27/114)
Track 05 : OK (v1+v2, confidence 27/115)
Track 06 : OK (v1+v2, confidence 27/113)
Track 07 : OK (v1+v2, confidence 28/114)
Track 08 : OK (v1+v2, confidence 27/113)
Track 09 : OK (v1+v2, confidence 27/114)
Track 10 : OK (v1+v2, confidence 27/113)
Track 11 : OK (v1+v2, confidence 27/114)
Track 12 : OK (v1+v2, confidence 27/114)
Track 13 : OK (v1+v2, confidence 27/114)
Track 14 : OK (v1+v2, confidence 27/114)
Track 15 : OK (v1+v2, confidence 27/114)
Track 16 : OK (v1+v2, confidence 28/114)
Track 17 : OK (v1+v2, confidence 27/113)
Track 18 : OK (v1+v2, confidence 27/113)
Track 19 : OK (v1+v2, confidence 28/115)
Track 20 : OK (v1+v2, confidence 26/111)
Track 21 : OK (v1+v2, confidence 27/113)
Track 22 : OK (v1+v2, confidence 26/110)
Track 23 : OK (v1+v2, confidence 27/112)
Track 24 : OK (v1+v2, confidence 27/112)
Track 25 : OK (v1+v2, confidence 27/111)
Track 26 : OK (v1+v2, confidence 27/108)
->All tracks accurately ripped.

All Tracks
Album gain : -7.61 dB
Peak : 0.977234
Statistics
Read error : 0
Jitter error (maybe fixed) : 0
Retry sector count : 0
Damaged sector count : 0

Track 01
Filename : /Volumes/OWC Mercury Elite Pro - #2/Needs something/ Music/Marvin Gaye - The Master 1961-1984 (1995) [FLAC] {Motown Master Series 4cd set}/CD2/01 - It Takes Two.flac
Pre-gap length : 00:02:00

Track gain : -9.66 dB
Peak : 0.977234
CRC32 hash (test run) : 7B8526BB
CRC32 hash : 7B8526BB
CRC32 hash (skip zero) : 3899A54F
AccurateRip v1 signature : C3152F52
AccurateRip v2 signature : 54366522
->Accurately ripped (v1+v2, confidence 18+9/114)
Statistics
Read error : 0
Jitter error (maybe fixed) : 0
Retry sector count : 0
Damaged sector count : 0

Track 02
Filename : /Volumes/OWC Mercury Elite Pro - #2/Needs something/ Music/Marvin Gaye - The Master 1961-1984 (1995) [FLAC] {Motown Master Series 4cd set}/CD2/02 - I Couldn't Help Falling For You.flac
Pre-gap length : 00:00:20

Track gain : -8.97 dB
Peak : 0.977234
CRC32 hash (test run) : 5BDDFE23
CRC32 hash : 5BDDFE23
CRC32 hash (skip zero) : 5A12B5EF
AccurateRip v1 signature : 4411FA64
AccurateRip v2 signature : BEC411E0
->Accurately ripped (v1+v2, confidence 18+9/114)
Statistics
Read error : 0
Jitter error (maybe fixed) : 0
Retry sector count : 0
Damaged sector count : 0

Track 03
Filename : /Volumes/OWC Mercury Elite Pro - #2/Needs something/ Music/Marvin Gaye - The Master 1961-1984 (1995) [FLAC] {Motown Master Series 4cd set}/CD2/03 - Lonely Lover (Alt. Mix).flac
Pre-gap length : 00:00:15

Track gain : -8.15 dB
Peak : 0.977234
CRC32 hash (test run) : 8A4C0FFD
CRC32 hash : 8A4C0FFD
CRC32 hash (skip zero) : 09F79D2B
AccurateRip v1 signature : 3C6A0FE3
AccurateRip v2 signature : 09F57FFF
->Accurately ripped (v1+v2, confidence 18+9/115)
Statistics
Read error : 0
Jitter error (maybe fixed) : 0
Retry sector count : 0
Damaged sector count : 0

Track 04
Filename : /Volumes/OWC Mercury Elite Pro - #2/Needs something/ Music/Marvin Gaye - The Master 1961-1984 (1995) [FLAC] {Motown Master Series 4cd set}/CD2/04 - Without Your Sweet Lovin'.flac
Pre-gap length : 00:00:10

Track gain : -6.54 dB
Peak : 0.977234
CRC32 hash (test run) : B8D03AEE
CRC32 hash : B8D03AEE
CRC32 hash (skip zero) : A1579A88
AccurateRip v1 signature : 007C6B14
AccurateRip v2 signature : 59BF3173
->Accurately ripped (v1+v2, confidence 18+9/114)
Statistics
Read error : 0
Jitter error (maybe fixed) : 0
Retry sector count : 0
Damaged sector count : 0

Track 05
Filename : /Volumes/OWC Mercury Elite Pro - #2/Needs something/ Music/Marvin Gaye - The Master 1961-1984 (1995) [FLAC] {Motown Master Series 4cd set}/CD2/05 - Ain't No Mountain High Enough.flac
Pre-gap length : 00:00:63

Track gain : -7.74 dB
Peak : 0.977234
CRC32 hash (test run) : 9E5D21D0
CRC32 hash : 9E5D21D0
CRC32 hash (skip zero) : B330B231
AccurateRip v1 signature : DFB0D0FA
AccurateRip v2 signature : C43E0174
->Accurately ripped (v1+v2, confidence 18+9/115)
Statistics
Read error : 0
Jitter error (maybe fixed) : 0
Retry sector count : 0
Damaged sector count : 0

Track 06
Filename : /Volumes/OWC Mercury Elite Pro - #2/Needs something/ Music/Marvin Gaye - The Master 1961-1984 (1995) [FLAC] {Motown Master Series 4cd set}/CD2/06 - If I Could Build My Whole World Around You.flac

Track gain : -7.90 dB
Peak : 0.977234
CRC32 hash (test run) : 5D092455
CRC32 hash : 5D092455
CRC32 hash (skip zero) : A83340F2
AccurateRip v1 signature : A68C10BE
AccurateRip v2 signature : E9C6FFC0
->Accurately ripped (v1+v2, confidence 18+9/113)
Statistics
Read error : 0
Jitter error (maybe fixed) : 0
Retry sector count : 0
Damaged sector count : 0

Track 07
Filename : /Volumes/OWC Mercury Elite Pro - #2/Needs something/ Music/Marvin Gaye - The Master 1961-1984 (1995) [FLAC] {Motown Master Series 4cd set}/CD2/07 - Your Precious Love.flac

Track gain : -6.87 dB
Peak : 0.977234
CRC32 hash (test run) : A405087D
CRC32 hash : A405087D
CRC32 hash (skip zero) : 2A3E6FF0
AccurateRip v1 signature : 1D4BB56A
AccurateRip v2 signature : 63CD77C2
->Accurately ripped (v1+v2, confidence 19+9/114)
Statistics
Read error : 0
Jitter error (maybe fixed) : 0
Retry sector count : 0
Damaged sector count : 0

Track 08
Filename : /Volumes/OWC Mercury Elite Pro - #2/Needs something/ Music/Marvin Gaye - The Master 1961-1984 (1995) [FLAC] {Motown Master Series 4cd set}/CD2/08 - If This World Were Mine.flac
Pre-gap length : 00:01:22

Track gain : -6.87 dB
Peak : 0.977234
CRC32 hash (test run) : 56B63703
CRC32 hash : 56B63703
CRC32 hash (skip zero) : 43789667
AccurateRip v1 signature : 9A81AF2D
AccurateRip v2 signature : 79C0858C
->Accurately ripped (v1+v2, confidence 18+9/113)
Statistics
Read error : 0
Jitter error (maybe fixed) : 0
Retry sector count : 0
Damaged sector count : 0

Track 09
Filename : /Volumes/OWC Mercury Elite Pro - #2/Needs something/ Music/Marvin Gaye - The Master 1961-1984 (1995) [FLAC] {Motown Master Series 4cd set}/CD2/09 - Without You (My World Is Lonely).flac
Pre-gap length : 00:00:67

Track gain : -7.78 dB
Peak : 0.977234
CRC32 hash (test run) : 7C07EF52
CRC32 hash : 7C07EF52
CRC32 hash (skip zero) : 52631A21
AccurateRip v1 signature : C955F41D
AccurateRip v2 signature : 35ECCBAD
->Accurately ripped (v1+v2, confidence 18+9/114)
Statistics
Read error : 0
Jitter error (maybe fixed) : 0
Retry sector count : 0
Damaged sector count : 0

Track 10
Filename : /Volumes/OWC Mercury Elite Pro - #2/Needs something/ Music/Marvin Gaye - The Master 1961-1984 (1995) [FLAC] {Motown Master Series 4cd set}/CD2/10 - Together We Stand (Divided We Fall).flac
Pre-gap length : 00:00:40

Track gain : -7.72 dB
Peak : 0.977234
CRC32 hash (test run) : 5D331191
CRC32 hash : 5D331191
CRC32 hash (skip zero) : 869ED2EF
AccurateRip v1 signature : 5A03D1C7
AccurateRip v2 signature : 12692466
->Accurately ripped (v1+v2, confidence 18+9/113)
Statistics
Read error : 0
Jitter error (maybe fixed) : 0
Retry sector count : 0
Damaged sector count : 0

Track 11
Filename : /Volumes/OWC Mercury Elite Pro - #2/Needs something/ Music/Marvin Gaye - The Master 1961-1984 (1995) [FLAC] {Motown Master Series 4cd set}/CD2/11 - You.flac
Pre-gap length : 00:00:40

Track gain : -7.52 dB
Peak : 0.977234
CRC32 hash (test run) : B2267FB1
CRC32 hash : B2267FB1
CRC32 hash (skip zero) : 5FD06413
AccurateRip v1 signature : EC05C848
AccurateRip v2 signature : 767A2B64
->Accurately ripped (v1+v2, confidence 18+9/114)
Statistics
Read error : 0
Jitter error (maybe fixed) : 0
Retry sector count : 0
Damaged sector count : 0

Track 12
Filename : /Volumes/OWC Mercury Elite Pro - #2/Needs something/ Music/Marvin Gaye - The Master 1961-1984 (1995) [FLAC] {Motown Master Series 4cd set}/CD2/12 - Chained.flac
Pre-gap length : 00:01:00

Track gain : -5.28 dB
Peak : 0.977234
CRC32 hash (test run) : 4B2E06E9
CRC32 hash : 4B2E06E9
CRC32 hash (skip zero) : B47877F9
AccurateRip v1 signature : DC05C8A4
AccurateRip v2 signature : 86A2DE5D
->Accurately ripped (v1+v2, confidence 18+9/114)
Statistics
Read error : 0
Jitter error (maybe fixed) : 0
Retry sector count : 0
Damaged sector count : 0

Track 13
Filename : /Volumes/OWC Mercury Elite Pro - #2/Needs something/ Music/Marvin Gaye - The Master 1961-1984 (1995) [FLAC] {Motown Master Series 4cd set}/CD2/13 - I Heard It Through The Grapevine.flac
Pre-gap length : 00:00:30

Track gain : -8.01 dB
Peak : 0.977234
CRC32 hash (test run) : 05F7C35E
CRC32 hash : 05F7C35E
CRC32 hash (skip zero) : 958E7B08
AccurateRip v1 signature : 9601C4E1
AccurateRip v2 signature : 01ED8C73
->Accurately ripped (v1+v2, confidence 18+9/114)
Statistics
Read error : 0
Jitter error (maybe fixed) : 0
Retry sector count : 0
Damaged sector count : 0

Track 14
Filename : /Volumes/OWC Mercury Elite Pro - #2/Needs something/ Music/Marvin Gaye - The Master 1961-1984 (1995) [FLAC] {Motown Master Series 4cd set}/CD2/14 - You're What's Happening (In The World Today).flac
Pre-gap length : 00:00:57

Track gain : -8.04 dB
Peak : 0.977234
CRC32 hash (test run) : FAFCC778
CRC32 hash : FAFCC778
CRC32 hash (skip zero) : 6B1A4406
AccurateRip v1 signature : 8D3B38E5
AccurateRip v2 signature : 858D9D09
->Accurately ripped (v1+v2, confidence 18+9/114)
Statistics
Read error : 0
Jitter error (maybe fixed) : 0
Retry sector count : 0
Damaged sector count : 0

Track 15
Filename : /Volumes/OWC Mercury Elite Pro - #2/Needs something/ Music/Marvin Gaye - The Master 1961-1984 (1995) [FLAC] {Motown Master Series 4cd set}/CD2/15 - This Love Starved Heart Of Mine (It's Killing Me).flac

Track gain : -6.93 dB
Peak : 0.977234
CRC32 hash (test run) : 32782F77
CRC32 hash : 32782F77
CRC32 hash (skip zero) : 33B16585
AccurateRip v1 signature : 37AD4C0E
AccurateRip v2 signature : 737C7FF0
->Accurately ripped (v1+v2, confidence 18+9/114)
Statistics
Read error : 0
Jitter error (maybe fixed) : 0
Retry sector count : 0
Damaged sector count : 0

Track 16
Filename : /Volumes/OWC Mercury Elite Pro - #2/Needs something/ Music/Marvin Gaye - The Master 1961-1984 (1995) [FLAC] {Motown Master Series 4cd set}/CD2/16 - Ain't Nothing Like The Real Thing.flac
Pre-gap length : 00:00:57

Track gain : -7.33 dB
Peak : 0.977234
CRC32 hash (test run) : 7ABFAFE0
CRC32 hash : 7ABFAFE0
CRC32 hash (skip zero) : 629CCDEF
AccurateRip v1 signature : FCD937F1
AccurateRip v2 signature : 1304A103
->Accurately ripped (v1+v2, confidence 19+9/114)
Statistics
Read error : 0
Jitter error (maybe fixed) : 0
Retry sector count : 0
Damaged sector count : 0

Track 17
Filename : /Volumes/OWC Mercury Elite Pro - #2/Needs something/ Music/Marvin Gaye - The Master 1961-1984 (1995) [FLAC] {Motown Master Series 4cd set}/CD2/17 - Keep On Lovin' Me Honey.flac
Pre-gap length : 00:00:20

Track gain : -8.49 dB
Peak : 0.977234
CRC32 hash (test run) : 0A49E7E9
CRC32 hash : 0A49E7E9
CRC32 hash (skip zero) : 1E947CD7
AccurateRip v1 signature : 88E33FDD
AccurateRip v2 signature : DA758138
->Accurately ripped (v1+v2, confidence 18+9/113)
Statistics
Read error : 0
Jitter error (maybe fixed) : 0
Retry sector count : 0
Damaged sector count : 0

Track 18
Filename : /Volumes/OWC Mercury Elite Pro - #2/Needs something/ Music/Marvin Gaye - The Master 1961-1984 (1995) [FLAC] {Motown Master Series 4cd set}/CD2/18 - You're All I Need To Get By.flac
Pre-gap length : 00:00:45

Track gain : -7.69 dB
Peak : 0.977234
CRC32 hash (test run) : 30B10F05
CRC32 hash : 30B10F05
CRC32 hash (skip zero) : 7ED30852
AccurateRip v1 signature : B7689FA5
AccurateRip v2 signature : 8A670874
->Accurately ripped (v1+v2, confidence 18+9/113)
Statistics
Read error : 0
Jitter error (maybe fixed) : 0
Retry sector count : 0
Damaged sector count : 0

Track 19
Filename : /Volumes/OWC Mercury Elite Pro - #2/Needs something/ Music/Marvin Gaye - The Master 1961-1984 (1995) [FLAC] {Motown Master Series 4cd set}/CD2/19 - Too Busy Thinking About My Baby.flac
Pre-gap length : 00:01:35

Track gain : -6.55 dB
Peak : 0.977234
CRC32 hash (test run) : 2D957CE7
CRC32 hash : 2D957CE7
CRC32 hash (skip zero) : 6984AC53
AccurateRip v1 signature : 59430691
AccurateRip v2 signature : 62488D11
->Accurately ripped (v1+v2, confidence 19+9/115)
Statistics
Read error : 0
Jitter error (maybe fixed) : 0
Retry sector count : 0
Damaged sector count : 0

Track 20
Filename : /Volumes/OWC Mercury Elite Pro - #2/Needs something/ Music/Marvin Gaye - The Master 1961-1984 (1995) [FLAC] {Motown Master Series 4cd set}/CD2/20 - More Than A Heart Can Stand.flac
Pre-gap length : 00:01:13

Track gain : -6.91 dB
Peak : 0.977234
CRC32 hash (test run) : 29C02EC9
CRC32 hash : 29C02EC9
CRC32 hash (skip zero) : 4442E446
AccurateRip v1 signature : A595C9DD
AccurateRip v2 signature : E7F84CB3
->Accurately ripped (v1+v2, confidence 18+8/111)
Statistics
Read error : 0
Jitter error (maybe fixed) : 0
Retry sector count : 0
Damaged sector count : 0

Track 21
Filename : /Volumes/OWC Mercury Elite Pro - #2/Needs something/ Music/Marvin Gaye - The Master 1961-1984 (1995) [FLAC] {Motown Master Series 4cd set}/CD2/21 - How Can I Forget.flac
Pre-gap length : 00:00:27

Track gain : -5.92 dB
Peak : 0.870972
CRC32 hash (test run) : 097A3FFB
CRC32 hash : 097A3FFB
CRC32 hash (skip zero) : 22FBAEA3
AccurateRip v1 signature : 912825D7
AccurateRip v2 signature : 926C0213
->Accurately ripped (v1+v2, confidence 18+9/113)
Statistics
Read error : 0
Jitter error (maybe fixed) : 0
Retry sector count : 0
Damaged sector count : 0

Track 22
Filename : /Volumes/OWC Mercury Elite Pro - #2/Needs something/ Music/Marvin Gaye - The Master 1961-1984 (1995) [FLAC] {Motown Master Series 4cd set}/CD2/22 - That's The Way Love Is.flac
Pre-gap length : 00:00:25

Track gain : -6.73 dB
Peak : 0.977234
CRC32 hash (test run) : 16DD1E94
CRC32 hash : 16DD1E94
CRC32 hash (skip zero) : 103CBB2D
AccurateRip v1 signature : B0997738
AccurateRip v2 signature : 74A0F8DF
->Accurately ripped (v1+v2, confidence 17+9/110)
Statistics
Read error : 0
Jitter error (maybe fixed) : 0
Retry sector count : 0
Damaged sector count : 0

Track 23
Filename : /Volumes/OWC Mercury Elite Pro - #2/Needs something/ Music/Marvin Gaye - The Master 1961-1984 (1995) [FLAC] {Motown Master Series 4cd set}/CD2/23 - Yesterday.flac
Pre-gap length : 00:00:48

Track gain : -7.99 dB
Peak : 0.977234
CRC32 hash (test run) : 2429DEAE
CRC32 hash : 2429DEAE
CRC32 hash (skip zero) : 11EE9A58
AccurateRip v1 signature : FF688FC4
AccurateRip v2 signature : D0CE3B12
->Accurately ripped (v1+v2, confidence 18+9/112)
Statistics
Read error : 0
Jitter error (maybe fixed) : 0
Retry sector count : 0
Damaged sector count : 0

Track 24
Filename : /Volumes/OWC Mercury Elite Pro - #2/Needs something/ Music/Marvin Gaye - The Master 1961-1984 (1995) [FLAC] {Motown Master Series 4cd set}/CD2/24 - The End Of Our Road.flac
Pre-gap length : 00:00:30

Track gain : -7.40 dB
Peak : 0.977234
CRC32 hash (test run) : C9F07642
CRC32 hash : C9F07642
CRC32 hash (skip zero) : 1CDE24E9
AccurateRip v1 signature : 5B990A30
AccurateRip v2 signature : BDD72825
->Accurately ripped (v1+v2, confidence 18+9/112)
Statistics
Read error : 0
Jitter error (maybe fixed) : 0
Retry sector count : 0
Damaged sector count : 0

Track 25
Filename : /Volumes/OWC Mercury Elite Pro - #2/Needs something/ Music/Marvin Gaye - The Master 1961-1984 (1995) [FLAC] {Motown Master Series 4cd set}/CD2/25 - Good Lovin' Ain't Easy To Come By.flac
Pre-gap length : 00:00:52

Track gain : -7.87 dB
Peak : 0.977234
CRC32 hash (test run) : 460E115B
CRC32 hash : 460E115B
CRC32 hash (skip zero) : 05724F83
AccurateRip v1 signature : 595682A0
AccurateRip v2 signature : B3AF268E
->Accurately ripped (v1+v2, confidence 18+9/111)
Statistics
Read error : 0
Jitter error (maybe fixed) : 0
Retry sector count : 0
Damaged sector count : 0

Track 26
Filename : /Volumes/OWC Mercury Elite Pro - #2/Needs something/ Music/Marvin Gaye - The Master 1961-1984 (1995) [FLAC] {Motown Master Series 4cd set}/CD2/26 - What You Gave Me.flac
Pre-gap length : 00:00:70

Track gain : -7.30 dB
Peak : 0.977234
CRC32 hash (test run) : A9BCBA56
CRC32 hash : A9BCBA56
CRC32 hash (skip zero) : ED0FF9A5
AccurateRip v1 signature : A62E6FF6
AccurateRip v2 signature : C352F202
->Accurately ripped (v1+v2, confidence 18+9/108)
Statistics
Read error : 0
Jitter error (maybe fixed) : 0
Retry sector count : 0
Damaged sector count : 0

No errors occurred

End of status report

––-BEGIN XLD SIGNATURE––-
JxmmR6X47Od1Eyrs82cQTtn5osTv.QZFjsx6OTT1f940163PVl2npCmsUHBU1QXYwFGmLHswiUe5obQd5S81tO.FM5oDy3lF1Qpze_C
––-END XLD SIGNATURE––-


[CUETools log; Date: 27.01.2018 15:23:58; Version: 2.1.5]
[AccurateRip ID: 0040b295-04b8a713-79107c1a] found.
Track [ CRC | V2 ] Status
01 [c3152f52|54366522] (018+018/148) Accurately ripped
02 [4411fa64|bec411e0] (018+018/148) Accurately ripped
03 [3c6a0fe3|09f57fff] (018+018/149) Accurately ripped
04 [007c6b14|59bf3173] (018+018/148) Accurately ripped
05 [dfb0d0fa|c43e0174] (018+018/149) Accurately ripped
06 [a68c10be|e9c6ffc0] (018+018/147) Accurately ripped
07 [1d4bb56a|63cd77c2] (019+018/148) Accurately ripped
08 [9a81af2d|79c0858c] (018+018/147) Accurately ripped
09 [c955f41d|35eccbad] (018+018/148) Accurately ripped
10 [5a03d1c7|12692466] (018+018/147) Accurately ripped
11 [ec05c848|767a2b64] (018+018/148) Accurately ripped
12 [dc05c8a4|86a2de5d] (018+018/148) Accurately ripped
13 [9601c4e1|01ed8c73] (018+018/148) Accurately ripped
14 [8d3b38e5|858d9d09] (018+018/147) Accurately ripped
15 [37ad4c0e|737c7ff0] (018+018/148) Accurately ripped
16 [fcd937f1|1304a103] (019+018/148) Accurately ripped
17 [88e33fdd|da758138] (018+018/147) Accurately ripped
18 [b7689fa5|8a670874] (018+018/147) Accurately ripped
19 [59430691|62488d11] (019+018/149) Accurately ripped
20 [a595c9dd|e7f84cb3] (018+016/144) Accurately ripped
21 [912825d7|926c0213] (018+018/146) Accurately ripped
22 [b0997738|74a0f8df] (017+018/143) Accurately ripped
23 [ff688fc4|d0ce3b12] (018+018/144) Accurately ripped
24 [5b990a30|bdd72825] (018+018/144) Accurately ripped
25 [595682a0|b3af268e] (018+018/143) Accurately ripped
26 [a62e6ff6|c352f202] (018+017/140) Accurately ripped
Offsetted by -2234:
01 [329d503d] (024/148) Accurately ripped
02 [135ef4af] (023/148) Accurately ripped
03 [05dbeba9] (024/149) Accurately ripped
04 [a5efcfed] (024/148) Accurately ripped
05 [3abe94a6] (024/149) Accurately ripped
06 [e1299bae] (024/147) Accurately ripped
07 [92dc74b4] (024/148) Accurately ripped
08 [12275e83] (024/147) Accurately ripped
09 [68b3eb37] (024/148) Accurately ripped
10 [8c78c241] (024/147) Accurately ripped
11 [15623481] (024/148) Accurately ripped
12 [26025e4c] (024/148) Accurately ripped
13 [bc76bea2] (024/148) Accurately ripped
14 [40c2fe95] (024/147) Accurately ripped
15 [0a5dba25] (024/148) Accurately ripped
16 [160cc346] (024/148) Accurately ripped
17 [f17fcc71] (024/147) Accurately ripped
18 [d8c915e3] (024/147) Accurately ripped
19 [f3edd4a6] (024/149) Accurately ripped
20 [7fa160bd] (024/144) Accurately ripped
21 [450ed4ac] (024/146) Accurately ripped
22 [489cd54f] (024/143) Accurately ripped
23 [68d00693] (024/144) Accurately ripped
24 [e07e7999] (024/144) Accurately ripped
25 [695d81a9] (024/143) Accurately ripped
26 [57b09a1d] (022/140) Accurately ripped
Offsetted by -365:
01 [7b3940de] (006/148) Accurately ripped
02 [df3d2536] (006/148) Accurately ripped
03 [6ca15185] (006/149) Accurately ripped
04 [104446e7] (006/148) Accurately ripped
05 [b4f2428a] (006/149) Accurately ripped
06 [2ef7bf9e] (006/147) Accurately ripped
07 [9e05ca9a] (006/148) Accurately ripped
08 [68095b06] (006/147) Accurately ripped
09 [2599a464] (006/148) Accurately ripped
10 [e9b1812e] (006/147) Accurately ripped
11 [9bdb763f] (006/148) Accurately ripped
12 [1a56f742] (006/148) Accurately ripped
13 [a35a8c50] (006/148) Accurately ripped
14 [fdd57f5f] (006/147) Accurately ripped
15 [559991be] (006/148) Accurately ripped
16 [329396fb] (006/148) Accurately ripped
17 [04fb9576] (006/147) Accurately ripped
18 [8447b9a5] (006/147) Accurately ripped
19 [f2719ae3] (006/149) Accurately ripped
20 [b8dd2730] (006/144) Accurately ripped
21 [5e254a5d] (006/146) Accurately ripped
22 [0ff2edd3] (006/143) Accurately ripped
23 [a7242efa] (006/144) Accurately ripped
24 [8958c3d5] (006/144) Accurately ripped
25 [8f3b5006] (006/143) Accurately ripped
26 [3689b779] (006/140) Accurately ripped
Offsetted by -2293:
01 [afc61528] (000/148) No match (V2 was not tested)
02 [2f3b5d41] (000/148) No match (V2 was not tested)
03 [73cc8cd9] (000/149) No match (V2 was not tested)
04 [5cf5815b] (000/148) No match (V2 was not tested)
05 [b10829b1] (000/149) No match (V2 was not tested)
06 [9a8e9bcf] (000/147) No match (V2 was not tested)
07 [e6acd38f] (000/148) No match (V2 was not tested)
08 [bebdf9d0] (000/147) No match (V2 was not tested)
09 [c188b10c] (000/148) No match (V2 was not tested)
10 [ed3dd996] (000/147) No match (V2 was not tested)
11 [1715f8fa] (000/148) No match (V2 was not tested)
12 [f66bc41b] (000/148) No match (V2 was not tested)
13 [3914f659] (000/148) No match (V2 was not tested)
14 [90c6e736] (000/147) No match
15 [39203282] (000/148) No match
16 [8fcb0b39] (000/148) No match (V2 was not tested)
17 [c4296a86] (000/147) No match (V2 was not tested)
18 [f05d7714] (000/147) No match (V2 was not tested)
19 [cecc05b7] (000/149) No match (V2 was not tested)
20 [ce4614ef] (000/144) No match (V2 was not tested)
21 [d98f0b02] (000/146) No match (V2 was not tested)
22 [d832c9f2] (000/143) No match (V2 was not tested)
23 [86774a18] (000/144) No match (V2 was not tested)
24 [79122b83] (000/144) No match (V2 was not tested)
25 [9d184b13] (000/143) No match (V2 was not tested)
26 [7159b864] (000/140) No match (V2 was not tested)
Offsetted by -1624:
01 [634bfc23] (000/148) No match (V2 was not tested)
02 [01e9d963] (000/148) No match (V2 was not tested)
03 [cb5c6e0c] (000/149) No match (V2 was not tested)
04 [d3c32910] (000/148) No match (V2 was not tested)
05 [4931edc7] (000/149) No match (V2 was not tested)
06 [99c426bf] (000/147) No match (V2 was not tested)
07 [cd4683b3] (000/148) No match (V2 was not tested)
08 [423e3242] (000/147) No match (V2 was not tested)
09 [ad11550e] (000/148) No match (V2 was not tested)
10 [0bceccfa] (000/147) No match (V2 was not tested)
11 [ba8fce0f] (000/148) No match (V2 was not tested)
12 [fca55c56] (000/148) No match (V2 was not tested)
13 [449953f9] (000/148) No match (V2 was not tested)
14 [42582f3e] (000/147) No match
15 [91539a05] (000/148) No match
16 [cf2533f1] (000/148) No match (V2 was not tested)
17 [1093904f] (000/147) No match (V2 was not tested)
18 [eb8bfc92] (000/147) No match (V2 was not tested)
19 [0c06ae1f] (000/149) No match (V2 was not tested)
20 [8bff3061] (000/144) No match (V2 was not tested)
21 [1c6846bc] (000/146) No match (V2 was not tested)
22 [ebe829f8] (000/143) No match (V2 was not tested)
23 [c3c7f530] (000/144) No match (V2 was not tested)
24 [f850cf27] (000/144) No match (V2 was not tested)
25 [8e36d981] (000/143) No match (V2 was not tested)
26 [b481e0e0] (000/140) No match (V2 was not tested)
Offsetted by -1150:
01 [274df35d] (000/148) No match
02 [a1205a5c] (000/148) No match
03 [8d34d933] (000/149) No match
04 [48776be8] (000/148) No match
05 [c9b2a162] (000/149) No match
06 [06d3ff7c] (000/147) No match
07 [a1769337] (000/148) No match
08 [82bb94ac] (000/147) No match
09 [738aa960] (000/148) No match
10 [f37f8aa9] (000/147) No match
11 [143ce8b7] (000/148) No match
12 [7324d781] (000/148) No match
13 [3fb1b564] (000/148) No match
14 [a70a35fe] (000/147) No match (V2 was not tested)
15 [280fe9dc] (000/148) No match (V2 was not tested)
16 [c3e1e725] (000/148) No match
17 [3690586b] (000/147) No match
18 [519b323d] (000/147) No match
19 [67f0dd7f] (000/149) No match
20 [0a03b168] (000/144) No match
21 [b64929f2] (000/146) No match
22 [5ec0b074] (000/143) No match
23 [d805765a] (000/144) No match
24 [de2894ee] (000/144) No match
25 [f973c6fa] (000/143) No match
26 [a90fd82e] (000/140) No match
Offsetted by -1064:
01 [57a68878] (000/148) No match
02 [8f21c986] (000/148) No match
03 [d09216cd] (000/149) No match
04 [bc53ce2c] (000/148) No match
05 [115d0c65] (000/149) No match
06 [dc9c88b8] (000/147) No match
07 [a42799d4] (000/148) No match
08 [765c287b] (000/147) No match
09 [cc8b24ed] (000/148) No match
10 [1cb0b997] (000/147) No match
11 [d3202f85] (000/148) No match
12 [c697b7ae] (000/148) No match
13 [121840ef] (000/148) No match
14 [f6eb342c] (000/147) No match (V2 was not tested)
15 [cb45d6aa] (000/148) No match (V2 was not tested)
16 [905ee99a] (000/148) No match
17 [70cda824] (000/147) No match
18 [30156445] (000/147) No match
19 [b78953b9] (000/149) No match
20 [142deb95] (000/144) No match
21 [5852c4ba] (000/146) No match
22 [a6d44fb2] (000/143) No match
23 [f674bc09] (000/144) No match
24 [ed57e410] (000/144) No match
25 [a3cd74cf] (000/143) No match
26 [59d6d931] (000/140) No match
Offsetted by -397:
01 [69ec9402] (000/148) No match
02 [fd7dc263] (000/148) No match
03 [edbc7191] (000/149) No match
04 [dd5e3c33] (000/148) No match
05 [e5c471c7] (000/149) No match
06 [1cc042d2] (000/147) No match
07 [a655e880] (000/148) No match
08 [6fb9a6a7] (000/147) No match
09 [72f92127] (000/148) No match
10 [ee72153d] (000/147) No match
11 [98e242dd] (000/148) No match
12 [b381633d] (000/148) No match
13 [838051af] (000/148) No match
14 [7183b82b] (000/147) No match (V2 was not tested)
15 [9b1d7b07] (000/148) No match (V2 was not tested)
16 [9fecb8fb] (000/148) No match
17 [4785c728] (000/147) No match
18 [e108bc7d] (000/147) No match
19 [8b9ed870] (000/149) No match
20 [9dda9ff3] (000/144) No match
21 [71c8efe6] (000/146) No match
22 [35f9285c] (000/143) No match
23 [998b364c] (000/144) No match
24 [e24e50c0] (000/144) No match
25 [e26e77f4] (000/143) No match
26 [d4eeaebe] (000/140) No match
Offsetted by -199:
01 [3725e28d] (000/148) No match (V2 was not tested)
02 [9046b6ae] (000/148) No match (V2 was not tested)
03 [2b7ac911] (000/149) No match (V2 was not tested)
04 [3aa834af] (000/148) No match (V2 was not tested)
05 [f5e3a5eb] (000/149) No match (V2 was not tested)
06 [c1c40236] (000/147) No match (V2 was not tested)
07 [64863da0] (000/148) No match (V2 was not tested)
08 [448391e7] (000/147) No match (V2 was not tested)
09 [1378d47f] (000/148) No match (V2 was not tested)
10 [e2a79919] (000/147) No match (V2 was not tested)
11 [93ee5adf] (000/148) No match (V2 was not tested)
12 [2bf6586b] (000/148) No match (V2 was not tested)
13 [143b717a] (000/148) No match (V2 was not tested)
14 [1e69d8ed] (000/147) No match (V2 was not tested)
15 [87129925] (000/148) No match (V2 was not tested)
16 [4fdd45da] (000/148) No match (V2 was not tested)
17 [295fe83a] (000/147) No match (V2 was not tested)
18 [05c75364] (000/147) No match (V2 was not tested)
19 [9e7b6308] (000/149) No match (V2 was not tested)
20 [75aa6960] (000/144) No match (V2 was not tested)
21 [dde6acee] (000/146) No match (V2 was not tested)
22 [14fa1f38] (000/143) No match (V2 was not tested)
23 [0ee61142] (000/144) No match (V2 was not tested)
24 [fe03dba5] (000/144) No match (V2 was not tested)
25 [4414a252] (000/143) No match (V2 was not tested)
26 [11182c3d] (000/140) No match (V2 was not tested)
Offsetted by 272:
01 [2c92dbd1] (000/148) No match
02 [0fed12c1] (000/148) No match
03 [670102de] (000/149) No match
04 [0190ffb1] (000/148) No match
05 [5cc4d264] (000/149) No match
06 [fba890e3] (000/147) No match
07 [d366d2c6] (000/148) No match
08 [8b404fb6] (000/147) No match
09 [6c98102f] (000/148) No match
10 [2e98c328] (000/147) No match
11 [2da85144] (000/148) No match
12 [2609de00] (000/148) No match
13 [0bea175c] (000/148) No match
14 [ad3e7a7f] (000/147) No match (V2 was not tested)
15 [b8bf4e6c] (000/148) No match (V2 was not tested)
16 [7a1d5e66] (000/148) No match
17 [f984ea0d] (000/147) No match
18 [5f6fe8f9] (000/147) No match
19 [6501f86d] (000/149) No match
20 [106cfc4d] (000/144) No match
21 [58cb180a] (000/146) No match
22 [20af9ef2] (000/143) No match
23 [ceac2888] (000/144) No match
24 [86bd1df8] (000/144) No match
25 [e48dc43a] (000/143) No match
26 [9bdfcab5] (000/140) No match

Track Peak [ CRC32 ] [W/O NULL]
– 97,7 [B67839A2] [5CF7FCD5]
01 97,7 [7B8526BB] [3899A54F]
02 97,7 [5BDDFE23] [5A12B5EF]
03 97,7 [8A4C0FFD] [09F79D2B]
04 97,7 [B8D03AEE] [A1579A88]
05 97,7 [9E5D21D0] [B330B231]
06 97,7 [5D092455] [A83340F2]
07 97,7 [A405087D] [2A3E6FF0]
08 97,7 [56B63703] [43789667]
09 97,7 [7C07EF52] [52631A21]
10 97,7 [5D331191] [869ED2EF]
11 97,7 [B2267FB1] [5FD06413]
12 97,7 [4B2E06E9] [B47877F9]
13 97,7 [05F7C35E] [958E7B08]
14 97,7 [FAFCC778] [6B1A4406]
15 97,7 [32782F77] [33B16585]
16 97,7 [7ABFAFE0] [629CCDEF]
17 97,7 [0A49E7E9] [1E947CD7]
18 97,7 [30B10F05] [7ED30852]
19 97,7 [2D957CE7] [6984AC53]
20 97,7 [29C02EC9] [4442E446]
21 87,0 [097A3FFB] [22FBAEA3]
22 97,7 [16DD1E94] [103CBB2D]
23 97,7 [2429DEAE] [11EE9A58]
24 97,7 [C9F07642] [1CDE24E9]
25 97,7 [460E115B] [05724F83]
26 97,7 [A9BCBA56] [ED0FF9A5]


Marvin Gaye - The Master 1961-1984 (1995) [4CD Box set]

Tracklist CD3:

01. Marvin Gaye - What's Going On - 03:53
02. Marvin Gaye - Save The Children - 04:02
03. Marvin Gaye - Mercy Mercy Me (The Ecology) - 03:16
04. Marvin Gaye - Inner City Blues (Make Me Wanna Holler) - 05:29
05. Marvin Gaye - I'm Going Home [Alt. Mix] - 04:39
06. Marvin Gaye - Piece Of Clay - 05:12
07. Marvin Gaye - You're The Man - Pts. I & II - 05:47
08. Marvin Gaye - Checking Out (Double Clutch) - 04:53
09. Marvin Gaye - Trouble Man - 04:56
10. Marvin Gaye - Let's Get It On - 04:53
11. Marvin Gaye - Come Get To This - 02:41
12. Marvin Gaye - Just To Keep You Satisfied - 04:27
13. Marvin Gaye - Pledging My Love (Feat. Diana Ross) - 03:35
14. Marvin Gaye - My Mistake (Was To Love You) (Feat. Diana Ross) - 02:55
15. Marvin Gaye - Distant Lover (Live) - 06:22
16. Marvin Gaye - I Want You - 04:34
17. Marvin Gaye - After The Dance - 05:12
18. Marvin Gaye - –Blank– - 00:01

Converted to Image (CUETools 2.1.4)

X Lossless Decoder version 20130407 (143.0)

XLD extraction logfile from 2014-02-25 08:56:46 -0800

Marvin Gaye / The Master 1961-1984

Used drive : HL-DT-ST DVDRW GA32N (revision KE06)
Media type : Pressed CD

Ripper mode : XLD Secure Ripper
Disable audio cache : OK for the drive with a cache less than 1375KiB
Make use of C2 pointers : NO
Read offset correction : 103
Max retry count : 100
Gap status : Analyzed, Appended (except HTOA)

TOC of the extracted CD
Track | Start | Length | Start sector | End sector
––––––––––––––––––––––––––––-
1 | 00:00:00 | 03:52:63 | 0 | 17462
2 | 03:52:63 | 04:01:65 | 17463 | 35602
3 | 07:54:53 | 03:15:70 | 35603 | 50297
4 | 11:10:48 | 05:28:57 | 50298 | 74954
5 | 16:39:30 | 04:39:03 | 74955 | 95882
6 | 21:18:33 | 05:11:22 | 95883 | 119229
7 | 26:29:55 | 05:46:13 | 119230 | 145192
8 | 32:15:68 | 04:52:57 | 145193 | 167149
9 | 37:08:50 | 04:55:18 | 167150 | 189292
10 | 42:03:68 | 04:52:50 | 189293 | 211242
11 | 46:56:43 | 02:41:17 | 211243 | 223334
12 | 49:37:60 | 04:26:45 | 223335 | 243329
13 | 54:04:30 | 03:34:68 | 243330 | 259447
14 | 57:39:23 | 02:55:17 | 259448 | 272589
15 | 60:34:40 | 06:22:05 | 272590 | 301244
16 | 66:56:45 | 04:33:53 | 301245 | 321772
17 | 71:30:23 | 05:11:20 | 321773 | 345117
18 | 76:41:43 | 00:00:20 | 345118 | 345137

AccurateRip Summary (DiscID: 003428b0-02b8532b-f911f912)
Track 01 : OK (v1+v2, confidence 17/25)
Track 02 : OK (v1+v2, confidence 17/25)
Track 03 : OK (v1+v2, confidence 17/25)
Track 04 : OK (v1+v2, confidence 17/25)
Track 05 : OK (v1+v2, confidence 17/25)
Track 06 : OK (v1+v2, confidence 17/25)
Track 07 : OK (v1+v2, confidence 17/25)
Track 08 : OK (v1+v2, confidence 17/25)
Track 09 : OK (v1+v2, confidence 17/25)
Track 10 : OK (v1+v2, confidence 17/25)
Track 11 : OK (v1+v2, confidence 17/25)
Track 12 : OK (v1+v2, confidence 17/25)
Track 13 : OK (v1+v2, confidence 16/24)
Track 14 : OK (v1+v2, confidence 16/23)
Track 15 : OK (v1+v2, confidence 16/23)
Track 16 : OK (v1+v2, confidence 16/23)
Track 17 : OK (v1+v2, confidence 15/22)
Track 18 : OK (v1+v2, confidence 8/8)
->All tracks accurately ripped.

All Tracks
Album gain : -5.25 dB
Peak : 0.977234
Statistics
Read error : 0
Jitter error (maybe fixed) : 0
Retry sector count : 0
Damaged sector count : 0

Track 01
Filename : /Volumes/OWC Mercury Elite Pro - #2/Needs something/ Music/Marvin Gaye - The Master 1961-1984 (1995) [FLAC] {Motown Master Series 4cd set}/CD3/01 - What's Going On.flac
Pre-gap length : 00:02:00

Track gain : -4.56 dB
Peak : 0.977234
CRC32 hash (test run) : 2F3929BA
CRC32 hash : 2F3929BA
CRC32 hash (skip zero) : 19BE95B6
AccurateRip v1 signature : C6B69CFF
AccurateRip v2 signature : 65A8918F
->Accurately ripped (v1+v2, confidence 12+5/25)
Statistics
Read error : 0
Jitter error (maybe fixed) : 0
Retry sector count : 0
Damaged sector count : 0

Track 02
Filename : /Volumes/OWC Mercury Elite Pro - #2/Needs something/ Music/Marvin Gaye - The Master 1961-1984 (1995) [FLAC] {Motown Master Series 4cd set}/CD3/02 - Save The Children.flac
Pre-gap length : 00:00:48

Track gain : -4.52 dB
Peak : 0.977234
CRC32 hash (test run) : 1E52D04E
CRC32 hash : 1E52D04E
CRC32 hash (skip zero) : DF9B9EAE
AccurateRip v1 signature : 73BD989C
AccurateRip v2 signature : 06BE1D08
->Accurately ripped (v1+v2, confidence 12+5/25)
Statistics
Read error : 0
Jitter error (maybe fixed) : 0
Retry sector count : 0
Damaged sector count : 0

Track 03
Filename : /Volumes/OWC Mercury Elite Pro - #2/Needs something/ Music/Marvin Gaye - The Master 1961-1984 (1995) [FLAC] {Motown Master Series 4cd set}/CD3/03 - Mercy Mercy Me (The Ecology).flac

Track gain : -4.19 dB
Peak : 0.977234
CRC32 hash (test run) : 1031D514
CRC32 hash : 1031D514
CRC32 hash (skip zero) : B92A256D
AccurateRip v1 signature : E5284F54
AccurateRip v2 signature : C8A6414C
->Accurately ripped (v1+v2, confidence 12+5/25)
Statistics
Read error : 0
Jitter error (maybe fixed) : 0
Retry sector count : 0
Damaged sector count : 0

Track 04
Filename : /Volumes/OWC Mercury Elite Pro - #2/Needs something/ Music/Marvin Gaye - The Master 1961-1984 (1995) [FLAC] {Motown Master Series 4cd set}/CD3/04 - Inner City Blues (Make Me Wanna Holler).flac
Pre-gap length : 00:01:35

Track gain : -3.82 dB
Peak : 0.977234
CRC32 hash (test run) : C41FA2ED
CRC32 hash : C41FA2ED
CRC32 hash (skip zero) : 47BC32F9
AccurateRip v1 signature : 1D7D2AA7
AccurateRip v2 signature : B663C266
->Accurately ripped (v1+v2, confidence 12+5/25)
Statistics
Read error : 0
Jitter error (maybe fixed) : 0
Retry sector count : 0
Damaged sector count : 0

Track 05
Filename : /Volumes/OWC Mercury Elite Pro - #2/Needs something/ Music/Marvin Gaye - The Master 1961-1984 (1995) [FLAC] {Motown Master Series 4cd set}/CD3/05 - I'm Going Home [Alt. Mix].flac
Pre-gap length : 00:01:15

Track gain : -5.28 dB
Peak : 0.977234
CRC32 hash (test run) : 0EBDB875
CRC32 hash : 0EBDB875
CRC32 hash (skip zero) : 106E6909
AccurateRip v1 signature : 42B099F9
AccurateRip v2 signature : C2DB7518
->Accurately ripped (v1+v2, confidence 12+5/25)
Statistics
Read error : 0
Jitter error (maybe fixed) : 0
Retry sector count : 0
Damaged sector count : 0

Track 06
Filename : /Volumes/OWC Mercury Elite Pro - #2/Needs something/ Music/Marvin Gaye - The Master 1961-1984 (1995) [FLAC] {Motown Master Series 4cd set}/CD3/06 - Piece Of Clay.flac
Pre-gap length : 00:00:23

Track gain : -6.49 dB
Peak : 0.977234
CRC32 hash (test run) : B874EA14
CRC32 hash : B874EA14
CRC32 hash (skip zero) : 87A9D41B
AccurateRip v1 signature : 362195D7
AccurateRip v2 signature : BB96B677
->Accurately ripped (v1+v2, confidence 12+5/25)
Statistics
Read error : 0
Jitter error (maybe fixed) : 0
Retry sector count : 0
Damaged sector count : 0

Track 07
Filename : /Volumes/OWC Mercury Elite Pro - #2/Needs something/ Music/Marvin Gaye - The Master 1961-1984 (1995) [FLAC] {Motown Master Series 4cd set}/CD3/07 - You're The Man - Pts. I & II.flac
Pre-gap length : 00:00:32

Track gain : -5.95 dB
Peak : 0.977234
CRC32 hash (test run) : 04C74487
CRC32 hash : 04C74487
CRC32 hash (skip zero) : 491365DF
AccurateRip v1 signature : D902C1A7
AccurateRip v2 signature : 24D43D4E
->Accurately ripped (v1+v2, confidence 12+5/25)
Statistics
Read error : 0
Jitter error (maybe fixed) : 0
Retry sector count : 0
Damaged sector count : 0

Track 08
Filename : /Volumes/OWC Mercury Elite Pro - #2/Needs something/ Music/Marvin Gaye - The Master 1961-1984 (1995) [FLAC] {Motown Master Series 4cd set}/CD3/08 - Checking Out (Double Clutch).flac
Pre-gap length : 00:00:10

Track gain : -3.71 dB
Peak : 0.977234
CRC32 hash (test run) : A72967E0
CRC32 hash : A72967E0
CRC32 hash (skip zero) : EE007153
AccurateRip v1 signature : 2B1446E8
AccurateRip v2 signature : 082C625E
->Accurately ripped (v1+v2, confidence 12+5/25)
Statistics
Read error : 0
Jitter error (maybe fixed) : 0
Retry sector count : 0
Damaged sector count : 0

Track 09
Filename : /Volumes/OWC Mercury Elite Pro - #2/Needs something/ Music/Marvin Gaye - The Master 1961-1984 (1995) [FLAC] {Motown Master Series 4cd set}/CD3/09 - Trouble Man.flac
Pre-gap length : 00:00:72

Track gain : -4.02 dB
Peak : 0.977234
CRC32 hash (test run) : 9C0C8068
CRC32 hash : 9C0C8068
CRC32 hash (skip zero) : 8C084DC7
AccurateRip v1 signature : 3C7E7BD9
AccurateRip v2 signature : 47ACE1DB
->Accurately ripped (v1+v2, confidence 12+5/25)
Statistics
Read error : 0
Jitter error (maybe fixed) : 0
Retry sector count : 0
Damaged sector count : 0

Track 10
Filename : /Volumes/OWC Mercury Elite Pro - #2/Needs something/ Music/Marvin Gaye - The Master 1961-1984 (1995) [FLAC] {Motown Master Series 4cd set}/CD3/10 - Let's Get It On.flac
Pre-gap length : 01:05:68

Track gain : -5.16 dB
Peak : 0.977234
CRC32 hash (test run) : 21A233FC
CRC32 hash : 21A233FC
CRC32 hash (skip zero) : 3341F428
AccurateRip v1 signature : 248AE554
AccurateRip v2 signature : 39A826A0
->Accurately ripped (v1+v2, confidence 12+5/25)
Statistics
Read error : 0
Jitter error (maybe fixed) : 0
Retry sector count : 0
Damaged sector count : 0

Track 11
Filename : /Volumes/OWC Mercury Elite Pro - #2/Needs something/ Music/Marvin Gaye - The Master 1961-1984 (1995) [FLAC] {Motown Master Series 4cd set}/CD3/11 - Come Get To This.flac
Pre-gap length : 00:00:53

Track gain : -5.66 dB
Peak : 0.977234
CRC32 hash (test run) : 5DE0B828
CRC32 hash : 5DE0B828
CRC32 hash (skip zero) : 7A95AFB3
AccurateRip v1 signature : 334840FD
AccurateRip v2 signature : A58E60F9
->Accurately ripped (v1+v2, confidence 12+5/25)
Statistics
Read error : 0
Jitter error (maybe fixed) : 0
Retry sector count : 0
Damaged sector count : 0

Track 12
Filename : /Volumes/OWC Mercury Elite Pro - #2/Needs something/ Music/Marvin Gaye - The Master 1961-1984 (1995) [FLAC] {Motown Master Series 4cd set}/CD3/12 - Just To Keep You Satisfied.flac

Track gain : -4.86 dB
Peak : 0.977234
CRC32 hash (test run) : 4A11A890
CRC32 hash : 4A11A890
CRC32 hash (skip zero) : F730E2FA
AccurateRip v1 signature : 0396B8BA
AccurateRip v2 signature : 84EED8EF
->Accurately ripped (v1+v2, confidence 12+5/25)
Statistics
Read error : 0
Jitter error (maybe fixed) : 0
Retry sector count : 0
Damaged sector count : 0

Track 13
Filename : /Volumes/OWC Mercury Elite Pro - #2/Needs something/ Music/Marvin Gaye - The Master 1961-1984 (1995) [FLAC] {Motown Master Series 4cd set}/CD3/13 - Pledging My Love (Feat. Diana Ross).flac

Track gain : -5.66 dB
Peak : 0.977234
CRC32 hash (test run) : B25A054A
CRC32 hash : B25A054A
CRC32 hash (skip zero) : 67EF1535
AccurateRip v1 signature : CCE9C4D7
AccurateRip v2 signature : FD1017BE
->Accurately ripped (v1+v2, confidence 12+4/24)
Statistics
Read error : 0
Jitter error (maybe fixed) : 0
Retry sector count : 0
Damaged sector count : 0

Track 14
Filename : /Volumes/OWC Mercury Elite Pro - #2/Needs something/ Music/Marvin Gaye - The Master 1961-1984 (1995) [FLAC] {Motown Master Series 4cd set}/CD3/14 - My Mistake (Was To Love You) (Feat. Diana Ross).flac
Pre-gap length : 00:01:73

Track gain : -3.84 dB
Peak : 0.977234
CRC32 hash (test run) : 9B19D27D
CRC32 hash : 9B19D27D
CRC32 hash (skip zero) : 67774EB5
AccurateRip v1 signature : FA3BF6C6
AccurateRip v2 signature : 2540DF6B
->Accurately ripped (v1+v2, confidence 12+4/23)
Statistics
Read error : 0
Jitter error (maybe fixed) : 0
Retry sector count : 0
Damaged sector count : 0

Track 15
Filename : /Volumes/OWC Mercury Elite Pro - #2/Needs something/ Music/Marvin Gaye - The Master 1961-1984 (1995) [FLAC] {Motown Master Series 4cd set}/CD3/15 - Distant Lover (Live).flac
Pre-gap length : 00:00:37

Track gain : -5.68 dB
Peak : 0.977234
CRC32 hash (test run) : AE98D149
CRC32 hash : AE98D149
CRC32 hash (skip zero) : 121A0E31
AccurateRip v1 signature : 7F2C42D9
AccurateRip v2 signature : E8CCF083
->Accurately ripped (v1+v2, confidence 12+4/23)
Statistics
Read error : 0
Jitter error (maybe fixed) : 0
Retry sector count : 0
Damaged sector count : 0

Track 16
Filename : /Volumes/OWC Mercury Elite Pro - #2/Needs something/ Music/Marvin Gaye - The Master 1961-1984 (1995) [FLAC] {Motown Master Series 4cd set}/CD3/16 - I Want You.flac
Pre-gap length : 00:00:62

Track gain : -6.32 dB
Peak : 0.977234
CRC32 hash (test run) : 8632203A
CRC32 hash : 8632203A
CRC32 hash (skip zero) : 4EBC45B0
AccurateRip v1 signature : 14CEBEE4
AccurateRip v2 signature : 5D2729A7
->Accurately ripped (v1+v2, confidence 12+4/23)
Statistics
Read error : 0
Jitter error (maybe fixed) : 0
Retry sector count : 0
Damaged sector count : 0

Track 17
Filename : /Volumes/OWC Mercury Elite Pro - #2/Needs something/ Music/Marvin Gaye - The Master 1961-1984 (1995) [FLAC] {Motown Master Series 4cd set}/CD3/17 - After The Dance.flac
Pre-gap length : 00:00:73

Track gain : -3.96 dB
Peak : 0.977234
CRC32 hash (test run) : D8E3E06E
CRC32 hash : D8E3E06E
CRC32 hash (skip zero) : BABCFFD1
AccurateRip v1 signature : 12AE0F38
AccurateRip v2 signature : 32AA6E0D
->Accurately ripped (v1+v2, confidence 11+4/22)
Statistics
Read error : 0
Jitter error (maybe fixed) : 0
Retry sector count : 0
Damaged sector count : 0

Track 18
Filename : /Volumes/OWC Mercury Elite Pro - #2/Needs something/ Music/Marvin Gaye - The Master 1961-1984 (1995) [FLAC] {Motown Master Series 4cd set}/CD3/18 - –Blank–.flac
Pre-gap length : 00:30:18

Track gain : 46.17 dB
Peak : 0.001923
CRC32 hash (test run) : D94061D2
CRC32 hash : D94061D2
CRC32 hash (skip zero) : 69946C53
AccurateRip v1 signature : 6A497211
AccurateRip v2 signature : 6B633E97
->Accurately ripped (v1+v2, confidence 4+4/8)
Statistics
Read error : 0
Jitter error (maybe fixed) : 0
Retry sector count : 0
Damaged sector count : 0

No errors occurred

End of status report

––-BEGIN XLD SIGNATURE––-
bFbu.xl6R9ze_769MQnx8EwOyY9HvALhDrqkx7wCoxxpYcj..RB2IgV1.tR9VpToi6GEKGtTT2XRbDg7NnMp7xtgKBnMSNpwU3YavfG
––-END XLD SIGNATURE––-


[CUETools log; Date: 27.01.2018 16:05:33; Version: 2.1.5]
[CTDB TOCID: dgWVrBqPTNzwgCyU6_4aTahT2PE-] found.
Track | CTDB Status
1 | (1/3) Accurately ripped
2 | (1/3) Accurately ripped
3 | (1/3) Accurately ripped
4 | (1/3) Accurately ripped
5 | (1/3) Accurately ripped
6 | (1/3) Accurately ripped
7 | (1/3) Accurately ripped
8 | (1/3) Accurately ripped
9 | (1/3) Accurately ripped
10 | (1/3) Accurately ripped
11 | (1/3) Accurately ripped
12 | (1/3) Accurately ripped
13 | (1/3) Accurately ripped
14 | (1/3) Accurately ripped
15 | (1/3) Accurately ripped
16 | (1/3) Accurately ripped
17 | (1/3) Accurately ripped
18 | (0/3) No match
[AccurateRip ID: 003428b0-02b8532b-f911f912] found.
Track [ CRC | V2 ] Status
01 [c6b69cff|65a8918f] (12+10/33) Accurately ripped
02 [73bd989c|06be1d08] (12+10/33) Accurately ripped
03 [e5284f54|c8a6414c] (12+10/33) Accurately ripped
04 [1d7d2aa7|b663c266] (12+10/33) Accurately ripped
05 [42b099f9|c2db7518] (12+10/33) Accurately ripped
06 [362195d7|bb96b677] (12+10/33) Accurately ripped
07 [d902c1a7|24d43d4e] (12+10/33) Accurately ripped
08 [2b1446e8|082c625e] (12+10/33) Accurately ripped
09 [3c7e7bd9|47ace1db] (12+10/33) Accurately ripped
10 [248ae554|39a826a0] (12+10/33) Accurately ripped
11 [334840fd|a58e60f9] (12+10/33) Accurately ripped
12 [0396b8ba|84eed8ef] (12+10/32) Accurately ripped
13 [cce9c4d7|fd1017be] (12+09/31) Accurately ripped
14 [fa3bf6c6|2540df6b] (12+09/31) Accurately ripped
15 [7f2c42d9|e8ccf083] (12+09/30) Accurately ripped
16 [14cebee4|5d2729a7] (12+09/30) Accurately ripped
17 [12ae0f38|32aa6e0d] (11+08/28) Accurately ripped
18 [00000000|00000000] (00+00/09) No match
Offsetted by -2227:
01 [8874899d] (00/33) No match (V2 was not tested)
02 [93c266e6] (00/33) No match (V2 was not tested)
03 [57effd6a] (00/33) No match (V2 was not tested)
04 [427cca57] (00/33) No match (V2 was not tested)
05 [53a8b809] (00/33) No match (V2 was not tested)
06 [a5f5ee74] (00/33) No match (V2 was not tested)
07 [b9ece680] (00/33) No match (V2 was not tested)
08 [c28d4d6f] (00/33) No match (V2 was not tested)
09 [9f92d844] (00/33) No match (V2 was not tested)
10 [7a7d3554] (00/33) No match (V2 was not tested)
11 [76a92a4a] (00/33) No match (V2 was not tested)
12 [ccd0e598] (00/32) No match (V2 was not tested)
13 [31706e1f] (00/31) No match (V2 was not tested)
14 [b08a303d] (00/31) No match (V2 was not tested)
15 [1f640d9f] (00/30) No match (V2 was not tested)
16 [ab8c9306] (00/30) No match (V2 was not tested)
17 [35548f00] (00/28) No match (V2 was not tested)
18 [9946674a] (00/09) No match

Track Peak [ CRC32 ] [W/O NULL]
– 97,7 [5195562A] [40DB494F]
01 97,7 [2F3929BA] [19BE95B6]
02 97,7 [1E52D04E] [DF9B9EAE]
03 97,7 [1031D514] [B92A256D]
04 97,7 [C41FA2ED] [47BC32F9]
05 97,7 [0EBDB875] [106E6909]
06 97,7 [B874EA14] [87A9D41B]
07 97,7 [04C74487] [491365DF]
08 97,7 [A72967E0] [EE007153]
09 97,7 [9C0C8068] [8C084DC7]
10 97,7 [21A233FC] [3341F428]
11 97,7 [5DE0B828] [7A95AFB3]
12 97,7 [4A11A890] [F730E2FA]
13 97,7 [B25A054A] [67EF1535]
14 97,7 [9B19D27D] [67774EB5]
15 97,7 [AE98D149] [121A0E31]
16 97,7 [8632203A] [4EBC45B0]
17 97,7 [D8E3E06E] [BABCFFD1]
18 0,1 [D94061D2] [69946C53]


Marvin Gaye - The Master 1961-1984 (1995) [4CD Box set]

Tracklist CD4:

01. Marvin Gaye - Got To Give It Up, Pt. 1 - 04:14
02. Marvin Gaye - Here, My Dear - 02:49
03. Marvin Gaye - When Did You Stop Loving Me, When Did I Stop Loving You - 06:16
04. Marvin Gaye - Anger - 04:02
05. Marvin Gaye - Anna's Song - 05:55
06. Marvin Gaye - A Funky Space Reincarnation - 08:18
07. Marvin Gaye - When Did You Stop Loving Me, When Did I Stop Loving You [Reprise] - 00:45
08. Marvin Gaye - She Needs Me - 03:31
09. Marvin Gaye - Why Did I Choose You - 02:38
10. Marvin Gaye - Life Is For Learning - 03:40
11. Marvin Gaye - Funk Me - 05:36
12. Marvin Gaye - Love Me Now Or Love Me Later - 05:00
13. Marvin Gaye - Ego Tripping Out - 05:13
14. Marvin Gaye - The Star Spangled Banner - 03:14
15. Marvin Gaye & Gladys Knight & The Pips - I Heard It Through The Grapevine - 03:48
16. Marvin Gaye - Rockin' After Midnight - 06:05
17. Marvin Gaye - Sexual Healing - 04:04
18. Marvin Gaye - The Lord's Prayer - 01:55

Converted to Image (CUETools 2.1.4)

X Lossless Decoder version 20130407 (143.0)

XLD extraction logfile from 2014-02-25 09:40:48 -0800

Various Artists / The Master: 1961-1984 [Disc 4]

Used drive : HL-DT-ST DVDRW GA32N (revision KE06)
Media type : Pressed CD

Ripper mode : XLD Secure Ripper
Disable audio cache : OK for the drive with a cache less than 1375KiB
Make use of C2 pointers : NO
Read offset correction : 103
Max retry count : 100
Gap status : Analyzed, Appended (except HTOA)

TOC of the extracted CD
Track | Start | Length | Start sector | End sector
––––––––––––––––––––––––––––-
1 | 00:00:00 | 04:13:50 | 0 | 19024
2 | 04:13:50 | 02:48:45 | 19025 | 31669
3 | 07:02:20 | 06:15:73 | 31670 | 59867
4 | 13:18:18 | 04:01:62 | 59868 | 78004
5 | 17:20:05 | 05:54:45 | 78005 | 104599
6 | 23:14:50 | 08:17:58 | 104600 | 141932
7 | 31:32:33 | 00:44:62 | 141933 | 145294
8 | 32:17:20 | 03:31:20 | 145295 | 161139
9 | 35:48:40 | 02:37:28 | 161140 | 172942
10 | 38:25:68 | 03:40:10 | 172943 | 189452
11 | 42:06:03 | 05:35:35 | 189453 | 214612
12 | 47:41:38 | 05:00:07 | 214613 | 237119
13 | 52:41:45 | 05:12:68 | 237120 | 260587
14 | 57:54:38 | 03:13:47 | 260588 | 275109
15 | 61:08:10 | 03:47:58 | 275110 | 292192
16 | 64:55:68 | 06:04:55 | 292193 | 319547
17 | 71:00:48 | 04:03:72 | 319548 | 337844
18 | 75:04:45 | 01:55:18 | 337845 | 346487

AccurateRip Summary (DiscID: 0033b02d-02aedd86-08120b12)
Track 01 : OK (v1+v2, confidence 34/34)
Track 02 : OK (v1+v2, confidence 34/34)
Track 03 : OK (v1+v2, confidence 33/33)
Track 04 : OK (v1+v2, confidence 34/34)
Track 05 : OK (v1+v2, confidence 33/33)
Track 06 : OK (v1+v2, confidence 34/34)
Track 07 : OK (v1+v2, confidence 34/36)
Track 08 : OK (v1+v2, confidence 34/34)
Track 09 : OK (v1+v2, confidence 34/34)
Track 10 : OK (v1+v2, confidence 33/33)
Track 11 : OK (v1+v2, confidence 33/33)
Track 12 : OK (v1+v2, confidence 33/33)
Track 13 : OK (v1+v2, confidence 34/34)
Track 14 : OK (v1+v2, confidence 34/34)
Track 15 : OK (v1+v2, confidence 34/34)
Track 16 : OK (v1+v2, confidence 31/31)
Track 17 : OK (v1+v2, confidence 29/29)
Track 18 : OK (v1+v2, confidence 28/28)
->All tracks accurately ripped.

All Tracks
Album gain : -5.10 dB
Peak : 0.985352
Statistics
Read error : 0
Jitter error (maybe fixed) : 0
Retry sector count : 2
Damaged sector count : 0

Track 01
Filename : /Volumes/OWC Mercury Elite Pro - #2/Needs something/ Music/Marvin Gaye - The Master 1961-1984 (1995) [FLAC] {Motown Master Series 4cd set}/CD4/01 - Got To Give It Up, Pt. 1.flac
Pre-gap length : 00:02:00

Track gain : -5.03 dB
Peak : 0.977203
CRC32 hash (test run) : C6985968
CRC32 hash : C6985968
CRC32 hash (skip zero) : 3976E01A
AccurateRip v1 signature : A2A85479
AccurateRip v2 signature : 1F60E492
->Accurately ripped (v1+v2, confidence 24+10/34)
Statistics
Read error : 0
Jitter error (maybe fixed) : 0
Retry sector count : 0
Damaged sector count : 0

Track 02
Filename : /Volumes/OWC Mercury Elite Pro - #2/Needs something/ Music/Marvin Gaye - The Master 1961-1984 (1995) [FLAC] {Motown Master Series 4cd set}/CD4/02 - Here, My Dear.flac

Track gain : -3.80 dB
Peak : 0.977234
CRC32 hash (test run) : 680006B8
CRC32 hash : 680006B8
CRC32 hash (skip zero) : F115258F
AccurateRip v1 signature : 6EE4123A
AccurateRip v2 signature : 5B871613
->Accurately ripped (v1+v2, confidence 24+10/34)
Statistics
Read error : 0
Jitter error (maybe fixed) : 0
Retry sector count : 0
Damaged sector count : 0

Track 03
Filename : /Volumes/OWC Mercury Elite Pro - #2/Needs something/ Music/Marvin Gaye - The Master 1961-1984 (1995) [FLAC] {Motown Master Series 4cd set}/CD4/03 - When Did You Stop Loving Me, When Did I Stop Loving You.flac
Pre-gap length : 00:00:10

Track gain : -4.97 dB
Peak : 0.870972
CRC32 hash (test run) : D8752843
CRC32 hash : D8752843
CRC32 hash (skip zero) : 8383B5D0
AccurateRip v1 signature : 2FA97F30
AccurateRip v2 signature : E671C694
->Accurately ripped (v1+v2, confidence 23+10/33)
Statistics
Read error : 0
Jitter error (maybe fixed) : 0
Retry sector count : 0
Damaged sector count : 0

Track 04
Filename : /Volumes/OWC Mercury Elite Pro - #2/Needs something/ Music/Marvin Gaye - The Master 1961-1984 (1995) [FLAC] {Motown Master Series 4cd set}/CD4/04 - Anger.flac
Pre-gap length : 00:00:13

Track gain : -4.67 dB
Peak : 0.776245
CRC32 hash (test run) : D8BC5FA6
CRC32 hash : D8BC5FA6
CRC32 hash (skip zero) : 1AF26C9B
AccurateRip v1 signature : 2EAAAF04
AccurateRip v2 signature : F886A232
->Accurately ripped (v1+v2, confidence 24+10/34)
Statistics
Read error : 0
Jitter error (maybe fixed) : 0
Retry sector count : 0
Damaged sector count : 0

Track 05
Filename : /Volumes/OWC Mercury Elite Pro - #2/Needs something/ Music/Marvin Gaye - The Master 1961-1984 (1995) [FLAC] {Motown Master Series 4cd set}/CD4/05 - Anna's Song.flac

Track gain : -5.48 dB
Peak : 0.977234
CRC32 hash (test run) : B24FFC1F
CRC32 hash : B24FFC1F
CRC32 hash (skip zero) : EA67504D
AccurateRip v1 signature : 0A53AA4F
AccurateRip v2 signature : 63AAF0A0
->Accurately ripped (v1+v2, confidence 24+9/33)
Statistics
Read error : 0
Jitter error (maybe fixed) : 0
Retry sector count : 0
Damaged sector count : 0

Track 06
Filename : /Volumes/OWC Mercury Elite Pro - #2/Needs something/ Music/Marvin Gaye - The Master 1961-1984 (1995) [FLAC] {Motown Master Series 4cd set}/CD4/06 - A Funky Space Reincarnation.flac
Pre-gap length : 00:01:00

Track gain : -4.18 dB
Peak : 0.977234
CRC32 hash (test run) : 60839EB9
CRC32 hash : 60839EB9
CRC32 hash (skip zero) : C54E2B7C
AccurateRip v1 signature : A995A3D6
AccurateRip v2 signature : CA5A0CA6
->Accurately ripped (v1+v2, confidence 24+10/34)
Statistics
Read error : 0
Jitter error (maybe fixed) : 0
Retry sector count : 0
Damaged sector count : 0

Track 07
Filename : /Volumes/OWC Mercury Elite Pro - #2/Needs something/ Music/Marvin Gaye - The Master 1961-1984 (1995) [FLAC] {Motown Master Series 4cd set}/CD4/07 - When Did You Stop Loving Me, When Did I Stop Loving You [Reprise].flac

Track gain : -5.07 dB
Peak : 0.977234
CRC32 hash (test run) : 4B98AD72
CRC32 hash : 4B98AD72
CRC32 hash (skip zero) : 8DF878D2
AccurateRip v1 signature : 25308B3A
AccurateRip v2 signature : 55B9C2EA
->Accurately ripped (v1+v2, confidence 24+10/36)
Statistics
Read error : 0
Jitter error (maybe fixed) : 0
Retry sector count : 0
Damaged sector count : 0

Track 08
Filename : /Volumes/OWC Mercury Elite Pro - #2/Needs something/ Music/Marvin Gaye - The Master 1961-1984 (1995) [FLAC] {Motown Master Series 4cd set}/CD4/08 - She Needs Me.flac
Pre-gap length : 00:00:12

Track gain : -5.67 dB
Peak : 0.977203
CRC32 hash (test run) : 620AA01C
CRC32 hash : 620AA01C
CRC32 hash (skip zero) : AD811209
AccurateRip v1 signature : 99B014B7
AccurateRip v2 signature : ECFEDC66
->Accurately ripped (v1+v2, confidence 24+10/34)
Statistics
Read error : 0
Jitter error (maybe fixed) : 0
Retry sector count : 0
Damaged sector count : 0

Track 09
Filename : /Volumes/OWC Mercury Elite Pro - #2/Needs something/ Music/Marvin Gaye - The Master 1961-1984 (1995) [FLAC] {Motown Master Series 4cd set}/CD4/09 - Why Did I Choose You.flac
Pre-gap length : 00:00:72

Track gain : -5.42 dB
Peak : 0.977234
CRC32 hash (test run) : DF941379
CRC32 hash : DF941379
CRC32 hash (skip zero) : A5CF4D43
AccurateRip v1 signature : 70E33B24
AccurateRip v2 signature : 2F638AB6
->Accurately ripped (v1+v2, confidence 24+10/34)
Statistics
Read error : 0
Jitter error (maybe fixed) : 0
Retry sector count : 0
Damaged sector count : 0

Track 10
Filename : /Volumes/OWC Mercury Elite Pro - #2/Needs something/ Music/Marvin Gaye - The Master 1961-1984 (1995) [FLAC] {Motown Master Series 4cd set}/CD4/10 - Life Is For Learning.flac
Pre-gap length : 00:01:28

Track gain : -4.03 dB
Peak : 0.977234
CRC32 hash (test run) : 581A9257
CRC32 hash : 581A9257
CRC32 hash (skip zero) : E0F42E88
AccurateRip v1 signature : 0A5A8E68
AccurateRip v2 signature : 18B86B3E
->Accurately ripped (v1+v2, confidence 24+9/33)
Statistics
Read error : 0
Jitter error (maybe fixed) : 0
Retry sector count : 0
Damaged sector count : 0

Track 11
Filename : /Volumes/OWC Mercury Elite Pro - #2/Needs something/ Music/Marvin Gaye - The Master 1961-1984 (1995) [FLAC] {Motown Master Series 4cd set}/CD4/11 - Funk Me.flac
Pre-gap length : 00:00:30

Track gain : -4.10 dB
Peak : 0.977234
CRC32 hash (test run) : 4D9CD0FE
CRC32 hash : 4D9CD0FE
CRC32 hash (skip zero) : 2763904D
AccurateRip v1 signature : 7041BA29
AccurateRip v2 signature : DB85078E
->Accurately ripped (v1+v2, confidence 23+10/33)
Statistics
Read error : 0
Jitter error (maybe fixed) : 0
Retry sector count : 0
Damaged sector count : 0

Track 12
Filename : /Volumes/OWC Mercury Elite Pro - #2/Needs something/ Music/Marvin Gaye - The Master 1961-1984 (1995) [FLAC] {Motown Master Series 4cd set}/CD4/12 - Love Me Now Or Love Me Later.flac
Pre-gap length : 00:00:30

Track gain : -4.72 dB
Peak : 0.977234
CRC32 hash (test run) : CCE627CD
CRC32 hash : CCE627CD
CRC32 hash (skip zero) : 42E20AAC
AccurateRip v1 signature : A4192A64
AccurateRip v2 signature : 799B8334
->Accurately ripped (v1+v2, confidence 23+10/33)
Statistics
Read error : 0
Jitter error (maybe fixed) : 0
Retry sector count : 0
Damaged sector count : 0

Track 13
Filename : /Volumes/OWC Mercury Elite Pro - #2/Needs something/ Music/Marvin Gaye - The Master 1961-1984 (1995) [FLAC] {Motown Master Series 4cd set}/CD4/13 - Ego Tripping Out.flac
Pre-gap length : 00:00:12

Track gain : -5.13 dB
Peak : 0.977234
CRC32 hash (test run) : 055BAE46
CRC32 hash : 055BAE46
CRC32 hash (skip zero) : 25082C43
AccurateRip v1 signature : 7913EE9C
AccurateRip v2 signature : 3AC7B330
->Accurately ripped (v1+v2, confidence 24+10/34)
Statistics
Read error : 0
Jitter error (maybe fixed) : 0
Retry sector count : 0
Damaged sector count : 0

Track 14
Filename : /Volumes/OWC Mercury Elite Pro - #2/Needs something/ Music/Marvin Gaye - The Master 1961-1984 (1995) [FLAC] {Motown Master Series 4cd set}/CD4/14 - The Star Spangled Banner.flac
Pre-gap length : 00:01:53

Track gain : -5.85 dB
Peak : 0.864044
CRC32 hash (test run) : 24580C5A
CRC32 hash : 24580C5A
CRC32 hash (skip zero) : ACF8594A
AccurateRip v1 signature : 21524DF0
AccurateRip v2 signature : 49647C51
->Accurately ripped (v1+v2, confidence 24+10/34)
Statistics
Read error : 0
Jitter error (maybe fixed) : 0
Retry sector count : 0
Damaged sector count : 0

Track 15
Filename : /Volumes/OWC Mercury Elite Pro - #2/Needs something/ Music/Marvin Gaye - The Master 1961-1984 (1995) [FLAC] {Motown Master Series 4cd set}/CD4/15 - I Heard It Through The Grapevine.flac
Pre-gap length : 00:00:25

Track gain : -7.96 dB
Peak : 0.977234
CRC32 hash (test run) : 6968E706
CRC32 hash : 6968E706
CRC32 hash (skip zero) : B4D84807
AccurateRip v1 signature : 581676A2
AccurateRip v2 signature : CFF54350
->Accurately ripped (v1+v2, confidence 24+10/34)
Statistics
Read error : 0
Jitter error (maybe fixed) : 0
Retry sector count : 0
Damaged sector count : 0

Track 16
Filename : /Volumes/OWC Mercury Elite Pro - #2/Needs something/ Music/Marvin Gaye - The Master 1961-1984 (1995) [FLAC] {Motown Master Series 4cd set}/CD4/16 - Rockin' After Midnight.flac
Pre-gap length : 00:00:15

Track gain : -4.48 dB
Peak : 0.985352
CRC32 hash (test run) : 305207FC
CRC32 hash : 305207FC
CRC32 hash (skip zero) : 50EB0442
AccurateRip v1 signature : E149C886
AccurateRip v2 signature : 3231B8DE
->Accurately ripped (v1+v2, confidence 22+9/31)
Statistics
Read error : 0
Jitter error (maybe fixed) : 0
Retry sector count : 2
Damaged sector count : 0

Track 17
Filename : /Volumes/OWC Mercury Elite Pro - #2/Needs something/ Music/Marvin Gaye - The Master 1961-1984 (1995) [FLAC] {Motown Master Series 4cd set}/CD4/17 - Sexual Healing.flac
Pre-gap length : 00:00:50

Track gain : -4.09 dB
Peak : 0.977234
CRC32 hash (test run) : AAF7E737
CRC32 hash : AAF7E737
CRC32 hash (skip zero) : AF9713DF
AccurateRip v1 signature : A1E20DD4
AccurateRip v2 signature : E745289D
->Accurately ripped (v1+v2, confidence 20+9/29)
Statistics
Read error : 0
Jitter error (maybe fixed) : 0
Retry sector count : 0
Damaged sector count : 0

Track 18
Filename : /Volumes/OWC Mercury Elite Pro - #2/Needs something/ Music/Marvin Gaye - The Master 1961-1984 (1995) [FLAC] {Motown Master Series 4cd set}/CD4/18 - The Lord's Prayer.flac
Pre-gap length : 00:04:72

Track gain : -5.65 dB
Peak : 0.977234
CRC32 hash (test run) : C43F0BED
CRC32 hash : C43F0BED
CRC32 hash (skip zero) : 6963A431
AccurateRip v1 signature : 673CE312
AccurateRip v2 signature : 673B061B
->Accurately ripped (v1+v2, confidence 21+7/28)
Statistics
Read error : 0
Jitter error (maybe fixed) : 0
Retry sector count : 0
Damaged sector count : 0

No errors occurred

End of status report

––-BEGIN XLD SIGNATURE––-
_hCw4FqbNGxp5_TkBgEqSuxGgHzfF4tIlMc6My._iu7CMP6M.h8Z0UJseuh2KwRss_yvMVv9HN_deOX7kuki6ID2uPOVN_rNkEYrT48
––-END XLD SIGNATURE––-


[CUETools log; Date: 27.01.2018 15:34:50; Version: 2.1.5]
[AccurateRip ID: 0033b02d-02aedd86-08120b12] found.
Track [ CRC | V2 ] Status
01 [a2a85479|1f60e492] (24+19/43) Accurately ripped
02 [6ee4123a|5b871613] (24+19/43) Accurately ripped
03 [2fa97f30|e671c694] (23+19/42) Accurately ripped
04 [2eaaaf04|f886a232] (24+19/43) Accurately ripped
05 [0a53aa4f|63aaf0a0] (24+18/42) Accurately ripped
06 [a995a3d6|ca5a0ca6] (24+19/43) Accurately ripped
07 [25308b3a|55b9c2ea] (24+19/45) Accurately ripped
08 [99b014b7|ecfedc66] (24+19/43) Accurately ripped
09 [70e33b24|2f638ab6] (24+19/43) Accurately ripped
10 [0a5a8e68|18b86b3e] (24+18/42) Accurately ripped
11 [7041ba29|db85078e] (23+19/42) Accurately ripped
12 [a4192a64|799b8334] (23+19/42) Accurately ripped
13 [7913ee9c|3ac7b330] (24+18/42) Accurately ripped
14 [21524df0|49647c51] (24+18/42) Accurately ripped
15 [581676a2|cff54350] (24+18/42) Accurately ripped
16 [e149c886|3231b8de] (22+17/39) Accurately ripped
17 [a1e20dd4|e745289d] (20+17/37) Accurately ripped
18 [673ce312|673b061b] (21+13/34) Accurately ripped

Track Peak [ CRC32 ] [W/O NULL]
– 98,5 [D3513AF1] [D8FE8A1B]
01 97,7 [C6985968] [3976E01A]
02 97,7 [680006B8] [F115258F]
03 87,0 [D8752843] [8383B5D0]
04 77,6 [D8BC5FA6] [1AF26C9B]
05 97,7 [B24FFC1F] [EA67504D]
06 97,7 [60839EB9] [C54E2B7C]
07 97,7 [4B98AD72] [8DF878D2]
08 97,7 [620AA01C] [AD811209]
09 97,7 [DF941379] [A5CF4D43]
10 97,7 [581A9257] [E0F42E88]
11 97,7 [4D9CD0FE] [2763904D]
12 97,7 [CCE627CD] [42E20AAC]
13 97,7 [055BAE46] [25082C43]
14 86,4 [24580C5A] [ACF8594A]
15 97,7 [6968E706] [B4D84807]
16 98,5 [305207FC] [50EB0442]
17 97,7 [AAF7E737] [AF9713DF]
18 97,7 [C43F0BED] [6963A431]


Marvin Gaye - The Master 1961-1984 (1995) [4CD Box set]

All thanks go to the original releaser

Marvin Gaye in my Blog

Download Marvin Gaye - The Master 1961-1984 (1995):