Subcategories

Mary Bevan, Ben Johnson, Ashley Riches & David Owen Norris - Sir Arthur Sullivan: Songs (2017)

Posted By: tirexiss
Mary Bevan, Ben Johnson, Ashley Riches & David Owen Norris - Sir Arthur Sullivan: Songs (2017)

Mary Bevan, Ben Johnson, Ashley Riches & David Owen Norris - Sir Arthur Sullivan: Songs (2017)
EAC | FLAC (image+.cue, log) | Covers Included | 02:26:37 | 541 MB
Genre: Classical, Vocal | Label: Chandos | Catalog: CHAN 10935

Arthur Sullivan always wanted to be known more as a serious composer than one of comic opera, and his Symphony in E minor ("Irish") and his grand opera Ivanhoe, immensely popular in its own time, have been revived in recent decades. The same cannot be said of his songs, which are all but unknown except for The Lost Chord. That chestnut is not even included on this expansive two-disc survey, a highly worthwhile look into Sullivan the song composer. The songs do fall into categories, ordered on the program and described in the informative booklet as Shakespearean Settings, Famous Poets, Songs to Words by Lionel Lewin (a friend of Sullivan in his early adulthood), The Beginning, The "Liederkreis" of Sullivan and Tennyson, Songs from the Stage, Foreign Tongues, and In Conclusion (for the moment – apparently further releases are on the way, suggesting just how neglected this aspect of Sullivan's output has been). Certainly they're a mixed bag, but many are attractive, with Mendelssohn and Schubert (as with the "Irish" symphony) the main models. Lovers of the Gilbert & Sullivan comic operas will find some echoes of those here, and not all pertaining to the sentimental numbers of the dull, romantic leads. The triplet beat of the famous G&S patter songs is turned to new purposes in several places, and one number, Birds in the Night, even has a tune from Sullivan's pre-Gilbert operetta Cox and Box, furnished with new words by Lewin. G&S fans might also sample Arabian Love Song, to a text by Shelley, which renders Verdi in a few deft strokes, in just the way the comic operas do with various composers. The foreign-language pieces on the second disc, mostly written for plays, are workmanlike, and represent a genre not much heard from any composer, although it was common enough in the 19th century. The songs range from O Israel of 1855, Sullivan's first published composition, to the lovely O swallow, swallow, another song in which one can hear echoes of the elegant madrigals of the comic opera; it dates from the last year of Sullivan's life. The trio of singers, soprano Mary Bevan, tenor Ben Johnson, and bass-baritone Ashley Riches, all have an instinct for the dimensions of these songs. Highly recommended for Gilbert & Sullivan fans or for any lover of the Romantic art song.

Mary Bevan, Ben Johnson, Ashley Riches & David Owen Norris - Sir Arthur Sullivan: Songs (2017)

Track List:

CD 1:
01 - 05. Five Shakespeare Songs
06. Love laid his sleepless head
07. Nel ciel seren
08. Where the bee sucks
09. I wish to tune my quivering lyre
10. Sweet Day
11. Arabian Love Song
Cox and Box
12. Birds in the Night
13. A life that lives for you
14. Once again
15. Golden Days
16. Guinevere!
17. None but I can say
18. O Israel
19. St Agnes' Eve
20. Edward Gray
21. What does little birdie say?
22. O swallow, swallow
23. Tears, idle tears

Exact Audio Copy V1.1 from 23. June 2015

EAC extraction logfile from 9. May 2017, 23:37

Mary Bevan, Ashley Riches, Ben Johnson, David Owen Norris / Sullivan - Songs - CD1

Used drive : PLDS DVD-RW DU8A6SH Adapter: 1 ID: 0

Read mode : Secure
Utilize accurate stream : Yes
Defeat audio cache : Yes
Make use of C2 pointers : No

Read offset correction : 6
Overread into Lead-In and Lead-Out : No
Fill up missing offset samples with silence : Yes
Delete leading and trailing silent blocks : No
Null samples used in CRC calculations : Yes
Used interface : Native Win32 interface for Win NT & 2000

Used output format : User Defined Encoder
Selected bitrate : 128 kBit/s
Quality : High
Add ID3 tag : No
Command line compressor : C:\Program Files (x86)\Exact Audio Copy\Flac\flac.exe
Additional command line options : -V -8 -T "Date=%year%" -T "Genre=%genre%" %source%


TOC of the extracted CD

Track | Start | Length | Start sector | End sector
––––––––––––––––––––––––––––-
1 | 0:00.00 | 2:39.63 | 0 | 11987
2 | 2:39.63 | 3:37.50 | 11988 | 28312
3 | 6:17.38 | 2:06.00 | 28313 | 37762
4 | 8:23.38 | 2:55.10 | 37763 | 50897
5 | 11:18.48 | 2:27.00 | 50898 | 61922
6 | 13:45.48 | 3:01.65 | 61923 | 75562
7 | 16:47.38 | 3:59.00 | 75563 | 93487
8 | 20:46.38 | 1:52.45 | 93488 | 101932
9 | 22:39.08 | 6:41.55 | 101933 | 132062
10 | 29:20.63 | 3:29.20 | 132063 | 147757
11 | 32:50.08 | 2:38.65 | 147758 | 159672
12 | 35:28.73 | 4:02.65 | 159673 | 177887
13 | 39:31.63 | 3:30.00 | 177888 | 193637
14 | 43:01.63 | 3:46.20 | 193638 | 210607
15 | 46:48.08 | 2:20.40 | 210608 | 221147
16 | 49:08.48 | 6:21.15 | 221148 | 249737
17 | 55:29.63 | 2:55.00 | 249738 | 262862
18 | 58:24.63 | 3:25.60 | 262863 | 278297
19 | 61:50.48 | 4:47.25 | 278298 | 299847
20 | 66:37.73 | 4:32.55 | 299848 | 320302
21 | 71:10.53 | 2:45.70 | 320303 | 332747
22 | 73:56.48 | 2:46.35 | 332748 | 345232
23 | 76:43.08 | 4:09.67 | 345233 | 363974


Range status and errors

Selected range

Filename C:\temp\CHAN_10935(3) - Sullivan - Songs\CD1\Sullivan - Songs - CD1.wav

Peak level 92.7 %
Extraction speed 4.2 X
Range quality 100.0 %
Test CRC 87F7E5B5
Copy CRC 87F7E5B5
Copy OK

No errors occurred


AccurateRip summary

Track 1 accurately ripped (confidence 1) [AEFBB9D4] (AR v2)
Track 2 accurately ripped (confidence 1) [01D46A8A] (AR v2)
Track 3 accurately ripped (confidence 1) [67085B7E] (AR v2)
Track 4 accurately ripped (confidence 1) [3272A028] (AR v2)
Track 5 accurately ripped (confidence 1) [F347FB6A] (AR v2)
Track 6 accurately ripped (confidence 1) [2DCDA4AC] (AR v2)
Track 7 accurately ripped (confidence 1) [D22B9B02] (AR v2)
Track 8 accurately ripped (confidence 1) [763575F9] (AR v2)
Track 9 accurately ripped (confidence 1) [49645570] (AR v2)
Track 10 accurately ripped (confidence 1) [78CC888E] (AR v2)
Track 11 accurately ripped (confidence 1) [843CEBC7] (AR v2)
Track 12 accurately ripped (confidence 1) [054D60CD] (AR v2)
Track 13 accurately ripped (confidence 1) [B65EF4E6] (AR v2)
Track 14 accurately ripped (confidence 1) [E483C938] (AR v2)
Track 15 accurately ripped (confidence 1) [C3D343B5] (AR v2)
Track 16 accurately ripped (confidence 1) [C16346B7] (AR v2)
Track 17 accurately ripped (confidence 1) [F467750E] (AR v2)
Track 18 accurately ripped (confidence 1) [F9C05166] (AR v2)
Track 19 accurately ripped (confidence 1) [D1986B9B] (AR v2)
Track 20 accurately ripped (confidence 1) [B1903B75] (AR v2)
Track 21 accurately ripped (confidence 1) [AF9C519C] (AR v2)
Track 22 accurately ripped (confidence 1) [616A97C2] (AR v2)
Track 23 accurately ripped (confidence 1) [91565290] (AR v2)

All tracks accurately ripped

End of status report

==== Log checksum 98FB10EECB2201C3DC8C41165078DAAD532373D7440466196BC8F067D8BA9E8E ====

[CUETools log; Date: 18.02.2018 22:09:41; Version: 2.1.5]
[CTDB TOCID: GrAb5mUZEGJj.BELZnCl0nxcGpQ-] found.
Track | CTDB Status
1 | (1/1) Accurately ripped
2 | (1/1) Accurately ripped
3 | (1/1) Accurately ripped
4 | (1/1) Accurately ripped
5 | (1/1) Accurately ripped
6 | (1/1) Accurately ripped
7 | (1/1) Accurately ripped
8 | (1/1) Accurately ripped
9 | (1/1) Accurately ripped
10 | (1/1) Accurately ripped
11 | (1/1) Accurately ripped
12 | (1/1) Accurately ripped
13 | (1/1) Accurately ripped
14 | (1/1) Accurately ripped
15 | (1/1) Accurately ripped
16 | (1/1) Accurately ripped
17 | (1/1) Accurately ripped
18 | (1/1) Accurately ripped
19 | (1/1) Accurately ripped
20 | (1/1) Accurately ripped
21 | (1/1) Accurately ripped
22 | (1/1) Accurately ripped
23 | (1/1) Accurately ripped
[AccurateRip ID: 003f70d3-0435fee6-4412f517] found.
Track [ CRC | V2 ] Status
01 [1192425e|aefbb9d4] (0+0/2) No match
02 [9cdd2de1|01d46a8a] (0+0/2) No match
03 [2e4f6f53|67085b7e] (0+0/2) No match
04 [26263dd7|3272a028] (0+0/2) No match
05 [c90fc3e1|f347fb6a] (0+0/2) No match
06 [fdf96627|2dcda4ac] (0+0/2) No match
07 [87f44bda|d22b9b02] (0+0/2) No match
08 [3a01e36a|763575f9] (0+0/2) No match
09 [2a9f5431|49645570] (0+0/2) No match
10 [a6bf2781|78cc888e] (0+0/2) No match
11 [9cd69653|843cebc7] (0+0/2) No match
12 [120a96c5|054d60cd] (0+0/2) No match
13 [031d320a|b65ef4e6] (0+0/2) No match
14 [b5f0f089|e483c938] (0+0/2) No match
15 [902d9e19|c3d343b5] (0+0/2) No match
16 [b4fc9fae|c16346b7] (0+0/2) No match
17 [65435251|f467750e] (0+0/2) No match
18 [a193a7db|f9c05166] (0+0/2) No match
19 [4ff571c8|d1986b9b] (0+0/2) No match
20 [b772258f|b1903b75] (0+0/2) No match
21 [86ab54a4|af9c519c] (0+0/2) No match
22 [44ddb896|616a97c2] (0+0/2) No match
23 [6680b4a7|91565290] (0+0/2) No match
Offsetted by 18:
01 [6394e2c4] (0/2) No match (V2 was not tested)
02 [1827fe2d] (0/2) No match
03 [5a843e96] (0/2) No match
04 [9a283c64] (0/2) No match
05 [c9fa38c2] (0/2) No match
06 [98b174fc] (0/2) No match
07 [f34b4b15] (0/2) No match
08 [bd867051] (0/2) No match
09 [da4ddbc6] (0/2) No match
10 [cadbf670] (0/2) No match
11 [930ea416] (0/2) No match
12 [a8a473f8] (0/2) No match
13 [fae30b22] (0/2) No match
14 [b023adca] (0/2) No match
15 [4c05438c] (0/2) No match
16 [2f13986e] (0/2) No match
17 [219de4dc] (0/2) No match
18 [88e4f14c] (0/2) No match
19 [f98301c4] (0/2) No match
20 [f12a1874] (0/2) No match
21 [c33537e0] (0/2) No match
22 [a305e5f7] (0/2) No match
23 [f301e23b] (0/2) No match
Offsetted by 29:
01 [90e1030e] (0/2) No match
02 [7fdec28a] (0/2) No match (V2 was not tested)
03 [1285895a] (0/2) No match
04 [de488fb2] (0/2) No match
05 [225de5a1] (0/2) No match
06 [1f49110b] (0/2) No match
07 [ee50e084] (0/2) No match
08 [4631673d] (0/2) No match
09 [16eeefb8] (0/2) No match
10 [e75f3fc9] (0/2) No match
11 [05c867ae] (0/2) No match
12 [99f953a4] (0/2) No match
13 [b659e5e2] (0/2) No match
14 [38649eb8] (0/2) No match
15 [e1c05fa8] (0/2) No match
16 [bf11c24d] (0/2) No match
17 [f9292392] (0/2) No match
18 [e41b35bb] (0/2) No match
19 [0f4cb96f] (0/2) No match
20 [3697b68d] (0/2) No match
21 [3ee10a47] (0/2) No match
22 [f2b38d8f] (0/2) No match
23 [dcf54bb4] (0/2) No match
Offsetted by 40:
01 [ad4e7c55] (0/2) No match
02 [c4716bcc] (0/2) No match
03 [5b5b19c4] (0/2) No match (V2 was not tested)
04 [1d5893bb] (0/2) No match
05 [5eb9445c] (0/2) No match
06 [0521d397] (0/2) No match
07 [bd585444] (0/2) No match
08 [0484b698] (0/2) No match
09 [a311f90a] (0/2) No match
10 [863fdd74] (0/2) No match
11 [aece83a1] (0/2) No match
12 [5de0f850] (0/2) No match
13 [8988bbd8] (0/2) No match
14 [c780c3a0] (0/2) No match
15 [a2906f9c] (0/2) No match
16 [4e180842] (0/2) No match
17 [7cc136ec] (0/2) No match
18 [62f88786] (0/2) No match
19 [0eefb605] (0/2) No match
20 [c87ff730] (0/2) No match
21 [49e0ee36] (0/2) No match
22 [312e2d98] (0/2) No match
23 [2814c62b] (0/2) No match
Offsetted by 51:
01 [441ad74d] (0/2) No match
02 [5e184622] (0/2) No match
03 [66a525bd] (0/2) No match
04 [4774e254] (0/2) No match (V2 was not tested)
05 [26553b99] (0/2) No match
06 [4bbb7f6f] (0/2) No match
07 [28f6a61e] (0/2) No match
08 [d1217083] (0/2) No match
09 [c8135275] (0/2) No match
10 [d5455b86] (0/2) No match
11 [08a1fea6] (0/2) No match
12 [ae0baa9f] (0/2) No match
13 [6ff26ebb] (0/2) No match
14 [19a2f2c2] (0/2) No match
15 [d9def411] (0/2) No match
16 [ef172f75] (0/2) No match
17 [a3c12867] (0/2) No match
18 [96139491] (0/2) No match
19 [72887847] (0/2) No match
20 [69047bbf] (0/2) No match
21 [fe1e8690] (0/2) No match
22 [fdfaaa72] (0/2) No match
23 [292d6e22] (0/2) No match
Offsetted by 62:
01 [8923c760] (0/2) No match
02 [b783ca5a] (0/2) No match
03 [eb9cb9ae] (0/2) No match
04 [991c3b52] (0/2) No match
05 [932c8ce9] (0/2) No match (V2 was not tested)
06 [917751d9] (0/2) No match
07 [b120668f] (0/2) No match
08 [e3f05a17] (0/2) No match
09 [37da4c33] (0/2) No match
10 [e73b5d66] (0/2) No match
11 [b0238e67] (0/2) No match
12 [880045d1] (0/2) No match
13 [4ba58d4b] (0/2) No match
14 [35c1d300] (0/2) No match
15 [7aeadc9d] (0/2) No match
16 [3fa9e70a] (0/2) No match
17 [eca75501] (0/2) No match
18 [e8d323a8] (0/2) No match
19 [0f318cdc] (0/2) No match
20 [8b27a0dc] (0/2) No match
21 [37c47575] (0/2) No match
22 [c9952c6f] (0/2) No match
23 [3571437e] (0/2) No match
Offsetted by 73:
01 [63bb9fc8] (0/2) No match
02 [aeafe971] (0/2) No match
03 [a33111ac] (0/2) No match
04 [d5b08fe3] (0/2) No match
05 [cdf64db0] (0/2) No match
06 [2833232c] (0/2) No match (V2 was not tested)
07 [210fe3c8] (0/2) No match
08 [50bb9beb] (0/2) No match
09 [43593e33] (0/2) No match
10 [571dfab6] (0/2) No match
11 [4e1e097f] (0/2) No match
12 [3e5eeca7] (0/2) No match
13 [30f6528d] (0/2) No match
14 [52763300] (0/2) No match
15 [86d42a0a] (0/2) No match
16 [78ef77a1] (0/2) No match
17 [4abca66b] (0/2) No match
18 [f24d1e98] (0/2) No match
19 [c6f3da0e] (0/2) No match
20 [19871796] (0/2) No match
21 [ac7cb4d4] (0/2) No match
22 [4a316bc7] (0/2) No match
23 [6764f083] (0/2) No match
Offsetted by 84:
01 [87bd7e9f] (0/2) No match
02 [cc9bdf12] (0/2) No match
03 [7881f7c7] (0/2) No match
04 [6fd105ad] (0/2) No match
05 [bea2159d] (0/2) No match
06 [33a28668] (0/2) No match
07 [c8249903] (0/2) No match (V2 was not tested)
08 [b60ad3ed] (0/2) No match
09 [03221e10] (0/2) No match
10 [1cfd1cc8] (0/2) No match
11 [74ebb9ab] (0/2) No match
12 [ee30c4bf] (0/2) No match
13 [c3b1d5f0] (0/2) No match
14 [8079f0bc] (0/2) No match
15 [b70fcc0a] (0/2) No match
16 [533f05aa] (0/2) No match
17 [07b5e812] (0/2) No match
18 [fb3a85e6] (0/2) No match
19 [b60e207f] (0/2) No match
20 [9e7b80e2] (0/2) No match
21 [1030d449] (0/2) No match
22 [642683d8] (0/2) No match
23 [f687586c] (0/2) No match
Offsetted by 95:
01 [65b263dc] (0/2) No match
02 [b615c9fd] (0/2) No match
03 [3c10edd8] (0/2) No match
04 [90b7b4f9] (0/2) No match
05 [78b20eeb] (0/2) No match
06 [a7849f62] (0/2) No match
07 [980c6526] (0/2) No match
08 [eb7762ea] (0/2) No match (V2 was not tested)
09 [c763eb5c] (0/2) No match
10 [7f56c4d4] (0/2) No match
11 [7372752f] (0/2) No match
12 [bd5f6098] (0/2) No match
13 [2cb152e8] (0/2) No match
14 [c2f19778] (0/2) No match
15 [0a223ba4] (0/2) No match
16 [8c76146b] (0/2) No match
17 [eb2db408] (0/2) No match
18 [0ba18746] (0/2) No match
19 [45c46cc4] (0/2) No match
20 [a12c63bf] (0/2) No match
21 [6fd4434a] (0/2) No match
22 [22c055fb] (0/2) No match
23 [e5c542b4] (0/2) No match
Offsetted by 106:
01 [3218c066] (0/2) No match
02 [da765faf] (0/2) No match
03 [8dadb8fa] (0/2) No match
04 [e67a1e06] (0/2) No match
05 [a9ced166] (0/2) No match
06 [78228a8f] (0/2) No match
07 [77810535] (0/2) No match
08 [7abebe77] (0/2) No match
09 [79b759d2] (0/2) No match (V2 was not tested)
10 [f8a221f2] (0/2) No match
11 [01fda6a7] (0/2) No match
12 [a502e6b2] (0/2) No match
13 [7bd8febe] (0/2) No match
14 [77b0511f] (0/2) No match
15 [af54adc7] (0/2) No match
16 [4598b195] (0/2) No match
17 [e2cf1def] (0/2) No match
18 [76f739b9] (0/2) No match
19 [606a7ed3] (0/2) No match
20 [fe6ce7b2] (0/2) No match
21 [60bf9171] (0/2) No match
22 [db8f0f93] (0/2) No match
23 [874e03bb] (0/2) No match
Offsetted by 117:
01 [975ac9d2] (0/2) No match
02 [71f9dc8a] (0/2) No match
03 [ab0adfbd] (0/2) No match
04 [35930c09] (0/2) No match
05 [fb5ec603] (0/2) No match
06 [870a1643] (0/2) No match
07 [12870924] (0/2) No match
08 [8cf20f1c] (0/2) No match
09 [7a8eb6ed] (0/2) No match
10 [d61ea97a] (0/2) No match (V2 was not tested)
11 [7594a6cf] (0/2) No match
12 [cec19fb5] (0/2) No match
13 [6a58f773] (0/2) No match
14 [7a4fb05f] (0/2) No match
15 [b1f81b9b] (0/2) No match
16 [94bf9290] (0/2) No match
17 [e57aaac7] (0/2) No match
18 [c846d30d] (0/2) No match
19 [b0c50980] (0/2) No match
20 [e9d486e9] (0/2) No match
21 [f0e4d11e] (0/2) No match
22 [517d8d40] (0/2) No match
23 [3013b7ca] (0/2) No match
Offsetted by 128:
01 [25478ce7] (0/2) No match
02 [2f685f65] (0/2) No match
03 [dbed615b] (0/2) No match
04 [93fd3f78] (0/2) No match
05 [2a84ae4b] (0/2) No match
06 [fc20ec61] (0/2) No match
07 [c088c9b8] (0/2) No match
08 [1f82dc53] (0/2) No match
09 [623d0cd7] (0/2) No match
10 [04774584] (0/2) No match
11 [976a1134] (0/2) No match (V2 was not tested)
12 [f11fd5a7] (0/2) No match
13 [57c672d0] (0/2) No match
14 [b3365acb] (0/2) No match
15 [c6e73981] (0/2) No match
16 [f8dda7b3] (0/2) No match
17 [76d512fe] (0/2) No match
18 [75da9547] (0/2) No match
19 [9117b101] (0/2) No match
20 [daeb38bc] (0/2) No match
21 [149e8b51] (0/2) No match
22 [aa63dd68] (0/2) No match
23 [a7e2979a] (0/2) No match
Offsetted by 139:
01 [ddc573f9] (0/2) No match
02 [640a257e] (0/2) No match
03 [7cc038b6] (0/2) No match
04 [0cec9f81] (0/2) No match
05 [333446fd] (0/2) No match
06 [0ecc1b32] (0/2) No match
07 [7315f91c] (0/2) No match
08 [1ff4adbc] (0/2) No match
09 [38a60241] (0/2) No match
10 [fce0828c] (0/2) No match
11 [9b312602] (0/2) No match
12 [982d897e] (0/2) No match (V2 was not tested)
13 [330471fb] (0/2) No match
14 [a58371b0] (0/2) No match
15 [bdb0f7f8] (0/2) No match
16 [7ca5ad96] (0/2) No match
17 [c785bb90] (0/2) No match
18 [7aaeba8a] (0/2) No match
19 [2d93a685] (0/2) No match
20 [c52c85fa] (0/2) No match
21 [db3c2248] (0/2) No match
22 [f5e8e5fa] (0/2) No match
23 [27c2a2d7] (0/2) No match
Offsetted by 150:
01 [47b4d1ff] (0/2) No match
02 [6652206d] (0/2) No match
03 [e82ce84d] (0/2) No match
04 [06502bf2] (0/2) No match
05 [1bd016e4] (0/2) No match
06 [78a570cf] (0/2) No match
07 [ab12cede] (0/2) No match
08 [15126eca] (0/2) No match
09 [f3384644] (0/2) No match
10 [2a86a77b] (0/2) No match
11 [91d5fcef] (0/2) No match
12 [9c050515] (0/2) No match
13 [8601a219] (0/2) No match (V2 was not tested)
14 [5d33c260] (0/2) No match
15 [6fa893b1] (0/2) No match
16 [ce180940] (0/2) No match
17 [70f5afc5] (0/2) No match
18 [c303959d] (0/2) No match
19 [f53f1c5d] (0/2) No match
20 [96b14565] (0/2) No match
21 [e8845628] (0/2) No match
22 [06ecd04b] (0/2) No match
23 [92fed90d] (0/2) No match
Offsetted by 161:
01 [b4eefa70] (0/2) No match
02 [13f50437] (0/2) No match
03 [f9543a26] (0/2) No match
04 [78f6a1fe] (0/2) No match
05 [9f4c58a4] (0/2) No match
06 [78031176] (0/2) No match
07 [4fd4f2af] (0/2) No match
08 [765a3367] (0/2) No match
09 [ef1f2d6f] (0/2) No match
10 [ae29fb04] (0/2) No match
11 [3f8fc63d] (0/2) No match
12 [db38ff5d] (0/2) No match
13 [81b591a8] (0/2) No match
14 [8ca2c0c7] (0/2) No match (V2 was not tested)
15 [b968d14f] (0/2) No match
16 [d430fb81] (0/2) No match
17 [df8388c9] (0/2) No match
18 [e9026f3d] (0/2) No match
19 [fde49e4f] (0/2) No match
20 [769bed67] (0/2) No match
21 [d1e45fc8] (0/2) No match
22 [1026d220] (0/2) No match
23 [7548c82a] (0/2) No match
Offsetted by 172:
01 [d172cfa8] (0/2) No match
02 [4145c195] (0/2) No match
03 [56f4043c] (0/2) No match
04 [e835dd34] (0/2) No match
05 [6628c96a] (0/2) No match
06 [5cddaa10] (0/2) No match
07 [abe322df] (0/2) No match
08 [934235a7] (0/2) No match
09 [e4f45b0d] (0/2) No match
10 [84c19554] (0/2) No match
11 [28578120] (0/2) No match
12 [11090962] (0/2) No match
13 [65e2b221] (0/2) No match
14 [8061b6a6] (0/2) No match
15 [ccbb6cd9] (0/2) No match (V2 was not tested)
16 [928df89b] (0/2) No match
17 [04f5eb56] (0/2) No match
18 [878d4060] (0/2) No match
19 [bce0df56] (0/2) No match
20 [fe379b67] (0/2) No match
21 [be735153] (0/2) No match
22 [12ef9b6a] (0/2) No match
23 [2682fee8] (0/2) No match
Offsetted by 183:
01 [f067b191] (0/2) No match
02 [0ef0b2d0] (0/2) No match
03 [33c4daa7] (0/2) No match
04 [217f50db] (0/2) No match
05 [0540d6bd] (0/2) No match
06 [61d39146] (0/2) No match
07 [d8965448] (0/2) No match
08 [a4f51157] (0/2) No match
09 [74d6d427] (0/2) No match
10 [caaad499] (0/2) No match
11 [622bc148] (0/2) No match
12 [1889230c] (0/2) No match
13 [994d70f1] (0/2) No match
14 [a440a42e] (0/2) No match
15 [ec9d221e] (0/2) No match
16 [8f6cf1cd] (0/2) No match (V2 was not tested)
17 [f8c87241] (0/2) No match
18 [c9d9940f] (0/2) No match
19 [d59bde4c] (0/2) No match
20 [c4153f22] (0/2) No match
21 [928d8868] (0/2) No match
22 [e9f6479a] (0/2) No match
23 [fa142742] (0/2) No match
Offsetted by 194:
01 [14340aa5] (0/2) No match
02 [78069b28] (0/2) No match
03 [b6bbe48e] (0/2) No match
04 [85c71fc2] (0/2) No match
05 [574e5705] (0/2) No match
06 [5567e827] (0/2) No match
07 [a2227c25] (0/2) No match
08 [9b4052e7] (0/2) No match
09 [4a359881] (0/2) No match
10 [bf5ae803] (0/2) No match
11 [71a465c3] (0/2) No match
12 [f38ab98c] (0/2) No match
13 [e819dedf] (0/2) No match
14 [a468669c] (0/2) No match
15 [c3ba82fc] (0/2) No match
16 [945f5bd9] (0/2) No match
17 [78b578f2] (0/2) No match (V2 was not tested)
18 [9c675b09] (0/2) No match
19 [54a2429e] (0/2) No match
20 [78956e54] (0/2) No match
21 [4c782478] (0/2) No match
22 [b032d68e] (0/2) No match
23 [d41b5d89] (0/2) No match
More than 16 offsets match!

Track Peak [ CRC32 ] [W/O NULL] [ LOG ]
– 92,7 [87F7E5B5] [78351E3F] CRC32
01 42,3 [1915415F] [DF41E5E1]
02 56,1 [F16D400A] [539C82A3]
03 43,7 [5D2CDD2C] [C2D5C92A]
04 45,1 [1B1259B8] [62AAC6B2]
05 42,7 [4EA9EBA3] [F65081C7]
06 68,1 [A2FE4A10] [8AD475DC]
07 39,2 [1504A0E4] [5BAA66C2]
08 91,1 [ECD00800] [A0842827]
09 65,1 [ECC5B742] [3D1A8977]
10 50,7 [BE5C2CF8] [C6EBF044]
11 45,1 [1F50A284] [2E434C14]
12 31,0 [10A11098] [C00A2B26]
13 54,9 [C13D4F92] [AE8DEEEC]
14 55,6 [56DF7237] [7F491FB1]
15 35,6 [398F3B64] [0FB5EDCD]
16 69,5 [3DD3525B] [445CB8EB]
17 35,1 [2BE96831] [6F10BB35]
18 58,2 [A6683A54] [3D791548]
19 92,7 [6C3D925D] [356E3C23]
20 62,5 [857EDBFC] [4EEEF4B1]
21 59,0 [EF60FA57] [FF2D0985]
22 43,8 [ABAD6938] [C26C3982]
23 67,3 [BD8F97D8] [1FDC4510]

CD 2:
01 - 11. The Window; or, the Songs of the Wrens
Song Cycle
12. Bid me at least goodbye
13. E tu nol sai
14. Ich möchte hinaus es jauchzen
15. Lied mit Thränen halbgeschrieben
16. Oh! ma charmante
17. I would I were a King
18. Sad Memories
19. Ever
20. Mary Morison
21. Old Love Letters
22. County Guy
23. Sweethearts

Exact Audio Copy V1.1 from 23. June 2015

EAC extraction logfile from 10. May 2017, 1:29

Mary Bevan, Ashley Riches, Ben Johnson, David Owen Norris / Sullivan - Songs - CD2

Used drive : PLDS DVD-RW DU8A6SH Adapter: 1 ID: 0

Read mode : Secure
Utilize accurate stream : Yes
Defeat audio cache : Yes
Make use of C2 pointers : No

Read offset correction : 6
Overread into Lead-In and Lead-Out : No
Fill up missing offset samples with silence : Yes
Delete leading and trailing silent blocks : No
Null samples used in CRC calculations : Yes
Used interface : Native Win32 interface for Win NT & 2000

Used output format : User Defined Encoder
Selected bitrate : 128 kBit/s
Quality : High
Add ID3 tag : No
Command line compressor : C:\Program Files (x86)\Exact Audio Copy\Flac\flac.exe
Additional command line options : -V -8 -T "Date=%year%" -T "Genre=%genre%" %source%


TOC of the extracted CD

Track | Start | Length | Start sector | End sector
––––––––––––––––––––––––––––-
1 | 0:00.00 | 3:30.63 | 0 | 15812
2 | 3:30.63 | 2:55.00 | 15813 | 28937
3 | 6:25.63 | 2:15.00 | 28938 | 39062
4 | 8:40.63 | 1:51.00 | 39063 | 47387
5 | 10:31.63 | 2:07.00 | 47388 | 56912
6 | 12:38.63 | 2:44.40 | 56913 | 69252
7 | 15:23.28 | 3:00.10 | 69253 | 82762
8 | 18:23.38 | 2:29.35 | 82763 | 93972
9 | 20:52.73 | 1:29.40 | 93973 | 100687
10 | 22:22.38 | 1:31.65 | 100688 | 107577
11 | 23:54.28 | 3:24.10 | 107578 | 122887
12 | 27:18.38 | 2:56.50 | 122888 | 136137
13 | 30:15.13 | 3:41.25 | 136138 | 152737
14 | 33:56.38 | 1:56.00 | 152738 | 161437
15 | 35:52.38 | 1:51.65 | 161438 | 169827
16 | 37:44.28 | 2:49.10 | 169828 | 182512
17 | 40:33.38 | 2:48.25 | 182513 | 195137
18 | 43:21.63 | 4:18.00 | 195138 | 214487
19 | 47:39.63 | 3:02.30 | 214488 | 228167
20 | 50:42.18 | 3:20.45 | 228168 | 243212
21 | 54:02.63 | 4:27.20 | 243213 | 263257
22 | 58:30.08 | 2:48.30 | 263258 | 275887
23 | 61:18.38 | 4:23.37 | 275888 | 295649


Range status and errors

Selected range

Filename C:\temp\CHAN_10935(3) - Sullivan - Songs\CD2\Sullivan - Songs - CD2.wav

Peak level 88.7 %
Extraction speed 3.9 X
Range quality 100.0 %
Test CRC E6B72C1C
Copy CRC E6B72C1C
Copy OK

No errors occurred


AccurateRip summary

Track 1 accurately ripped (confidence 1) [8A3E5B62] (AR v2)
Track 2 accurately ripped (confidence 1) [B357F520] (AR v2)
Track 3 accurately ripped (confidence 1) [190032F5] (AR v2)
Track 4 accurately ripped (confidence 1) [71A6378F] (AR v2)
Track 5 accurately ripped (confidence 1) [E571E2D9] (AR v2)
Track 6 accurately ripped (confidence 1) [1690A3C9] (AR v2)
Track 7 accurately ripped (confidence 1) [24CAB605] (AR v2)
Track 8 accurately ripped (confidence 1) [F0780E76] (AR v2)
Track 9 accurately ripped (confidence 1) [AD2CE463] (AR v2)
Track 10 accurately ripped (confidence 1) [F27E1769] (AR v2)
Track 11 accurately ripped (confidence 1) [3826A9A4] (AR v2)
Track 12 accurately ripped (confidence 1) [68D8F125] (AR v2)
Track 13 accurately ripped (confidence 1) [032430B5] (AR v2)
Track 14 accurately ripped (confidence 1) [0C6479D5] (AR v2)
Track 15 accurately ripped (confidence 1) [D285CFEF] (AR v2)
Track 16 accurately ripped (confidence 1) [013A0182] (AR v2)
Track 17 accurately ripped (confidence 1) [35C21FAA] (AR v2)
Track 18 accurately ripped (confidence 1) [84B5D9B5] (AR v2)
Track 19 accurately ripped (confidence 1) [6F3E2BC1] (AR v2)
Track 20 accurately ripped (confidence 1) [FA4F78E6] (AR v2)
Track 21 accurately ripped (confidence 1) [720DDE0C] (AR v2)
Track 22 accurately ripped (confidence 1) [78B230F7] (AR v2)
Track 23 accurately ripped (confidence 1) [A983F182] (AR v2)

All tracks accurately ripped

End of status report

==== Log checksum F38492445C94B4AACA020A6C04E029C83BE619C0D5AD7DAA2FB5E8EAEA2DEF67 ====

[CUETools log; Date: 18.02.2018 22:10:08; Version: 2.1.5]
[CTDB TOCID: N7Rmmoc1OOXwobLhhnXugwPIr0Y-] found.
Track | CTDB Status
1 | (3/3) Accurately ripped
2 | (3/3) Accurately ripped
3 | (3/3) Accurately ripped
4 | (3/3) Accurately ripped
5 | (3/3) Accurately ripped
6 | (3/3) Accurately ripped
7 | (3/3) Accurately ripped
8 | (3/3) Accurately ripped
9 | (3/3) Accurately ripped
10 | (3/3) Accurately ripped
11 | (3/3) Accurately ripped
12 | (3/3) Accurately ripped
13 | (3/3) Accurately ripped
14 | (3/3) Accurately ripped
15 | (3/3) Accurately ripped
16 | (3/3) Accurately ripped
17 | (3/3) Accurately ripped
18 | (3/3) Accurately ripped
19 | (3/3) Accurately ripped
20 | (3/3) Accurately ripped
21 | (3/3) Accurately ripped
22 | (3/3) Accurately ripped
23 | (3/3) Accurately ripped
[AccurateRip ID: 00321b04-03498be7-1c0f6617] found.
Track [ CRC | V2 ] Status
01 [b2611922|8a3e5b62] (0+1/1) Accurately ripped
02 [98bc8671|b357f520] (0+1/1) Accurately ripped
03 [ed5c2874|190032f5] (0+1/1) Accurately ripped
04 [5988b638|71a6378f] (0+1/1) Accurately ripped
05 [8cc37bec|e571e2d9] (0+1/1) Accurately ripped
06 [d8c76b53|1690a3c9] (0+1/1) Accurately ripped
07 [7fd91de8|24cab605] (0+1/1) Accurately ripped
08 [ac10eccf|f0780e76] (0+1/1) Accurately ripped
09 [7de80767|ad2ce463] (0+1/1) Accurately ripped
10 [ef41f25f|f27e1769] (0+1/1) Accurately ripped
11 [723f793f|3826a9a4] (0+1/1) Accurately ripped
12 [ed661813|68d8f125] (0+1/1) Accurately ripped
13 [2d513d43|032430b5] (0+1/1) Accurately ripped
14 [068e30fd|0c6479d5] (0+1/1) Accurately ripped
15 [800efa87|d285cfef] (0+1/1) Accurately ripped
16 [9eb25d48|013a0182] (0+1/1) Accurately ripped
17 [230713c6|35c21faa] (0+1/1) Accurately ripped
18 [41d30fe3|84b5d9b5] (0+1/1) Accurately ripped
19 [035d9c64|6f3e2bc1] (0+1/1) Accurately ripped
20 [111681ca|fa4f78e6] (0+1/1) Accurately ripped
21 [1b635efc|720dde0c] (0+1/1) Accurately ripped
22 [6b5927d4|78b230f7] (0+1/1) Accurately ripped
23 [2f728d5c|a983f182] (0+1/1) Accurately ripped

Track Peak [ CRC32 ] [W/O NULL] [ LOG ]
– 88,7 [E6B72C1C] [BC4F2CC1] CRC32
01 49,5 [AC7A9315] [4DDDDA13]
02 20,1 [629E8A01] [D0A38B80]
03 34,2 [BD203FBB] [7B8B4869]
04 44,0 [679C3972] [10B7B3B2]
05 39,8 [A2ECE903] [E1E27184]
06 51,1 [35737C3F] [C736C7AB]
07 88,7 [085C4F52] [2F0A6C48]
08 36,9 [47CEA059] [2471C8A8]
09 60,0 [7B89FFE4] [14F6D55D]
10 55,2 [D01D266F] [9C5A6C6C]
11 70,0 [EF12C6D2] [930B1AE8]
12 28,1 [0FD67F9F] [9372E6D5]
13 40,1 [A3785FF8] [11FDBD6E]
14 43,3 [CE6A9FFB] [F6C35554]
15 46,2 [F023430C] [B9E8B6A7]
16 35,3 [4AC7BF2A] [8E897E4F]
17 60,7 [3CEAD4BA] [D11513D4]
18 79,3 [DD62C176] [54CEC092]
19 43,8 [6DEA01A2] [31973F38]
20 25,7 [5782A0AD] [CF97A3A7]
21 67,9 [7BF5DF6E] [CE500F7E]
22 35,9 [21AC5E9D] [72F24019]
23 64,1 [51F3C611] [3B2224DF]

Performers:
Mary Bevan, soprano
Ben Johnson, tenor
Ashley Riches, bass-baritone
David Owen Norris, piano

Thanks to the Original ripper A-Z!

Download: