Subcategories

Mary J. Blige - Growing Pains (2007) (Repost)

Posted By: BlondStyle
Mary J. Blige - Growing Pains (2007) (Repost)

Mary J. Blige - Growing Pains (2007)
R&B, Hip-Hop, Soul | EAC Rip | FLAC + CUE + LOG + Covers | 75 Min | 488,87 Mb
Label: Geffen | Released: December 18, 2007

Growing Pains is the eighth studio album by American R&B/soul singer Mary J. Blige. The album was released on December 18, 2007 by Geffen Records. It debuted at #2 on the Billboard 200 selling 629,000 copies in its first week. Growing Pains was ranked #29 on Rolling Stone's list of the Top 50 Albums of 2007.

TrackList:

01. Work That
02. Grown Woman
03. Just Fine
04. Feel Like A Woman
05. Stay Down
06. Hurt Again
07. Shake Down
08. Til' The Morning
09. Roses
10. Fade Away
11. What Love Is
12. Work In Progress (Growing Pains)
13. Talk To Me
14. If You Love Me
15. Smoke
16. Come To Me (Peace)

Exact Audio Copy V0.99 prebeta 4 from 23. January 2008

Отчёт EAC об извлечении, выполненном 24. июня 2008, 11:12

Mary J. Blige / Growing Pains

Дисковод: ATAPI DVD DW 8X16X8X16 Adapter: 0 ID: 2

Режим чтения : Достоверность
Использование точного потока : Да
Отключение кэша аудио : Да
Использование указателей C2 : Нет

Коррекция смещения при чтении : 618
Способность читать области Lead-in и Lead-out : Нет
Заполнение пропущенных сэмплов тишиной : Да
Удаление блоков с тишиной в начале и конце : Нет
При вычислениях CRC использовались нулевые сэмплы : Нет
Интерфейс : Установленный внешний ASPI-интерфейс

Выходной формат : Пользовательский кодировщик
Выбранный битрейт : 1024 kBit/s
Качество : Высокий
Добавление ID3-тэга : Нет
Утилита сжатия : C:\Program Files\Exact Audio Copy\Flac\flac.exe
Дополнительные параметры : -6 -V -T "ARTIST=%a" -T "TITLE=%t" -T "ALBUM=%g" -T "DATE=%y" -T "TRACKNUMBER=%n" -T "GENRE=%m" -T "COMMENT=%e" %s -o %d


TOC извлечённого CD

Трек | Старт | Длительность | Начальный сектор | Конечный сектор
––––––––––––––––––––––––––––––––––-
1 | 0:00.00 | 3:30.44 | 0 | 15793
2 | 3:30.44 | 4:05.21 | 15794 | 34189
3 | 7:35.65 | 4:02.10 | 34190 | 52349
4 | 11:38.00 | 4:02.30 | 52350 | 70529
5 | 15:40.30 | 4:22.40 | 70530 | 90219
6 | 20:02.70 | 4:07.51 | 90220 | 108795
7 | 24:10.46 | 3:36.00 | 108796 | 124995
8 | 27:46.46 | 4:17.63 | 124996 | 144333
9 | 32:04.34 | 4:35.65 | 144334 | 165023
10 | 36:40.24 | 4:15.70 | 165024 | 184218
11 | 40:56.19 | 4:03.07 | 184219 | 202450
12 | 44:59.26 | 4:00.39 | 202451 | 220489
13 | 48:59.65 | 4:09.37 | 220490 | 239201
14 | 53:09.27 | 3:39.35 | 239202 | 255661
15 | 56:48.62 | 3:10.17 | 255662 | 269928
16 | 59:59.04 | 5:01.59 | 269929 | 292562


Характеристики диапазона извлечения и сообщения об ошибках

Выбранный диапазон

Имя файла C:\Documents and Settings\OEM\Мои документы\Мои аудиозаписи\Mary J. Blige - Growing Pains.wav

Пиковый уровень 99.9 %
Качество диапазона 100.0 %
CRC копии 7499A2B2
Копирование… OK

Ошибок не произошло

Конец отчёта


All Download Links
are Here


Password: www.AvaxHome.ru

P.S.
Sorry guys for this secrecy but such way will help to save the links from deleting
and it much more better than crappy and greedy so called "linkprotectors".

No Mirror Please