Subcategories

Masaaki Suzuki - J.S. Bach: Das Wohltemperierte Klavier, Book 1 (1996)

Posted By: tirexiss
Masaaki Suzuki - J.S. Bach: Das Wohltemperierte Klavier, Book 1 (1996)

Masaaki Suzuki - J.S. Bach: Das Wohltemperierte Klavier, Book 1 (1996)
XLD | FLAC (image+.cue, log) | Covers Included | 119:00 | 810 MB
Genre: Classical | Label: BIS | Catalog: 813

Listeners familiar with any of Masaaki Suzuki's many Bach recordings for BIS are likely to know what to expect from his recording of the Well-Tempered Klavier Book II: immaculate playing, impeccable taste, and immediate sound. Perhaps best-known internationally for his series of recordings of Bach's cantatas and other sacred works, Suzuki started his career as a superlative keyboard player, and as his performance here on the harpsichord demonstrates, he has kept his skills well-honed. Suzuki the keyboard player shares many of the same qualities as Suzuki the conductor: clarity, precision, vivacity, and a real feel for the music. From the quick to the slow and the simple to the complex, Suzuki articulates every line, harmony, and relationship lucidly but with a lively sense of rhythm and tempo. For some listeners, there may be too much calculation in these performances, and not enough freedom and inspiration. But whether or not the performances were mapped out ahead of time, no one could gainsay Suzuki's expressive intensity. Recorded in BIS' supernaturally clear yet almost tangibly present sound, these performances will surely find an appreciative audience.

Masaaki Suzuki - J.S. Bach: Das Wohltemperierte Klavier, Book 1 (1996)

Track List:

CD 1:
01-02. Praeludium und Fuge C-Dur, BWV 846
03-04. Praeludium und Fuge e-Moll, BWV 847
05-06. Praeludium und Fuge Cis-Dur, BWV 848
07-08. Praeludium und Fuge cis-Moll, BWV 849
09-10. Praeludium und Fuge D-Dur, BWV 850
11-12. Praeludium und Fuge d-Moll, BWV 851
13-14. Praeludium und Fuge Es-Dur, BWV 852
15-16. Praeludium und Fuge es-dis-Moll, BWV 853
17-18. Praeludium und Fuge E-Dur, BWV 854
19-20. Praeludium und Fuge e-Moll, BWV 855
21-22. Praeludium und Fuge F-Dur, BWV 856
23-24. Praeludium und Fuge f-Moll, BWV 857

X Lossless Decoder version 20080826 (80.1)

XLD extraction logfile from 2008-08-26 19:41:35 +1000

Masaaki Suzuki / Bach - Das wohltemperierte Klavier, Buch I, Masaaki Suzuki (Disk 1)

Used drive : PIONEER DVD-RW DVR-215 (revision 1.19)

Use cdparanoia mode : YES
Disable audio cache : YES
Read offset correction : 48
Max retry count : 100

TOC of the extracted CD
Track | Start | Length | Start sector | End sector
––––––––––––––––––––––––––––-
1 | 00:00:00 | 02:26:00 | 0 | 10949
2 | 02:26:00 | 02:03:00 | 10950 | 20174
3 | 04:29:00 | 01:44:57 | 20175 | 28031
4 | 06:13:57 | 01:29:55 | 28032 | 34761
5 | 07:43:37 | 01:18:13 | 34762 | 40624
6 | 09:01:50 | 02:29:25 | 40625 | 51824
7 | 11:31:00 | 03:10:02 | 51825 | 66076
8 | 14:41:02 | 04:02:48 | 66077 | 84274
9 | 18:43:50 | 01:42:22 | 84275 | 91946
10 | 20:25:72 | 01:53:03 | 91947 | 100424
11 | 22:19:00 | 02:26:17 | 100425 | 111391
12 | 24:45:17 | 02:14:58 | 111392 | 121499
13 | 27:00:00 | 03:57:15 | 121500 | 139289
14 | 30:57:15 | 01:56:60 | 139290 | 148049
15 | 32:54:00 | 03:54:70 | 148050 | 165669
16 | 36:48:70 | 05:32:05 | 165670 | 190574
17 | 42:21:00 | 01:34:55 | 190575 | 197679
18 | 43:55:55 | 01:14:70 | 197680 | 203299
19 | 45:10:50 | 02:15:20 | 203300 | 213444
20 | 47:25:70 | 01:17:05 | 213445 | 219224
21 | 48:43:00 | 01:07:12 | 219225 | 224261
22 | 49:50:12 | 01:17:63 | 224262 | 230099
23 | 51:08:00 | 02:20:15 | 230100 | 240614
24 | 53:28:15 | 04:15:60 | 240615 | 259799

All Tracks
Filename : /Users/xxxxx/Uploads/Bach - Das wohltemperierte Klavier, Buch I, Masaaki Suzuki (Disk 1).flac
CRC32 hash : DADD0016
CRC32 hash (skip zero) : 51F00975
Statistics
Read error : 0
Skipped (treated as error) : 0
Edge jitter error (fixed) : 0
Atom jitter error (fixed) : 85
Dropped bytes error (fixed) : 0
Duplicated bytes error (fixed) : 0

Track 01
CRC32 hash : B6A6FA20
CRC32 hash (skip zero) : 53078E7E
AccurateRip signature : E05DF431
->Track not present in AccurateRip database.
Statistics
Read error : 0
Skipped (treated as error) : 0
Edge jitter error (fixed) : 0
Atom jitter error (fixed) : 0
Dropped bytes error (fixed) : 0
Duplicated bytes error (fixed) : 0

Track 02
CRC32 hash : 5EDE2E7E
CRC32 hash (skip zero) : E8D797E7
AccurateRip signature : 31945F6B
->Track not present in AccurateRip database.
Statistics
Read error : 0
Skipped (treated as error) : 0
Edge jitter error (fixed) : 0
Atom jitter error (fixed) : 0
Dropped bytes error (fixed) : 0
Duplicated bytes error (fixed) : 0

Track 03
CRC32 hash : 41AB254C
CRC32 hash (skip zero) : B43EE38B
AccurateRip signature : C5BE408B
->Track not present in AccurateRip database.
Statistics
Read error : 0
Skipped (treated as error) : 0
Edge jitter error (fixed) : 0
Atom jitter error (fixed) : 0
Dropped bytes error (fixed) : 0
Duplicated bytes error (fixed) : 0

Track 04
CRC32 hash : C1C4F334
CRC32 hash (skip zero) : 327DD1FB
AccurateRip signature : A60E12C5
->Track not present in AccurateRip database.
Statistics
Read error : 0
Skipped (treated as error) : 0
Edge jitter error (fixed) : 0
Atom jitter error (fixed) : 0
Dropped bytes error (fixed) : 0
Duplicated bytes error (fixed) : 0

Track 05
CRC32 hash : 8F7A1474
CRC32 hash (skip zero) : F1520228
AccurateRip signature : D1150989
->Track not present in AccurateRip database.
Statistics
Read error : 0
Skipped (treated as error) : 0
Edge jitter error (fixed) : 0
Atom jitter error (fixed) : 0
Dropped bytes error (fixed) : 0
Duplicated bytes error (fixed) : 0

Track 06
CRC32 hash : 07485F3B
CRC32 hash (skip zero) : 75F1E3A7
AccurateRip signature : 7375370C
->Track not present in AccurateRip database.
Statistics
Read error : 0
Skipped (treated as error) : 0
Edge jitter error (fixed) : 0
Atom jitter error (fixed) : 0
Dropped bytes error (fixed) : 0
Duplicated bytes error (fixed) : 0

Track 07
CRC32 hash : D5F04EF3
CRC32 hash (skip zero) : CC959665
AccurateRip signature : 21D10F72
->Track not present in AccurateRip database.
Statistics
Read error : 0
Skipped (treated as error) : 0
Edge jitter error (fixed) : 0
Atom jitter error (fixed) : 0
Dropped bytes error (fixed) : 0
Duplicated bytes error (fixed) : 0

Track 08
CRC32 hash : 6FDE39B6
CRC32 hash (skip zero) : 3880E1E6
AccurateRip signature : D2544B28
->Track not present in AccurateRip database.
Statistics
Read error : 0
Skipped (treated as error) : 0
Edge jitter error (fixed) : 0
Atom jitter error (fixed) : 0
Dropped bytes error (fixed) : 0
Duplicated bytes error (fixed) : 0

Track 09
CRC32 hash : 79F98CB5
CRC32 hash (skip zero) : 0C4A2466
AccurateRip signature : B4317BCD
->Track not present in AccurateRip database.
Statistics
Read error : 0
Skipped (treated as error) : 0
Edge jitter error (fixed) : 0
Atom jitter error (fixed) : 0
Dropped bytes error (fixed) : 0
Duplicated bytes error (fixed) : 0

Track 10
CRC32 hash : 41A6C6D6
CRC32 hash (skip zero) : C5E26C96
AccurateRip signature : 1C3E036D
->Track not present in AccurateRip database.
Statistics
Read error : 0
Skipped (treated as error) : 0
Edge jitter error (fixed) : 0
Atom jitter error (fixed) : 0
Dropped bytes error (fixed) : 0
Duplicated bytes error (fixed) : 0

Track 11
CRC32 hash : BFCCF789
CRC32 hash (skip zero) : 92253D8E
AccurateRip signature : 07B3C433
->Track not present in AccurateRip database.
Statistics
Read error : 0
Skipped (treated as error) : 0
Edge jitter error (fixed) : 0
Atom jitter error (fixed) : 0
Dropped bytes error (fixed) : 0
Duplicated bytes error (fixed) : 0

Track 12
CRC32 hash : FBDD6B96
CRC32 hash (skip zero) : FDB19092
AccurateRip signature : E64825FD
->Track not present in AccurateRip database.
Statistics
Read error : 0
Skipped (treated as error) : 0
Edge jitter error (fixed) : 0
Atom jitter error (fixed) : 0
Dropped bytes error (fixed) : 0
Duplicated bytes error (fixed) : 0

Track 13
CRC32 hash : 06BCE1ED
CRC32 hash (skip zero) : C7E8AF91
AccurateRip signature : 2BB2F8F4
->Track not present in AccurateRip database.
Statistics
Read error : 0
Skipped (treated as error) : 0
Edge jitter error (fixed) : 0
Atom jitter error (fixed) : 7
Dropped bytes error (fixed) : 0
Duplicated bytes error (fixed) : 0

Track 14
CRC32 hash : F835526E
CRC32 hash (skip zero) : 9050DF8D
AccurateRip signature : 9D41EDC9
->Track not present in AccurateRip database.
Statistics
Read error : 0
Skipped (treated as error) : 0
Edge jitter error (fixed) : 0
Atom jitter error (fixed) : 78
Dropped bytes error (fixed) : 0
Duplicated bytes error (fixed) : 0

Track 15
CRC32 hash : 11841402
CRC32 hash (skip zero) : 44416E15
AccurateRip signature : 57EFD9BB
->Track not present in AccurateRip database.
Statistics
Read error : 0
Skipped (treated as error) : 0
Edge jitter error (fixed) : 0
Atom jitter error (fixed) : 0
Dropped bytes error (fixed) : 0
Duplicated bytes error (fixed) : 0

Track 16
CRC32 hash : 589C1BCB
CRC32 hash (skip zero) : E7585285
AccurateRip signature : ABF3DA68
->Track not present in AccurateRip database.
Statistics
Read error : 0
Skipped (treated as error) : 0
Edge jitter error (fixed) : 0
Atom jitter error (fixed) : 0
Dropped bytes error (fixed) : 0
Duplicated bytes error (fixed) : 0

Track 17
CRC32 hash : D2264C5D
CRC32 hash (skip zero) : 5091EDEE
AccurateRip signature : F51CB808
->Track not present in AccurateRip database.
Statistics
Read error : 0
Skipped (treated as error) : 0
Edge jitter error (fixed) : 0
Atom jitter error (fixed) : 0
Dropped bytes error (fixed) : 0
Duplicated bytes error (fixed) : 0

Track 18
CRC32 hash : 9535694F
CRC32 hash (skip zero) : 27F1338E
AccurateRip signature : A2A64679
->Track not present in AccurateRip database.
Statistics
Read error : 0
Skipped (treated as error) : 0
Edge jitter error (fixed) : 0
Atom jitter error (fixed) : 0
Dropped bytes error (fixed) : 0
Duplicated bytes error (fixed) : 0

Track 19
CRC32 hash : 8006A82C
CRC32 hash (skip zero) : 3DB94A96
AccurateRip signature : 7F1C8DCA
->Track not present in AccurateRip database.
Statistics
Read error : 0
Skipped (treated as error) : 0
Edge jitter error (fixed) : 0
Atom jitter error (fixed) : 0
Dropped bytes error (fixed) : 0
Duplicated bytes error (fixed) : 0

Track 20
CRC32 hash : D12545DE
CRC32 hash (skip zero) : 33913654
AccurateRip signature : 811C976D
->Track not present in AccurateRip database.
Statistics
Read error : 0
Skipped (treated as error) : 0
Edge jitter error (fixed) : 0
Atom jitter error (fixed) : 0
Dropped bytes error (fixed) : 0
Duplicated bytes error (fixed) : 0

Track 21
CRC32 hash : 32373F2C
CRC32 hash (skip zero) : AF6A72A3
AccurateRip signature : 813900D5
->Track not present in AccurateRip database.
Statistics
Read error : 0
Skipped (treated as error) : 0
Edge jitter error (fixed) : 0
Atom jitter error (fixed) : 0
Dropped bytes error (fixed) : 0
Duplicated bytes error (fixed) : 0

Track 22
CRC32 hash : 55D7D482
CRC32 hash (skip zero) : 92650633
AccurateRip signature : 7EAA2EAD
->Track not present in AccurateRip database.
Statistics
Read error : 0
Skipped (treated as error) : 0
Edge jitter error (fixed) : 0
Atom jitter error (fixed) : 0
Dropped bytes error (fixed) : 0
Duplicated bytes error (fixed) : 0

Track 23
CRC32 hash : 6EC981CF
CRC32 hash (skip zero) : B7D9661C
AccurateRip signature : 6555A389
->Track not present in AccurateRip database.
Statistics
Read error : 0
Skipped (treated as error) : 0
Edge jitter error (fixed) : 0
Atom jitter error (fixed) : 0
Dropped bytes error (fixed) : 0
Duplicated bytes error (fixed) : 0

Track 24
CRC32 hash : 507AD281
CRC32 hash (skip zero) : 3271E80E
AccurateRip signature : CA3DAE86
->Track not present in AccurateRip database.
Statistics
Read error : 0
Skipped (treated as error) : 0
Edge jitter error (fixed) : 0
Atom jitter error (fixed) : 0
Dropped bytes error (fixed) : 0
Duplicated bytes error (fixed) : 0

No errors occurred

End of status report

[CUETools log; Date: 19.03.2018 11:10:19; Version: 2.1.5]
[CTDB TOCID: 2SaU3feZ_ifIphYNYyaXjbbzUzc-] found.
Track | CTDB Status
1 | (4/4) Accurately ripped
2 | (4/4) Accurately ripped
3 | (4/4) Accurately ripped
4 | (4/4) Accurately ripped
5 | (4/4) Accurately ripped
6 | (4/4) Accurately ripped
7 | (4/4) Accurately ripped
8 | (4/4) Accurately ripped
9 | (4/4) Accurately ripped
10 | (4/4) Accurately ripped
11 | (4/4) Accurately ripped
12 | (4/4) Accurately ripped
13 | (4/4) Differs in 84 samples @03:42:65-03:42:66,03:43:36,03:45:19-03:45:20
14 | (4/4) Differs in 6836 samples @00:36:01-00:36:02,00:36:16-00:36:17,00:36:61-00:36:62,00:37:16-00:37:17,00:37:61-00:37:62,00:38:02,00:38:17,00:38:32,00:38:47,00:38:62,00:39:02,00:39:32-00:39:33,00:39:47-00:39:48,00:39:62-00:39:63,00:40:02-00:40:03,00:40:17-00:40:18,00:40:62-00:40:63,00:41:02-00:41:03,00:41:18,00:41:33,00:41:48,00:41:63,00:42:18,00:42:48-00:42:49,00:42:63-00:42:64,00:43:03-00:43:04,00:43:33-00:43:34,00:43:48-00:43:49,00:44:04,00:44:19,00:44:34,00:44:49,00:45:04,00:45:19,00:46:04-00:46:05,00:46:65,00:47:20,00:47:35,00:47:50,00:49:21,00:49:66,00:50:06,00:50:36,00:50:51-00:50:52,00:51:22,00:51:67,00:52:07,00:52:22,00:52:37-00:52:38,00:52:52-00:52:53,00:52:67-00:52:68,00:53:07-00:53:08,00:53:53,00:54:08,00:54:23,00:54:38,00:54:53-00:54:54,00:54:69,00:55:08-00:55:09,00:55:24,00:55:38-00:55:39,00:55:54,00:55:69,00:56:09,00:56:24,00:56:39-00:56:40,00:56:54-00:56:55,00:56:69-00:56:70,00:57:09-00:57:10,00:57:24-00:57:25,00:57:40,00:57:55,00:57:70,00:58:10,00:58:40-00:58:41,00:58:55-00:58:56,00:58:70-00:58:71,00:59:10-00:59:11,00:59:26,00:59:41,00:59:56,00:59:71,01:00:11-01:00:12,01:00:26-01:00:27,01:00:41-01:00:42,01:00:56-01:00:57,01:01:12,01:01:27,01:01:42,01:01:57,01:01:72-01:01:73,01:02:12-01:02:13,01:02:27-01:02:28,01:02:42-01:02:43,01:02:58,01:02:73,01:03:13,01:03:28,01:03:43-01:03:44,01:03:58-01:03:59,01:03:73-01:03:74,01:04:13-01:04:14,01:04:44,01:04:59,01:04:74,01:05:14-01:05:15,01:05:29-01:05:30,01:05:44-01:05:45,01:05:59-01:05:60,01:06:00,01:06:15,01:06:30,01:06:45-01:06:46,01:06:60-01:06:61,01:07:00-01:07:01,01:07:15-01:07:16,01:07:31,01:07:46,01:07:61,01:08:01,01:08:16-01:08:17,01:08:31-01:08:32,01:08:61-01:08:62,01:09:02,01:09:17,01:09:32,01:09:47-01:09:48,01:09:62-01:09:63,01:10:18,01:10:33,01:10:48,01:10:63,01:11:03-01:11:04,01:11:19,01:11:33-01:11:34,01:11:49,01:12:04,01:12:19,01:12:34-01:12:35,01:12:64-01:12:65,01:13:05,01:15:06-01:15:07,01:23:43,01:28:02-01:28:03
15 | (4/4) Accurately ripped
16 | (4/4) Accurately ripped
17 | (4/4) Accurately ripped
18 | (4/4) Accurately ripped
19 | (4/4) Accurately ripped
20 | (4/4) Accurately ripped
21 | (4/4) Accurately ripped
22 | (4/4) Accurately ripped
23 | (4/4) Accurately ripped
24 | (4/4) Accurately ripped
[AccurateRip ID: 0030bc8d-03574d1f-520d8818] found.
Track [ CRC | V2 ] Status
01 [e05df431|cbf456d0] (0+0/9) No match
02 [31945f6b|e2f02cb7] (0+0/9) No match
03 [c5be408b|fb9dc511] (0+0/9) No match
04 [a60e12c5|b0c0aca2] (0+0/9) No match
05 [d1150989|a7e80200] (0+0/9) No match
06 [7375370c|4e10d92e] (0+0/9) No match
07 [21d10f72|8553357a] (0+0/9) No match
08 [d2544b28|f08b5457] (0+0/9) No match
09 [b4317bcd|2904a572] (0+0/9) No match
10 [1c3e036d|1cf5c435] (0+0/9) No match
11 [07b3c433|4c6d3c5c] (0+0/9) No match
12 [e64825fd|f425c201] (0+0/9) No match
13 [2bb2f8f4|d8973daa] (0+0/9) No match
14 [9d41edc9|92356bab] (0+0/9) No match
15 [57efd9bb|6039fff0] (0+0/9) No match
16 [abf3da68|f8d59ff1] (0+0/9) No match
17 [f51cb808|0b8ca8f8] (0+0/9) No match
18 [a2a64679|2ef308d3] (0+0/9) No match
19 [7f1c8dca|77be5e85] (0+0/9) No match
20 [811c976d|e55103da] (0+0/9) No match
21 [813900d5|b005727e] (0+0/9) No match
22 [7eaa2ead|01816589] (0+0/9) No match
23 [6555a389|b2795920] (0+0/9) No match
24 [ca3dae86|acff5332] (0+0/9) No match
Offsetted by 599:
01 [ce25a2c0] (2/9) Accurately ripped
02 [935971e5] (2/9) Accurately ripped
03 [9ab793b6] (2/9) Accurately ripped
04 [e136d2a8] (2/9) Accurately ripped
05 [12cdba36] (2/9) Accurately ripped
06 [6cda9478] (2/9) Accurately ripped
07 [d60e2c1b] (2/9) Accurately ripped
08 [3aa5b92e] (2/9) Accurately ripped
09 [f3f34c69] (2/9) Accurately ripped
10 [13206c84] (2/9) Accurately ripped
11 [f57d5d8f] (2/9) Accurately ripped
12 [74b2bdef] (2/9) Accurately ripped
13 [32210bf7] (0/9) No match (V2 was not tested)
14 [7d80792c] (0/9) No match (V2 was not tested)
15 [03d7c282] (2/9) Accurately ripped
16 [b532297b] (2/9) Accurately ripped
17 [4bb4ae38] (2/9) Accurately ripped
18 [424fea80] (2/9) Accurately ripped
19 [65190c59] (2/9) Accurately ripped
20 [d397351e] (2/9) Accurately ripped
21 [3b374320] (2/9) Accurately ripped
22 [68b38d80] (2/9) Accurately ripped
23 [a5d7c4d3] (2/9) Accurately ripped
24 [a4f25038] (2/9) Accurately ripped
Offsetted by 628:
01 [a12812f1] (0/9) No match (V2 was not tested)
02 [2c6d3bc0] (0/9) No match (V2 was not tested)
03 [407e6d5a] (0/9) No match (V2 was not tested)
04 [081f432d] (0/9) No match (V2 was not tested)
05 [ed9859b8] (0/9) No match (V2 was not tested)
06 [f53cbd23] (0/9) No match (V2 was not tested)
07 [d4915359] (0/9) No match (V2 was not tested)
08 [0ce0b8e8] (0/9) No match (V2 was not tested)
09 [9852ccb3] (0/9) No match (V2 was not tested)
10 [eaa1bb63] (0/9) No match (V2 was not tested)
11 [76732301] (0/9) No match (V2 was not tested)
12 [18bc9fe3] (0/9) No match (V2 was not tested)
13 [02167a49] (0/9) No match (V2 was not tested)
14 [82ad6c74] (0/9) No match (V2 was not tested)
15 [29e74e26] (0/9) No match (V2 was not tested)
16 [805beac0] (0/9) No match (V2 was not tested)
17 [6492a267] (0/9) No match (V2 was not tested)
18 [60820bf1] (0/9) No match (V2 was not tested)
19 [01a2302e] (0/9) No match (V2 was not tested)
20 [950c0d60] (0/9) No match (V2 was not tested)
21 [da285151] (0/9) No match (V2 was not tested)
22 [a9f5e874] (0/9) No match (V2 was not tested)
23 [05383e21] (0/9) No match (V2 was not tested)
24 [2b573cad] (0/9) No match (V2 was not tested)
Offsetted by 901:
01 [9dec01d7] (0/9) No match (V2 was not tested)
02 [326bb21a] (0/9) No match (V2 was not tested)
03 [66165171] (0/9) No match (V2 was not tested)
04 [d0151f30] (0/9) No match (V2 was not tested)
05 [fba310e1] (0/9) No match (V2 was not tested)
06 [6423e243] (0/9) No match (V2 was not tested)
07 [6c2a25d1] (0/9) No match (V2 was not tested)
08 [1e50bb50] (0/9) No match (V2 was not tested)
09 [881c8577] (0/9) No match (V2 was not tested)
10 [b6ea042e] (0/9) No match (V2 was not tested)
11 [3fda73fe] (0/9) No match (V2 was not tested)
12 [cc272ee1] (0/9) No match (V2 was not tested)
13 [41c80184] (0/9) No match (V2 was not tested)
14 [40c15393] (0/9) No match (V2 was not tested)
15 [e3fb094e] (0/9) No match (V2 was not tested)
16 [c6bf1e7c] (0/9) No match (V2 was not tested)
17 [c123c42e] (0/9) No match (V2 was not tested)
18 [bb16ae1c] (0/9) No match (V2 was not tested)
19 [8b1b6d11] (0/9) No match (V2 was not tested)
20 [f2f842eb] (0/9) No match (V2 was not tested)
21 [8271fe67] (0/9) No match (V2 was not tested)
22 [78be6eba] (0/9) No match (V2 was not tested)
23 [2ffed34c] (0/9) No match (V2 was not tested)
24 [cdac181e] (0/9) No match (V2 was not tested)

Track Peak [ CRC32 ] [W/O NULL]
– 94,9 [DADD0016] [51F00975]
01 36,9 [B6A6FA20] [53078E7E]
02 52,2 [5EDE2E7E] [E8D797E7]
03 69,4 [41AB254C] [B43EE38B]
04 70,3 [C1C4F334] [327DD1FB]
05 72,5 [8F7A1474] [F1520228]
06 74,6 [07485F3B] [75F1E3A7]
07 47,1 [D5F04EF3] [CC959665]
08 68,8 [6FDE39B6] [3880E1E6]
09 45,3 [79F98CB5] [0C4A2466]
10 77,3 [41A6C6D6] [C5E26C96]
11 44,8 [BFCCF789] [92253D8E]
12 58,4 [FBDD6B96] [FDB19092]
13 94,9 [06BCE1ED] [C7E8AF91]
14 76,2 [F835526E] [9050DF8D]
15 48,0 [11841402] [44416E15]
16 61,4 [589C1BCB] [E7585285]
17 36,5 [D2264C5D] [5091EDEE]
18 73,4 [9535694F] [27F1338E]
19 59,8 [8006A82C] [3DB94A96]
20 70,7 [D12545DE] [33913654]
21 63,7 [32373F2C] [AF6A72A3]
22 57,4 [55D7D482] [92650633]
23 49,1 [6EC981CF] [B7D9661C]
24 56,5 [507AD281] [3271E80E]

CD 2:
01-02. Praeludium und Fuge Fis-Dur, BWV 858
03-04. Praeludium und Fuge fis-Moll, BWV 859
05-06. Praeludium und Fuge G-Dur, BWV 860
07-08. Praeludium und Fuge g-Moll, BWV 861
09-10. Praeludium und Fuge As-Dur, BWV 862
11-12. Praeludium und Fuge gis-Moll, BWV 863
13-14. Praeludium und Fuge A-Dur, BWV 864
15-16. Praeludium und Fuge a-Moll, BWV 865
17-18. Praeludium und Fuge B-Dur, BWV 866
19-20. Praeludium und Fuge b-Moll, BWV 867
21-22. Praeludium und Fuge H-Dur, BWV 868
23-24. Praeludium und Fuge h-Moll, BWV 869

X Lossless Decoder version 20080826 (80.1)

XLD extraction logfile from 2008-08-26 20:28:10 +1000

Masaaki Suzuki / Bach - Das wohltemperierte Klavier, Buch I, Masaaki Suzuki (Disk 2)

Used drive : PIONEER DVD-RW DVR-215 (revision 1.19)

Use cdparanoia mode : YES
Disable audio cache : YES
Read offset correction : 48
Max retry count : 100

TOC of the extracted CD
Track | Start | Length | Start sector | End sector
––––––––––––––––––––––––––––-
1 | 00:00:00 | 01:54:52 | 0 | 8601
2 | 01:54:52 | 01:58:23 | 8602 | 17474
3 | 03:53:00 | 01:45:22 | 17475 | 25371
4 | 05:38:22 | 02:28:53 | 25372 | 36524
5 | 08:07:00 | 01:01:00 | 36525 | 41099
6 | 09:08:00 | 02:58:50 | 41100 | 54499
7 | 12:06:50 | 02:13:35 | 54500 | 64509
8 | 14:20:10 | 02:20:52 | 64510 | 75061
9 | 16:40:62 | 01:23:45 | 75062 | 81331
10 | 18:04:32 | 02:15:43 | 81332 | 91499
11 | 20:20:00 | 01:41:15 | 91500 | 99089
12 | 22:01:15 | 02:37:60 | 99090 | 110924
13 | 24:39:00 | 01:48:07 | 110925 | 119031
14 | 26:27:07 | 02:14:23 | 119032 | 129104
15 | 28:41:30 | 01:43:40 | 129105 | 136869
16 | 30:24:70 | 05:42:30 | 136870 | 162549
17 | 36:07:25 | 01:26:37 | 162550 | 169036
18 | 37:33:62 | 01:54:00 | 169037 | 177586
19 | 39:27:62 | 02:53:05 | 177587 | 190566
20 | 42:20:67 | 03:16:08 | 190567 | 205274
21 | 45:37:00 | 01:17:57 | 205275 | 211106
22 | 46:54:57 | 02:16:18 | 211107 | 221324
23 | 49:11:00 | 05:37:72 | 221325 | 246671
24 | 54:48:72 | 06:27:03 | 246672 | 275699

All Tracks
Filename : /Users/xxxxx/Uploads/Bach - Das wohltemperierte Klavier, Buch I, Masaaki Suzuki (Disk 2).flac
CRC32 hash : C82CB21A
CRC32 hash (skip zero) : 3D04BB88
Statistics
Read error : 0
Skipped (treated as error) : 0
Edge jitter error (fixed) : 3
Atom jitter error (fixed) : 1
Dropped bytes error (fixed) : 1
Duplicated bytes error (fixed) : 1

Track 01
CRC32 hash : 3EDACB27
CRC32 hash (skip zero) : 1FAEBDD0
AccurateRip signature : 28E65E90
->Track not present in AccurateRip database.
Statistics
Read error : 0
Skipped (treated as error) : 0
Edge jitter error (fixed) : 0
Atom jitter error (fixed) : 0
Dropped bytes error (fixed) : 0
Duplicated bytes error (fixed) : 0

Track 02
CRC32 hash : 039872F1
CRC32 hash (skip zero) : D4F81C01
AccurateRip signature : CD7D172A
->Track not present in AccurateRip database.
Statistics
Read error : 0
Skipped (treated as error) : 0
Edge jitter error (fixed) : 0
Atom jitter error (fixed) : 0
Dropped bytes error (fixed) : 0
Duplicated bytes error (fixed) : 0

Track 03
CRC32 hash : 9B49672B
CRC32 hash (skip zero) : 009556AF
AccurateRip signature : 9652F8BE
->Track not present in AccurateRip database.
Statistics
Read error : 0
Skipped (treated as error) : 0
Edge jitter error (fixed) : 0
Atom jitter error (fixed) : 0
Dropped bytes error (fixed) : 0
Duplicated bytes error (fixed) : 0

Track 04
CRC32 hash : 3B14B90F
CRC32 hash (skip zero) : 3DF78877
AccurateRip signature : A8993AA6
->Track not present in AccurateRip database.
Statistics
Read error : 0
Skipped (treated as error) : 0
Edge jitter error (fixed) : 0
Atom jitter error (fixed) : 0
Dropped bytes error (fixed) : 0
Duplicated bytes error (fixed) : 0

Track 05
CRC32 hash : 0CC1C9B3
CRC32 hash (skip zero) : D51D4E52
AccurateRip signature : 76E08EBE
->Track not present in AccurateRip database.
Statistics
Read error : 0
Skipped (treated as error) : 0
Edge jitter error (fixed) : 0
Atom jitter error (fixed) : 0
Dropped bytes error (fixed) : 0
Duplicated bytes error (fixed) : 0

Track 06
CRC32 hash : A818395E
CRC32 hash (skip zero) : 0A879C77
AccurateRip signature : 290F14A0
->Track not present in AccurateRip database.
Statistics
Read error : 0
Skipped (treated as error) : 0
Edge jitter error (fixed) : 0
Atom jitter error (fixed) : 0
Dropped bytes error (fixed) : 0
Duplicated bytes error (fixed) : 0

Track 07
CRC32 hash : 6489151D
CRC32 hash (skip zero) : 4C6341D6
AccurateRip signature : 01F1ADB7
->Track not present in AccurateRip database.
Statistics
Read error : 0
Skipped (treated as error) : 0
Edge jitter error (fixed) : 0
Atom jitter error (fixed) : 0
Dropped bytes error (fixed) : 0
Duplicated bytes error (fixed) : 0

Track 08
CRC32 hash : 69ACE3BE
CRC32 hash (skip zero) : 6972BB51
AccurateRip signature : F33078E1
->Track not present in AccurateRip database.
Statistics
Read error : 0
Skipped (treated as error) : 0
Edge jitter error (fixed) : 0
Atom jitter error (fixed) : 0
Dropped bytes error (fixed) : 0
Duplicated bytes error (fixed) : 0

Track 09
CRC32 hash : F7F93C2C
CRC32 hash (skip zero) : 6D45A2BF
AccurateRip signature : CD6F8D58
->Track not present in AccurateRip database.
Statistics
Read error : 0
Skipped (treated as error) : 0
Edge jitter error (fixed) : 0
Atom jitter error (fixed) : 0
Dropped bytes error (fixed) : 0
Duplicated bytes error (fixed) : 0

Track 10
CRC32 hash : 59CFB3B0
CRC32 hash (skip zero) : DE367420
AccurateRip signature : 0A1D89B8
->Track not present in AccurateRip database.
Statistics
Read error : 0
Skipped (treated as error) : 0
Edge jitter error (fixed) : 0
Atom jitter error (fixed) : 0
Dropped bytes error (fixed) : 0
Duplicated bytes error (fixed) : 0

Track 11
CRC32 hash : 82155D46
CRC32 hash (skip zero) : 75F627BE
AccurateRip signature : 635BBFFD
->Track not present in AccurateRip database.
Statistics
Read error : 0
Skipped (treated as error) : 0
Edge jitter error (fixed) : 0
Atom jitter error (fixed) : 0
Dropped bytes error (fixed) : 0
Duplicated bytes error (fixed) : 0

Track 12
CRC32 hash : 8C4D3546
CRC32 hash (skip zero) : 597CE14D
AccurateRip signature : 634FDDBF
->Track not present in AccurateRip database.
Statistics
Read error : 0
Skipped (treated as error) : 0
Edge jitter error (fixed) : 0
Atom jitter error (fixed) : 0
Dropped bytes error (fixed) : 0
Duplicated bytes error (fixed) : 0

Track 13
CRC32 hash : 6138EA4A
CRC32 hash (skip zero) : 0D1D2852
AccurateRip signature : CE3275B9
->Track not present in AccurateRip database.
Statistics
Read error : 0
Skipped (treated as error) : 0
Edge jitter error (fixed) : 0
Atom jitter error (fixed) : 0
Dropped bytes error (fixed) : 0
Duplicated bytes error (fixed) : 0

Track 14
CRC32 hash : 206CD14B
CRC32 hash (skip zero) : AD8AC272
AccurateRip signature : EC37F122
->Track not present in AccurateRip database.
Statistics
Read error : 0
Skipped (treated as error) : 0
Edge jitter error (fixed) : 0
Atom jitter error (fixed) : 0
Dropped bytes error (fixed) : 0
Duplicated bytes error (fixed) : 0

Track 15
CRC32 hash : 8160CFE6
CRC32 hash (skip zero) : 27E2FF7F
AccurateRip signature : 67761475
->Track not present in AccurateRip database.
Statistics
Read error : 0
Skipped (treated as error) : 0
Edge jitter error (fixed) : 0
Atom jitter error (fixed) : 0
Dropped bytes error (fixed) : 0
Duplicated bytes error (fixed) : 0

Track 16
CRC32 hash : 438CF457
CRC32 hash (skip zero) : D09E814C
AccurateRip signature : 9AC52806
->Track not present in AccurateRip database.
Statistics
Read error : 0
Skipped (treated as error) : 0
Edge jitter error (fixed) : 0
Atom jitter error (fixed) : 0
Dropped bytes error (fixed) : 0
Duplicated bytes error (fixed) : 0

Track 17
CRC32 hash : 90BCDB6B
CRC32 hash (skip zero) : 79A18743
AccurateRip signature : 6C30D00A
->Track not present in AccurateRip database.
Statistics
Read error : 0
Skipped (treated as error) : 0
Edge jitter error (fixed) : 0
Atom jitter error (fixed) : 0
Dropped bytes error (fixed) : 0
Duplicated bytes error (fixed) : 0

Track 18
CRC32 hash : 85D8693A
CRC32 hash (skip zero) : DC5ACDAF
AccurateRip signature : 29C42255
->Track not present in AccurateRip database.
Statistics
Read error : 0
Skipped (treated as error) : 0
Edge jitter error (fixed) : 0
Atom jitter error (fixed) : 0
Dropped bytes error (fixed) : 0
Duplicated bytes error (fixed) : 0

Track 19
CRC32 hash : 709F9FC9
CRC32 hash (skip zero) : B988B9C1
AccurateRip signature : D627DA85
->Track not present in AccurateRip database.
Statistics
Read error : 0
Skipped (treated as error) : 0
Edge jitter error (fixed) : 0
Atom jitter error (fixed) : 0
Dropped bytes error (fixed) : 0
Duplicated bytes error (fixed) : 0

Track 20
CRC32 hash : B78813B5
CRC32 hash (skip zero) : DCC92E39
AccurateRip signature : 1E4F4D9F
->Track not present in AccurateRip database.
Statistics
Read error : 0
Skipped (treated as error) : 0
Edge jitter error (fixed) : 0
Atom jitter error (fixed) : 0
Dropped bytes error (fixed) : 0
Duplicated bytes error (fixed) : 0

Track 21
CRC32 hash : ADDB3AB8
CRC32 hash (skip zero) : 6DFB7163
AccurateRip signature : B36541EB
->Track not present in AccurateRip database.
Statistics
Read error : 0
Skipped (treated as error) : 0
Edge jitter error (fixed) : 0
Atom jitter error (fixed) : 0
Dropped bytes error (fixed) : 0
Duplicated bytes error (fixed) : 0

Track 22
CRC32 hash : B68E1B40
CRC32 hash (skip zero) : 07A4A28F
AccurateRip signature : ED965DFB
->Track not present in AccurateRip database.
Statistics
Read error : 0
Skipped (treated as error) : 0
Edge jitter error (fixed) : 0
Atom jitter error (fixed) : 0
Dropped bytes error (fixed) : 0
Duplicated bytes error (fixed) : 0

Track 23
CRC32 hash : 7871B702
CRC32 hash (skip zero) : DA35CA0D
AccurateRip signature : C8432925
->Track not present in AccurateRip database.
Statistics
Read error : 0
Skipped (treated as error) : 0
Edge jitter error (fixed) : 0
Atom jitter error (fixed) : 0
Dropped bytes error (fixed) : 0
Duplicated bytes error (fixed) : 0

Track 24
CRC32 hash : 633C0C8A
CRC32 hash (skip zero) : 4D84AB3A
AccurateRip signature : 3095D582
->Track not present in AccurateRip database.
Statistics
Read error : 0
Skipped (treated as error) : 0
Edge jitter error (fixed) : 3
Atom jitter error (fixed) : 1
Dropped bytes error (fixed) : 1
Duplicated bytes error (fixed) : 1

No errors occurred

End of status report

[CUETools log; Date: 19.03.2018 11:11:22; Version: 2.1.5]
[CTDB TOCID: 0ACTPiZ_WdJ5yKlFuic.QpvD3DE-] found.
Track | CTDB Status
1 | (5/5) Accurately ripped
2 | (5/5) Accurately ripped
3 | (5/5) Accurately ripped
4 | (5/5) Accurately ripped
5 | (5/5) Accurately ripped
6 | (5/5) Accurately ripped
7 | (5/5) Accurately ripped
8 | (5/5) Accurately ripped
9 | (5/5) Accurately ripped
10 | (5/5) Accurately ripped
11 | (5/5) Accurately ripped
12 | (5/5) Accurately ripped
13 | (5/5) Accurately ripped
14 | (5/5) Accurately ripped
15 | (5/5) Accurately ripped
16 | (5/5) Accurately ripped
17 | (5/5) Accurately ripped
18 | (5/5) Accurately ripped
19 | (5/5) Accurately ripped
20 | (5/5) Accurately ripped
21 | (5/5) Accurately ripped
22 | (5/5) Accurately ripped
23 | (5/5) Accurately ripped
24 | (5/5) Accurately ripped
[AccurateRip ID: 002d06a4-031d8852-490e5c18] found.
Track [ CRC | V2 ] Status
01 [28e65e90|8c6f7e9c] (0+0/9) No match
02 [cd7d172a|4fafae09] (0+0/9) No match
03 [9652f8be|1f2ebf06] (0+0/9) No match
04 [a8993aa6|d2edbe47] (0+0/9) No match
05 [76e08ebe|51e15c08] (0+0/9) No match
06 [290f14a0|f054fd56] (0+0/9) No match
07 [01f1adb7|10b2db09] (0+0/9) No match
08 [f33078e1|324a0b45] (0+0/9) No match
09 [cd6f8d58|4afb3872] (0+0/9) No match
10 [0a1d89b8|e4b1cea2] (0+0/9) No match
11 [635bbffd|20135320] (0+0/9) No match
12 [634fddbf|d0fb306a] (0+0/9) No match
13 [ce3275b9|19e686ed] (0+0/9) No match
14 [ec37f122|291dd721] (0+0/9) No match
15 [67761475|ec77dece] (0+0/9) No match
16 [9ac52806|41e91add] (0+0/9) No match
17 [6c30d00a|9bb36770] (0+0/9) No match
18 [29c42255|59560a69] (0+0/9) No match
19 [d627da85|f4c6b72e] (0+0/9) No match
20 [1e4f4d9f|dfa3d81a] (0+0/9) No match
21 [b36541eb|a673cae9] (0+0/9) No match
22 [ed965dfb|23394015] (0+0/9) No match
23 [c8432925|19e0615c] (0+0/9) No match
24 [3095d582|0e70faf6] (0+0/9) No match
Offsetted by -599:
01 [6cec2acc] (2/9) Accurately ripped
02 [a5d2f8b3] (2/9) Accurately ripped
03 [fe2ef47f] (2/9) Accurately ripped
04 [bc2f617f] (2/9) Accurately ripped
05 [709c93d0] (2/9) Accurately ripped
06 [6880d7e8] (2/9) Accurately ripped
07 [eb48b00a] (2/9) Accurately ripped
08 [d7107194] (2/9) Accurately ripped
09 [cc94575a] (2/9) Accurately ripped
10 [49417d4b] (2/9) Accurately ripped
11 [a09946ac] (2/9) Accurately ripped
12 [c2b72cb6] (2/9) Accurately ripped
13 [d353e168] (2/9) Accurately ripped
14 [1f95029b] (2/9) Accurately ripped
15 [f60fb58d] (2/9) Accurately ripped
16 [b39e3108] (2/9) Accurately ripped
17 [24af62e6] (2/9) Accurately ripped
18 [7d1139d8] (2/9) Accurately ripped
19 [5f15c2d1] (2/9) Accurately ripped
20 [95a51ed1] (2/9) Accurately ripped
21 [a76e7e92] (2/9) Accurately ripped
22 [a9c0626e] (2/9) Accurately ripped
23 [eeb94517] (2/9) Accurately ripped
24 [94275f64] (2/9) Accurately ripped
Offsetted by 29:
01 [d2b99e47] (0/9) No match (V2 was not tested)
02 [670a547f] (0/9) No match (V2 was not tested)
03 [ddc73005] (0/9) No match (V2 was not tested)
04 [5fc4a7cc] (0/9) No match (V2 was not tested)
05 [95765073] (0/9) No match (V2 was not tested)
06 [66c0c458] (0/9) No match (V2 was not tested)
07 [a1faacb1] (0/9) No match (V2 was not tested)
08 [c1aa74d9] (0/9) No match (V2 was not tested)
09 [c500c636] (0/9) No match (V2 was not tested)
10 [42e9424f] (0/9) No match (V2 was not tested)
11 [631b0b75] (0/9) No match (V2 was not tested)
12 [6adab799] (0/9) No match (V2 was not tested)
13 [36fb146c] (0/9) No match (V2 was not tested)
14 [eb0bcb6b] (0/9) No match (V2 was not tested)
15 [aa243a38] (0/9) No match (V2 was not tested)
16 [b3a48bf8] (0/9) No match (V2 was not tested)
17 [985b58ad] (0/9) No match (V2 was not tested)
18 [4ef9b894] (0/9) No match (V2 was not tested)
19 [d811704c] (0/9) No match (V2 was not tested)
20 [57375387] (0/9) No match (V2 was not tested)
21 [baf5c78c] (0/9) No match (V2 was not tested)
22 [c0e90a12] (0/9) No match (V2 was not tested)
23 [945cc1b3] (0/9) No match (V2 was not tested)
24 [cce0dab6] (0/9) No match (V2 was not tested)
Offsetted by 688:
01 [31ae200f] (0/9) No match (V2 was not tested)
02 [5673af7d] (0/9) No match (V2 was not tested)
03 [3ff67cfc] (0/9) No match (V2 was not tested)
04 [287ebafd] (0/9) No match (V2 was not tested)
05 [e480f124] (0/9) No match (V2 was not tested)
06 [1cacbbd3] (0/9) No match (V2 was not tested)
07 [d3fadc2d] (0/9) No match (V2 was not tested)
08 [ff479e80] (0/9) No match (V2 was not tested)
09 [f920a5de] (0/9) No match (V2 was not tested)
10 [16522550] (0/9) No match (V2 was not tested)
11 [ef1f3dfb] (0/9) No match (V2 was not tested)
12 [b12d6f87] (0/9) No match (V2 was not tested)
13 [40d658e9] (0/9) No match (V2 was not tested)
14 [e9202921] (0/9) No match (V2 was not tested)
15 [53bf6b33] (0/9) No match (V2 was not tested)
16 [762c718a] (0/9) No match (V2 was not tested)
17 [fe3a2908] (0/9) No match (V2 was not tested)
18 [7189e120] (0/9) No match (V2 was not tested)
19 [6a478a9e] (0/9) No match (V2 was not tested)
20 [2ce3fdef] (0/9) No match (V2 was not tested)
21 [9e40e915] (0/9) No match (V2 was not tested)
22 [2de4edcb] (0/9) No match (V2 was not tested)
23 [d6279687] (0/9) No match (V2 was not tested)
24 [31c700ae] (0/9) No match (V2 was not tested)

Track Peak [ CRC32 ] [W/O NULL]
– 84,1 [C82CB21A] [3D04BB88]
01 52,2 [3EDACB27] [1FAEBDD0]
02 72,3 [039872F1] [D4F81C01]
03 47,2 [9B49672B] [009556AF]
04 55,7 [3B14B90F] [3DF78877]
05 76,8 [0CC1C9B3] [D51D4E52]
06 69,1 [A818395E] [0A879C77]
07 57,9 [6489151D] [4C6341D6]
08 56,7 [69ACE3BE] [6972BB51]
09 65,3 [F7F93C2C] [6D45A2BF]
10 70,9 [59CFB3B0] [DE367420]
11 53,4 [82155D46] [75F627BE]
12 62,2 [8C4D3546] [597CE14D]
13 50,2 [6138EA4A] [0D1D2852]
14 79,1 [206CD14B] [AD8AC272]
15 52,7 [8160CFE6] [27E2FF7F]
16 80,0 [438CF457] [D09E814C]
17 84,1 [90BCDB6B] [79A18743]
18 67,6 [85D8693A] [DC5ACDAF]
19 64,2 [709F9FC9] [B988B9C1]
20 56,8 [B78813B5] [DCC92E39]
21 62,8 [ADDB3AB8] [6DFB7163]
22 71,4 [B68E1B40] [07A4A28F]
23 51,1 [7871B702] [DA35CA0D]
24 71,0 [633C0C8A] [4D84AB3A]

Performers:
Masaaki Suzuki, harpsichord

Thanks to the Original ripper (unknown)!

Download: