Tags
Language
Tags

Mastodon - 6 Studio Albums (2002-2014) (Re-up)

Posted By: gribovar
Mastodon - 6 Studio Albums (2002-2014) (Re-up)

Mastodon - 6 Studio Albums (2002-2014)
EAC Rip | FLAC (image+.cue+log) - 2,57 GB | MP3 CBR 320 kbps (LAME 3.93) - 851 MB | Covers - 497 MB
Genre: Progressive Metal, Sludge Metal | RAR 3% Rec. | Label: Howling Bull Entertainment, Warner Music Japan, Reprise Records

Appearing near the dawn of the 21st century, Atlanta's Mastodon established themselves as one of the most original and influential American metal bands. Their wide-angle progressive approach encompasses stoner and sludge metal, punishing hardcore and metalcore, neo-psych, death metal, and more - sometimes in the span of a single song. The group's playing style incorporates heavy, technically complex guitar riffs, lyric hooks, long, melodic instrumental passages, and intricate, jazz-influenced drumming with syncopated time signatures. Their second album, 2004's Leviathan, was a concept offering based on Moby Dick, Herman Melville's iconic novel of whaling and obsession, and proved the band's commercial and critical breakthrough. Since its release, the record has attained status as one of the most important albums in heavy metal's history. 2011's concept album The Hunter reflected the band's embrace of prog, channelling disparate influences ranging from King Crimson to Opeth. 2017's Emperor of Sand netted two charting singles, debuted inside the Top Ten on the Top 200, and was nominated for a Grammy for Best Rock Album, while the single "Sultan's Curse" took a Grammy home for Best Metal Performance. Never staid and always restless, Mastodon embrace change readily, and employ its more useful lessons without regard for musical trends, production techniques, or popular or critical approval. Change and evolution (their raison d'être) are as much a part of their musical identity as their personnel.

Mastodon - 6 Studio Albums (2002-2014) (Re-up)

Mastodon - Remission (2002) [Japanese Edition]
EAC Rip | FLAC (image+.cue+log) - 459 MB | MP3 CBR 320 kbps (LAME 3.93) - 156 MB | Covers - 77 MB
Genre: Progressive Metal, Sludge Metal | RAR 3% Rec. | Label: Howling Bull Entertainment (HWCY-1097)

Tracklist:
01. Crusher Destroyer
02. March Of The Fire Ants
03. Where Strides The Behemoth
04. Workhorse
05. Ol'e Nessie
06. Burning Man
07. Trainwreck
08. Trampled Under Hoof
09. Trilobite
10. Mother Puncher
11. Elephant Man

Lifeblood EP Bonus Tracks:
12. Shadows That Move
13. Welcoming War
14. We Built This Come Death
15. Hail To Fire
16. Battle At Sea

Total time: 01:06:09

Exact Audio Copy V1.0 beta 3 from 29. August 2011

EAC extraction logfile from 30. December 2011, 22:54

Mastodon / Remission (Japan)

Used drive : LITE-ON DVDRW LH-20A1L Adapter: 3 ID: 0

Read mode : Secure
Utilize accurate stream : Yes
Defeat audio cache : Yes
Make use of C2 pointers : No

Read offset correction : 6
Overread into Lead-In and Lead-Out : No
Fill up missing offset samples with silence : Yes
Delete leading and trailing silent blocks : No
Null samples used in CRC calculations : Yes
Used interface : Installed external ASPI interface

Used output format : Internal WAV Routines
Sample format : 44.100 Hz; 16 Bit; Stereo


TOC of the extracted CD

Track | Start | Length | Start sector | End sector
––––––––––––––––––––––––––––-
1 | 0:00.00 | 2:00.57 | 0 | 9056
2 | 2:00.57 | 4:25.70 | 9057 | 29001
3 | 6:26.52 | 2:55.55 | 29002 | 42181
4 | 9:22.32 | 3:45.45 | 42182 | 59101
5 | 13:08.02 | 6:04.65 | 59102 | 86466
6 | 19:12.67 | 2:46.35 | 86467 | 98951
7 | 21:59.27 | 7:04.38 | 98952 | 130789
8 | 29:03.65 | 3:00.60 | 130790 | 144349
9 | 32:04.50 | 6:29.02 | 144350 | 173526
10 | 38:33.52 | 3:48.28 | 173527 | 190654
11 | 42:22.05 | 8:05.32 | 190655 | 227061
12 | 50:27.37 | 3:53.53 | 227062 | 244589
13 | 54:21.15 | 2:46.52 | 244590 | 257091
14 | 57:07.67 | 2:30.13 | 257092 | 268354
15 | 59:38.05 | 2:12.20 | 268355 | 278274
16 | 61:50.25 | 4:18.20 | 278275 | 297644


Range status and errors

Selected range

Filename Z:\data\mp3\Seeding Archive\Mastodon\2002-Remission [Japan]\Remission (Japan).wav

Peak level 98.8 %
Extraction speed 5.3 X
Range quality 100.0 %
Test CRC 976F3D73
Copy CRC 976F3D73
Copy OK

No errors occurred


AccurateRip summary

Track 1 not present in database
Track 2 not present in database
Track 3 not present in database
Track 4 not present in database
Track 5 not present in database
Track 6 not present in database
Track 7 not present in database
Track 8 not present in database
Track 9 not present in database
Track 10 not present in database
Track 11 not present in database
Track 12 not present in database
Track 13 not present in database
Track 14 not present in database
Track 15 not present in database
Track 16 not present in database

None of the tracks are present in the AccurateRip database

End of status report

==== Log checksum 5CF2469872F3BB9E1552940C30092BFA7B7941F4C7B3B7E5954FEA0331055D0D ====

[CUETools log; Date: 01.08.2021 16:21:05; Version: 2.1.4]
[CTDB TOCID: GNVrqdgPfE8TDHEjCS1Ipjbygww-] found.
Track | CTDB Status
1 | (3/3) Accurately ripped
2 | (3/3) Accurately ripped
3 | (3/3) Accurately ripped
4 | (3/3) Accurately ripped
5 | (3/3) Accurately ripped
6 | (3/3) Accurately ripped
7 | (3/3) Accurately ripped
8 | (3/3) Accurately ripped
9 | (3/3) Accurately ripped
10 | (3/3) Accurately ripped
11 | (3/3) Accurately ripped
12 | (3/3) Accurately ripped
13 | (3/3) Accurately ripped
14 | (3/3) Accurately ripped
15 | (3/3) Accurately ripped
16 | (3/3) Accurately ripped
[AccurateRip ID: 0026b68f-01d90662-d30f8010] found.
Track [ CRC | V2 ] Status
01 [59f591c6|788b467e] (0+2/2) Accurately ripped
02 [88e81b04|18c0a690] (0+2/2) Accurately ripped
03 [babab030|3a3a5d29] (0+2/2) Accurately ripped
04 [eb07896b|de17d5bd] (0+2/2) Accurately ripped
05 [a4c3fb03|01a83a57] (0+2/2) Accurately ripped
06 [0ca1cb5d|74cdccea] (0+2/2) Accurately ripped
07 [67a51cca|78f69f43] (0+2/2) Accurately ripped
08 [95f52273|c14d19b7] (0+2/2) Accurately ripped
09 [be9011e4|fc5c322d] (0+2/2) Accurately ripped
10 [54714627|09838693] (0+2/2) Accurately ripped
11 [836145c3|e0c43cf5] (0+2/2) Accurately ripped
12 [8b30b325|9ae3c1c3] (0+2/2) Accurately ripped
13 [df026c4d|f691aee8] (0+2/2) Accurately ripped
14 [cc6a40f7|3a685b59] (0+2/2) Accurately ripped
15 [4f1907a7|ff074a86] (0+2/2) Accurately ripped
16 [35d173db|d3c582c5] (0+2/2) Accurately ripped

Track Peak [ CRC32 ] [W/O NULL] [ LOG ]
– 98,8 [976F3D73] [3B6841D1] CRC32
01 98,8 [D687B37A] [6E2BDF94]
02 98,8 [7D299811] [F3474BA3]
03 98,8 [2F9C62C9] [8A94BA44]
04 98,8 [4ED8B7D8] [D63A1F38]
05 98,8 [A06D3AEE] [CB45817D]
06 98,8 [ADF8D169] [852A37E1]
07 98,8 [3F63D8F5] [4E54D7B2]
08 98,8 [0B1E7C27] [22C2F21A]
09 98,8 [1179E022] [CD3F7F2A]
10 98,8 [3C500706] [F16B4B59]
11 98,8 [52008FD6] [F6D9FD46]
12 92,2 [A51C894C] [BC8E3CF2]
13 91,2 [AC8BD986] [3A426450]
14 92,2 [9121B78D] [F776D301]
15 90,8 [4FED6126] [B1313AAD]
16 92,1 [D46FEF8C] [57E1D4B3]

Mastodon - 6 Studio Albums (2002-2014) (Re-up)

Mastodon - Leviathan (2004) [Japanese Edition]
EAC Rip | FLAC (image+.cue+log) - 458 MB | MP3 CBR 320 kbps (LAME 3.93) - 142 MB | Covers - 96 MB
Genre: Progressive Metal, Sludge Metal | RAR 3% Rec. | Label: Howling Bull Entertainment (HWCY-1182)

Tracklist:
01. Blood and Thunder
02. I Am Ahab
03. Seabeast
04. Island
05. Iron Tusk
06. Megalodon
07. Naked Burn
08. Aqua Dementia
09. Hearts Alive
10. Joseph Merrick

Bonus Live Tracks:
11. Where Strides the Behemoth
12. Battle at Sea
13. Thank You for This/We Built This Come Death
14. Crusher Destroyer

Total time: 01:00:28

Exact Audio Copy V1.0 beta 3 from 29. August 2011

EAC extraction logfile from 25. January 2012, 21:08

Mastodon / Leviathan [Japan]

Used drive : LITE-ON DVDRW LH-20A1L Adapter: 4 ID: 0

Read mode : Secure
Utilize accurate stream : Yes
Defeat audio cache : Yes
Make use of C2 pointers : No

Read offset correction : 6
Overread into Lead-In and Lead-Out : No
Fill up missing offset samples with silence : Yes
Delete leading and trailing silent blocks : No
Null samples used in CRC calculations : Yes
Used interface : Installed external ASPI interface

Used output format : Internal WAV Routines
Sample format : 44.100 Hz; 16 Bit; Stereo


TOC of the extracted CD

Track | Start | Length | Start sector | End sector
––––––––––––––––––––––––––––-
1 | 0:00.00 | 3:48.44 | 0 | 17143
2 | 3:48.44 | 2:45.64 | 17144 | 29582
3 | 6:34.33 | 4:15.18 | 29583 | 48725
4 | 10:49.51 | 3:26.35 | 48726 | 64210
5 | 14:16.11 | 3:03.01 | 64211 | 77936
6 | 17:19.12 | 4:22.68 | 77937 | 97654
7 | 21:42.05 | 3:42.20 | 97655 | 114324
8 | 25:24.25 | 4:10.32 | 114325 | 133106
9 | 29:34.57 | 13:39.60 | 133107 | 194591
10 | 43:14.42 | 3:35.02 | 194592 | 210718
11 | 46:49.44 | 3:18.34 | 210719 | 225602
12 | 50:08.03 | 4:12.18 | 225603 | 244520
13 | 54:20.21 | 4:01.23 | 244521 | 262618
14 | 58:21.44 | 2:06.32 | 262619 | 272100


Range status and errors

Selected range

Filename Z:\data2\Seeding Archive\Mastodon\2004-Leviathan [Japan]\Leviathan (Japan).wav

Peak level 100.0 %
Extraction speed 8.9 X
Range quality 100.0 %
Test CRC C694432E
Copy CRC C694432E
Copy OK

No errors occurred


AccurateRip summary

Track 1 accurately ripped (confidence 2) [D354380E] (AR v1)
Track 2 accurately ripped (confidence 2) [0E8AB727] (AR v1)
Track 3 accurately ripped (confidence 2) [1E6A4645] (AR v1)
Track 4 accurately ripped (confidence 1) [147E873C] (AR v1)
Track 5 accurately ripped (confidence 2) [D020A92B] (AR v1)
Track 6 accurately ripped (confidence 2) [1078AABC] (AR v1)
Track 7 accurately ripped (confidence 2) [0BE23625] (AR v1)
Track 8 accurately ripped (confidence 2) [1CF93396] (AR v1)
Track 9 accurately ripped (confidence 2) [F0954B72] (AR v1)
Track 10 accurately ripped (confidence 1) [D6969FF8] (AR v1)
Track 11 accurately ripped (confidence 1) [809938DA] (AR v1)
Track 12 accurately ripped (confidence 1) [8251BD7C] (AR v1)
Track 13 accurately ripped (confidence 1) [512FD1FB] (AR v1)
Track 14 accurately ripped (confidence 1) [4F253A92] (AR v1)

All tracks accurately ripped

End of status report

==== Log checksum 01FE834BEF041CD6B080FA3EB27175942BAD2D089A20879E738B7A270167B36C ====

[CUETools log; Date: 01.08.2021 16:24:25; Version: 2.1.4]
[CTDB TOCID: AFpsOcstZhvDMF0s9zUMkHtuTm4-] found.
Track | CTDB Status
1 | (19/19) Accurately ripped
2 | (19/19) Accurately ripped
3 | (19/19) Accurately ripped
4 | (19/19) Accurately ripped
5 | (19/19) Accurately ripped
6 | (19/19) Accurately ripped
7 | (19/19) Accurately ripped
8 | (19/19) Accurately ripped
9 | (19/19) Accurately ripped
10 | (19/19) Accurately ripped
11 | (19/19) Accurately ripped
12 | (19/19) Accurately ripped
13 | (19/19) Accurately ripped
14 | (17/19) Accurately ripped
[AccurateRip ID: 001e688b-014cce62-a90e2c0e] found.
Track [ CRC | V2 ] Status
01 [d354380e|072c4e11] (2+5/7) Accurately ripped
02 [0e8ab727|87ab2d29] (2+5/7) Accurately ripped
03 [1e6a4645|213c3324] (2+5/7) Accurately ripped
04 [147e873c|c1f6cce8] (0+5/5) Accurately ripped
05 [d020a92b|d81c43c5] (2+5/7) Accurately ripped
06 [1078aabc|01c6f439] (2+5/7) Accurately ripped
07 [0be23625|28271db1] (2+5/7) Accurately ripped
08 [1cf93396|59dd9680] (2+5/7) Accurately ripped
09 [f0954b72|c29014a0] (2+5/7) Accurately ripped
10 [d6969ff8|a0e4ef44] (0+5/5) Accurately ripped
11 [809938da|f47264ef] (0+5/5) Accurately ripped
12 [8251bd7c|c2a324dd] (0+5/5) Accurately ripped
13 [512fd1fb|e6f9d43c] (0+5/5) Accurately ripped
14 [4f253a92|3cb86be4] (0+5/5) Accurately ripped

Track Peak [ CRC32 ] [W/O NULL] [ LOG ]
– 100,0 [C694432E] [CB9AC38F] CRC32
01 99,1 [43BDB6B7] [4407194B]
02 99,1 [C74EDF97] [EBE58CCE]
03 99,1 [A0B0666A] [9E53B1DD]
04 100,0 [17EF9265] [9564BD6D]
05 99,1 [390F2FCC] [5A88AE17]
06 89,5 [5A951801] [0C64E88C]
07 99,1 [294AB42A] [4FDED14F]
08 99,1 [560C658C] [2BB9B478]
09 99,1 [2610DFE6] [9E7017BD]
10 98,8 [BA6B825E] [C1BD52E4]
11 100,0 [2D8C2747] [82D5B57A]
12 100,0 [C0CE36F2] [7E21F1E3]
13 100,0 [B6748C72] [D9938FA1]
14 100,0 [83336ED7] [DAAD87E9]

Mastodon - 6 Studio Albums (2002-2014) (Re-up)

Mastodon - Blood Mountain (2006) [Japanese Edition]
EAC Rip | FLAC (image+.cue+log) - 411 MB | MP3 CBR 320 kbps (LAME 3.93) - 169 MB | Covers - 92 MB
Genre: Progressive Metal | RAR 3% Rec. | Label: Warner Music Japan (WPCR-12457)

Tracklist:
01. The Wolf Is Loose
02. Crystal Skull
03. Sleeping Giant
04. Capillarian Crest
05. Circle Of the Cysquatch
06. Bladecatcher
07. Colony Of Birchmen
08. Hunters Of The Sky
09. Hand Of Stone
10. This Mortal Soil
11. Siberian Divide
12. Pendulous Skin
13. Crystal Skull (Live, Bonus Track)

Total time: 01:11:43

Exact Audio Copy V1.0 beta 3 from 29. August 2011

EAC extraction logfile from 30. December 2011, 22:50

Mastodon / Blood Mountain (Japanese Edition)

Used drive : PLEXTOR CD-R PX-240A Adapter: 3 ID: 1

Read mode : Secure
Utilize accurate stream : Yes
Defeat audio cache : Yes
Make use of C2 pointers : No

Read offset correction : 6
Overread into Lead-In and Lead-Out : No
Fill up missing offset samples with silence : Yes
Delete leading and trailing silent blocks : No
Null samples used in CRC calculations : Yes
Used interface : Installed external ASPI interface

Used output format : Internal WAV Routines
Sample format : 44.100 Hz; 16 Bit; Stereo


TOC of the extracted CD

Track | Start | Length | Start sector | End sector
––––––––––––––––––––––––––––-
1 | 0:00.00 | 3:34.12 | 0 | 16061
2 | 3:34.12 | 3:27.18 | 16062 | 31604
3 | 7:01.30 | 5:36.22 | 31605 | 56826
4 | 12:37.52 | 4:25.10 | 56827 | 76711
5 | 17:02.62 | 3:19.18 | 76712 | 91654
6 | 20:22.05 | 3:20.40 | 91655 | 106694
7 | 23:42.45 | 4:19.52 | 106695 | 126171
8 | 28:02.22 | 3:52.28 | 126172 | 143599
9 | 31:54.50 | 3:30.65 | 143600 | 159414
10 | 35:25.40 | 5:00.35 | 159415 | 181949
11 | 40:26.00 | 5:32.25 | 181950 | 206874
12 | 45:58.25 | 5:07.51 | 206875 | 229950
13 | 51:06.01 | 20:36.66 | 229951 | 322716


Range status and errors

Selected range

Filename Z:\data\mp3\Seeding Archive\Mastodon\2006-Blood Mountain [Japan]\Blood Mountain (Japanese Edition).wav

Peak level 100.0 %
Extraction speed 7.1 X
Range quality 100.0 %
Test CRC E3BBBA28
Copy CRC E3BBBA28
Copy OK

No errors occurred


AccurateRip summary

Track 1 accurately ripped (confidence 4) [0886E712] (AR v1)
Track 2 accurately ripped (confidence 4) [572344EC] (AR v1)
Track 3 accurately ripped (confidence 4) [D759A405] (AR v1)
Track 4 accurately ripped (confidence 4) [EE7BABAC] (AR v1)
Track 5 accurately ripped (confidence 4) [83686EB4] (AR v1)
Track 6 accurately ripped (confidence 3) [C1D94027] (AR v1)
Track 7 accurately ripped (confidence 4) [21E18F75] (AR v1)
Track 8 accurately ripped (confidence 3) [82C4055F] (AR v1)
Track 9 accurately ripped (confidence 4) [83C65044] (AR v1)
Track 10 accurately ripped (confidence 4) [BC13283A] (AR v1)
Track 11 accurately ripped (confidence 4) [6D5A1C56] (AR v1)
Track 12 accurately ripped (confidence 3) [4DB4A1C3] (AR v1)
Track 13 accurately ripped (confidence 3) [BF6F0643] (AR v1)

All tracks accurately ripped

End of status report

==== Log checksum 07138301BFA19A31765928E552FD4A2D5FACAAB8B4D7A87A80839DE45096A1C6 ====

[CUETools log; Date: 01.08.2021 16:25:35; Version: 2.1.4]
[CTDB TOCID: r4y.VpKG3P1G2rfGv79VJbynqJk-] found.
Track | CTDB Status
1 | (34/34) Accurately ripped
2 | (34/34) Accurately ripped
3 | (34/34) Accurately ripped
4 | (34/34) Accurately ripped
5 | (34/34) Accurately ripped
6 | (34/34) Accurately ripped
7 | (34/34) Accurately ripped
8 | (34/34) Accurately ripped
9 | (34/34) Accurately ripped
10 | (34/34) Accurately ripped
11 | (34/34) Accurately ripped
12 | (34/34) Accurately ripped
13 | (34/34) Accurately ripped
[AccurateRip ID: 001ab4dc-01117758-a410ce0d] found.
Track [ CRC | V2 ] Status
01 [0886e712|d565fd31] (04+10/14) Accurately ripped
02 [572344ec|179f6bc1] (04+11/15) Accurately ripped
03 [d759a405|c30e4ac8] (04+11/15) Accurately ripped
04 [ee7babac|e7e57d1a] (04+11/15) Accurately ripped
05 [83686eb4|1b742a8a] (04+11/15) Accurately ripped
06 [c1d94027|0f661383] (03+11/14) Accurately ripped
07 [21e18f75|eb18a2c0] (04+11/15) Accurately ripped
08 [82c4055f|6773372e] (03+11/14) Accurately ripped
09 [83c65044|a7af2f43] (04+11/15) Accurately ripped
10 [bc13283a|84f6376b] (04+11/15) Accurately ripped
11 [6d5a1c56|806d7a4a] (04+11/15) Accurately ripped
12 [4db4a1c3|5247a7a4] (03+11/14) Accurately ripped
13 [bf6f0643|a061200d] (03+11/14) Accurately ripped

Track Peak [ CRC32 ] [W/O NULL] [ LOG ]
– 100,0 [E3BBBA28] [CA5A079D] CRC32
01 100,0 [E4CE4578] [BF363C8B]
02 100,0 [AF8B4062] [B2252375]
03 100,0 [43D55FBC] [7EFFD7D9]
04 100,0 [615289A3] [FB96D5BC]
05 100,0 [C0D85DB1] [B8D4A058]
06 100,0 [ACC9D3D4] [8B3A23AD]
07 100,0 [61B08A11] [14C0E4FA]
08 100,0 [860BCC4A] [CA6B851D]
09 100,0 [48CC188A] [C6C3C47D]
10 100,0 [D5094729] [6F044F94]
11 100,0 [FEF672F2] [A337CB3F]
12 100,0 [8B475779] [785698EB]
13 98,8 [BA83414B] [2C8D73DF]

Mastodon - 6 Studio Albums (2002-2014) (Re-up)

Mastodon - Crack The Skye (2009) [Japanese Edition]
EAC Rip | FLAC (image+.cue+log) - 403 MB | MP3 CBR 320 kbps (LAME 3.93) - 126 MB | Covers - 67 MB
Genre: Progressive Metal | RAR 3% Rec. | Label: Warner Music Japan (WPCR-13301)

Tracklist:
01. Oblivion
02. Divinations
03. Quintessence
04. The Czar
(I) Usurper
(II) Escape
(III) Martyr
(IV) Spiral
05. Ghost of Karelia
06. Crack The Skye
07. The Last Baron
08. Just Got Paid (ZZ Top cover, Bonus track)

Total time: 53:42

Exact Audio Copy V1.0 beta 3 from 29. August 2011

EAC extraction logfile from 17. January 2012, 23:57

Mastodon / Crack The Skye [Japan]

Used drive : LITE-ON DVDRW LH-20A1L Adapter: 4 ID: 0

Read mode : Secure
Utilize accurate stream : Yes
Defeat audio cache : Yes
Make use of C2 pointers : No

Read offset correction : 6
Overread into Lead-In and Lead-Out : No
Fill up missing offset samples with silence : Yes
Delete leading and trailing silent blocks : No
Null samples used in CRC calculations : Yes
Used interface : Installed external ASPI interface

Used output format : Internal WAV Routines
Sample format : 44.100 Hz; 16 Bit; Stereo


TOC of the extracted CD

Track | Start | Length | Start sector | End sector
––––––––––––––––––––––––––––-
1 | 0:00.00 | 5:46.42 | 0 | 25991
2 | 5:46.42 | 3:38.66 | 25992 | 42407
3 | 9:25.33 | 5:27.36 | 42408 | 66968
4 | 14:52.69 | 10:54.22 | 66969 | 116040
5 | 25:47.16 | 5:24.59 | 116041 | 140399
6 | 31:12.00 | 5:54.23 | 140400 | 166972
7 | 37:06.23 | 13:01.60 | 166973 | 225607
8 | 50:08.08 | 3:33.63 | 225608 | 241645


Range status and errors

Selected range

Filename Z:\data2\Seeding Archive\Mastodon\2009-Crack The Skye [Japan]\Crack The Skye (Japan).wav

Peak level 100.0 %
Extraction speed 3.6 X
Range quality 100.0 %
Test CRC C3ABC6F4
Copy CRC C3ABC6F4
Copy OK

No errors occurred


AccurateRip summary

Track 1 accurately ripped (confidence 3) [7969308C] (AR v1)
Track 2 accurately ripped (confidence 3) [8F592C84] (AR v1)
Track 3 accurately ripped (confidence 3) [EF95D45A] (AR v1)
Track 4 accurately ripped (confidence 3) [3C95EFC1] (AR v1)
Track 5 accurately ripped (confidence 3) [4C6F699D] (AR v1)
Track 6 accurately ripped (confidence 3) [F3FD5DFF] (AR v1)
Track 7 accurately ripped (confidence 3) [ABB4D91E] (AR v1)
Track 8 accurately ripped (confidence 3) [CE5CAC12] (AR v1)

All tracks accurately ripped

End of status report

==== Log checksum 497E245746FBB191A07F5CF55A399926347039AA9DCB9EB5A450DD5C45370111 ====

[CUETools log; Date: 01.08.2021 16:27:18; Version: 2.1.4]
[CTDB TOCID: CqO_U54Dpg8kY1CXLNultAxZAIM-] found.
Track | CTDB Status
1 | (37/38) Accurately ripped
2 | (37/38) Accurately ripped
3 | (37/38) Accurately ripped
4 | (37/38) Accurately ripped
5 | (37/38) Accurately ripped
6 | (38/38) Accurately ripped
7 | (38/38) Accurately ripped
8 | (37/38) Accurately ripped
[AccurateRip ID: 000fa7f5-006b16c3-710c9508] found.
Track [ CRC | V2 ] Status
01 [7969308c|51d61252] (03+10/13) Accurately ripped
02 [8f592c84|2b1575b4] (03+10/13) Accurately ripped
03 [ef95d45a|110ef8ed] (03+10/13) Accurately ripped
04 [3c95efc1|e973cf54] (03+10/13) Accurately ripped
05 [4c6f699d|3515a700] (03+10/13) Accurately ripped
06 [f3fd5dff|999a95b8] (03+10/13) Accurately ripped
07 [abb4d91e|f6a62d62] (03+10/13) Accurately ripped
08 [ce5cac12|28a9cbf6] (03+10/13) Accurately ripped

Track Peak [ CRC32 ] [W/O NULL] [ LOG ]
– 100,0 [C3ABC6F4] [7B048B5B] CRC32
01 100,0 [E91141A3] [3FEFC761]
02 100,0 [0F89829E] [60494E13]
03 100,0 [A2266060] [C53C0177]
04 100,0 [BEE4C222] [3BA45C9A]
05 100,0 [C7B698E3] [3F7CAD86]
06 100,0 [6908B332] [843BD6B0]
07 100,0 [8603643F] [638830C6]
08 99,9 [A6A7E4DD] [5797DD46]

Mastodon - 6 Studio Albums (2002-2014) (Re-up)

Mastodon - The Hunter (2011) [Japanese Edition]
EAC Rip | FLAC (image+.cue+log) - 420 MB | MP3 CBR 320 kbps (LAME 3.93) - 131 MB | Covers - 58 MB
Genre: Progressive Metal | RAR 3% Rec. | Label: Warner Music Japan (WPCR-14236)

Tracklist:
01. Black Tongue
02. Curl Of The Burl
03. Blasteroid
04. Stargasm
05. Octopus Has No Friends
06. All The Heavy Lifting
07. The Hunter
08. Dry Bone Valley
09. Thickening
10. Creature Lives
11. Spectrelight
12. Bedazzled Fingernails
13. The Sparrow
14. Deathbound (Bonus track)

Total time: 55:51

Exact Audio Copy V1.0 beta 2 from 29. April 2011

EAC extraction logfile from 17. January 2012, 15:36

Mastodon / The Hunter (Japan)

Used drive : TSSTcorpCDRWDVD TS-H492C Adapter: 0 ID: 0

Read mode : Secure
Utilize accurate stream : Yes
Defeat audio cache : Yes
Make use of C2 pointers : No

Read offset correction : 6
Overread into Lead-In and Lead-Out : No
Fill up missing offset samples with silence : Yes
Delete leading and trailing silent blocks : No
Null samples used in CRC calculations : Yes
Used interface : Native Win32 interface for Win NT & 2000

Used output format : Internal WAV Routines
Sample format : 44.100 Hz; 16 Bit; Stereo


TOC of the extracted CD

Track | Start | Length | Start sector | End sector
––––––––––––––––––––––––––––-
1 | 0:00.00 | 3:27.24 | 0 | 15548
2 | 3:27.24 | 3:40.10 | 15549 | 32058
3 | 7:07.34 | 2:35.54 | 32059 | 43737
4 | 9:43.13 | 4:39.63 | 43738 | 64725
5 | 14:23.01 | 3:48.52 | 64726 | 81877
6 | 18:11.53 | 4:31.06 | 81878 | 102208
7 | 22:42.59 | 5:17.54 | 102209 | 126037
8 | 28:00.38 | 3:59.67 | 126038 | 144029
9 | 32:00.30 | 4:30.46 | 144030 | 164325
10 | 36:31.01 | 4:41.15 | 164326 | 185415
11 | 41:12.16 | 3:09.70 | 185416 | 199660
12 | 44:22.11 | 3:08.20 | 199661 | 213780
13 | 47:30.31 | 5:32.65 | 213781 | 238745
14 | 53:03.21 | 2:48.09 | 238746 | 251354


Range status and errors

Selected range

Filename P:\Music\Mastodon - The Hunter (Japan)\The Hunter (Japan).wav

Peak level 100.0 %
Extraction speed 7.8 X
Range quality 100.0 %
Test CRC 332FEF23
Copy CRC 332FEF23
Copy OK

No errors occurred


AccurateRip summary

Track 1 not present in database
Track 2 not present in database
Track 3 not present in database
Track 4 not present in database
Track 5 not present in database
Track 6 not present in database
Track 7 not present in database
Track 8 not present in database
Track 9 not present in database
Track 10 not present in database
Track 11 not present in database
Track 12 not present in database
Track 13 not present in database
Track 14 not present in database

None of the tracks are present in the AccurateRip database

End of status report

==== Log checksum C47CBB76C6530766121649113AF2DBBA137A51AF100AE84AD434458FE533FFC0 ====

[CUETools log; Date: 01.08.2021 16:28:29; Version: 2.1.4]
[CTDB TOCID: kV4eqUwdvbXQjbrOsb57sr_dOBs-] found.
Track | CTDB Status
1 | (22/22) Accurately ripped
2 | (22/22) Accurately ripped
3 | (22/22) Accurately ripped
4 | (22/22) Accurately ripped
5 | (22/22) Accurately ripped
6 | (22/22) Accurately ripped
7 | (22/22) Accurately ripped
8 | (22/22) Accurately ripped
9 | (22/22) Accurately ripped
10 | (22/22) Accurately ripped
11 | (22/22) Accurately ripped
12 | (22/22) Accurately ripped
13 | (22/22) Accurately ripped
14 | (22/22) Accurately ripped
[AccurateRip ID: 001c6f58-0132d24d-cf0d170e] found.
Track [ CRC | V2 ] Status
01 [8b58d555|e88cc397] (0+7/7) Accurately ripped
02 [68131352|cb2c0d7b] (0+7/7) Accurately ripped
03 [b2dcd385|a7d13360] (0+7/7) Accurately ripped
04 [01f42b25|2d846dcf] (0+7/7) Accurately ripped
05 [1223bcc6|6071cd9d] (0+7/7) Accurately ripped
06 [fd46ee59|8d1cd440] (0+7/7) Accurately ripped
07 [0f97a865|d5373466] (0+7/7) Accurately ripped
08 [5911785b|50e8b2bb] (0+7/7) Accurately ripped
09 [8dc7c807|c1785021] (0+7/7) Accurately ripped
10 [216ca63c|0c8073f0] (0+7/7) Accurately ripped
11 [820795aa|1277141d] (0+7/7) Accurately ripped
12 [86a19775|2307a213] (0+7/7) Accurately ripped
13 [f3f40153|3a7f4be2] (0+7/7) Accurately ripped
14 [a3cc6321|e25e1c41] (0+7/7) Accurately ripped

Track Peak [ CRC32 ] [W/O NULL] [ LOG ]
– 100,0 [332FEF23] [086AFEAE] CRC32
01 100,0 [7FB076CD] [804E6AF6]
02 100,0 [255B9812] [3B041AB1]
03 100,0 [3CE8860B] [A94B858C]
04 100,0 [41DA6B9F] [85F17220]
05 100,0 [CF9C45B6] [0B00D627]
06 100,0 [75AB064F] [EE0A6937]
07 100,0 [B35D5D92] [1CA29ECB]
08 100,0 [7A6F9792] [21E186D0]
09 100,0 [A9554996] [904F6FDA]
10 100,0 [62833C1D] [F60BC301]
11 100,0 [A8E79CB0] [EA4D7016]
12 100,0 [14C247F1] [F0B40D97]
13 100,0 [F634A52E] [6BC60606]
14 100,0 [4495C309] [539C0C18]

Mastodon - 6 Studio Albums (2002-2014) (Re-up)

Mastodon - Once More 'Round The Sun (2014)
EAC Rip | FLAC (image+.cue+log) - 417 MB | MP3 CBR 320 kbps (LAME 3.93) - 127 MB | Covers - 107 MB
Genre: Progressive Metal | RAR 3% Rec. | Label: Reprise Records (2-543021)

Tracklist:
01. Tread Lightly
02. The Motherload
03. High Road
04. Once More 'Round The Sun
05. Chimes At Midnight
06. Asleep In The Deep
07. Feast Your Eyes
08. Aunt Lisa
09. Ember City
10. Halloween
11. Diamond In The Witch House

Total time: 54:12

Exact Audio Copy V1.0 beta 3 from 29. August 2011

EAC extraction logfile from 25. July 2014, 11:32

Mastodon / Once More 'Round The Sun

Used drive : LITE-ON DVDRW LH-20A1L Adapter: 6 ID: 0

Read mode : Secure
Utilize accurate stream : Yes
Defeat audio cache : Yes
Make use of C2 pointers : No

Read offset correction : 6
Overread into Lead-In and Lead-Out : No
Fill up missing offset samples with silence : Yes
Delete leading and trailing silent blocks : No
Null samples used in CRC calculations : Yes
Used interface : Installed external ASPI interface

Used output format : Internal WAV Routines
Sample format : 44.100 Hz; 16 Bit; Stereo


TOC of the extracted CD

Track | Start | Length | Start sector | End sector
––––––––––––––––––––––––––––-
1 | 0:00.00 | 5:14.03 | 0 | 23552
2 | 5:14.03 | 4:59.59 | 23553 | 46036
3 | 10:13.62 | 4:15.35 | 46037 | 65196
4 | 14:29.22 | 2:58.71 | 65197 | 78617
5 | 17:28.18 | 5:32.04 | 78618 | 103521
6 | 23:00.22 | 6:12.48 | 103522 | 131469
7 | 29:12.70 | 3:23.70 | 131470 | 146764
8 | 32:36.65 | 4:08.15 | 146765 | 165379
9 | 36:45.05 | 4:59.05 | 165380 | 187809
10 | 41:44.10 | 4:39.04 | 187810 | 208738
11 | 46:23.14 | 7:49.01 | 208739 | 243914


Range status and errors

Selected range

Filename Z:\data\hexonut\Seeding\Mastodon\2014-Once More 'Round The Sun\2014-Reprise Records [US, 2-543021]\Once More 'Round The Sun.wav

Peak level 100.0 %
Extraction speed 8.8 X
Range quality 100.0 %
Test CRC 561EF463
Copy CRC 561EF463
Copy OK

No errors occurred


AccurateRip summary

Track 1 accurately ripped (confidence 5) [BEC5A4B1] (AR v2)
Track 2 accurately ripped (confidence 5) [FF0DE64A] (AR v2)
Track 3 accurately ripped (confidence 5) [6B52E042] (AR v2)
Track 4 accurately ripped (confidence 5) [A3460257] (AR v2)
Track 5 accurately ripped (confidence 5) [E68DCE1B] (AR v2)
Track 6 accurately ripped (confidence 5) [5D4FD6FA] (AR v2)
Track 7 accurately ripped (confidence 5) [EB64079F] (AR v2)
Track 8 accurately ripped (confidence 5) [51CA3719] (AR v2)
Track 9 accurately ripped (confidence 5) [F0FD2C89] (AR v2)
Track 10 accurately ripped (confidence 5) [723D4FA1] (AR v2)
Track 11 accurately ripped (confidence 5) [37230166] (AR v2)

All tracks accurately ripped

End of status report

==== Log checksum 6998FEB57540079EB7C0AE95E9BD072395598C0F55AF222A13949BFB40F8D064 ====

[CUETools log; Date: 01.08.2021 16:29:00; Version: 2.1.4]
[CTDB TOCID: mkEC5dvJib_QdePJvKmS3ZVCO8U-] found.
Track | CTDB Status
1 | (1064/1066) Accurately ripped
2 | (1064/1066) Accurately ripped
3 | (1061/1066) Accurately ripped
4 | (1063/1066) Accurately ripped
5 | (1059/1066) Accurately ripped
6 | (1060/1066) Accurately ripped
7 | (1063/1066) Accurately ripped
8 | (1062/1066) Accurately ripped
9 | (1061/1066) Accurately ripped
10 | (1062/1066) Accurately ripped
11 | (1059/1066) Accurately ripped
[AccurateRip ID: 001560ae-00b94e8b-920cb40b] found.
Track [ CRC | V2 ] Status
01 [71869452|bec5a4b1] (008+195/351) Accurately ripped
02 [7909f144|ff0de64a] (009+195/356) Accurately ripped
03 [2db3f72a|6b52e042] (009+195/353) Accurately ripped
04 [2a3476e5|a3460257] (009+195/353) Accurately ripped
05 [6ce88712|e68dce1b] (009+195/353) Accurately ripped
06 [e37afb92|5d4fd6fa] (009+195/353) Accurately ripped
07 [5012d88b|eb64079f] (009+195/353) Accurately ripped
08 [e2f0800d|51ca3719] (009+195/353) Accurately ripped
09 [e3b0956b|f0fd2c89] (009+195/353) Accurately ripped
10 [d358d88c|723d4fa1] (009+195/352) Accurately ripped
11 [37457a1d|37230166] (009+195/352) Accurately ripped
Offsetted by -6:
01 [e3b65108] (002/351) Accurately ripped
02 [eca2fb88] (002/356) Accurately ripped
03 [c7d19164] (002/353) Accurately ripped
04 [5a866d15] (002/353) Accurately ripped
05 [069f3b4a] (002/353) Accurately ripped
06 [c67d6118] (002/353) Accurately ripped
07 [1001486f] (002/353) Accurately ripped
08 [34f6915d] (002/353) Accurately ripped
09 [072c73c5] (002/353) Accurately ripped
10 [644600fc] (002/352) Accurately ripped
11 [d763c933] (002/352) Accurately ripped
Offsetted by -682:
01 [b750a97f] (000/351) No match (V2 was not tested)
02 [0a93fd6d] (000/356) No match (V2 was not tested)
03 [462e1c40] (000/353) No match (V2 was not tested)
04 [9e98c635] (000/353) No match (V2 was not tested)
05 [025d369a] (000/353) No match (V2 was not tested)
06 [598b64bc] (000/353) No match (V2 was not tested)
07 [884686c7] (000/353) No match (V2 was not tested)
08 [f8f7853d] (000/353) No match (V2 was not tested)
09 [4fb04f61] (000/353) No match (V2 was not tested)
10 [d750779c] (000/352) No match (V2 was not tested)
11 [4f654237] (000/352) No match (V2 was not tested)
Offsetted by -12:
01 [b3980492] (000/351) No match (V2 was not tested)
02 [606c05dc] (000/356) No match (V2 was not tested)
03 [61ef2b9e] (000/353) No match (V2 was not tested)
04 [8ad86345] (000/353) No match (V2 was not tested)
05 [a055ef82] (000/353) No match (V2 was not tested)
06 [a97fc69e] (000/353) No match (V2 was not tested)
07 [cfefb853] (000/353) No match (V2 was not tested)
08 [86fca2ad] (000/353) No match (V2 was not tested)
09 [2aa8521f] (000/353) No match (V2 was not tested)
10 [f533296c] (000/352) No match (V2 was not tested)
11 [77821849] (000/352) No match (V2 was not tested)

Track Peak [ CRC32 ] [W/O NULL] [ LOG ]
– 100,0 [561EF463] [20061853] CRC32
01 100,0 [9989D1AB] [0C01EB47]
02 100,0 [17698F99] [1A59B949]
03 100,0 [35DF1506] [03C3823F]
04 100,0 [4389C027] [7DA05FAF]
05 100,0 [10C50415] [4289409B]
06 100,0 [F46AC9C9] [C864D933]
07 99,4 [0813C2D2] [FA604FF8]
08 100,0 [D576FEDD] [57173CC9]
09 100,0 [7220089B] [363960C5]
10 100,0 [32E5B87C] [6F15EDA5]
11 100,0 [91084DEB] [A7E4CDE5]

Thanks to hexonut