Tags
Language
Tags

Matching Mole - 2 Studio Albums (1972) [Deluxe Editions 2012] (Re-up)

Posted By: gribovar
Matching Mole - 2 Studio Albums (1972) [Deluxe Editions 2012] (Re-up)

Matching Mole - 2 Studio Albums (1972) [Deluxe Editions 2012]
EAC Rip | FLAC (image+.cue+log) - 1,09 GB | MP3 CBR 320 kbps (LAME 3.93) - 508 MB | Covers - 242 MB
Genre: Progressive Rock/Canterbury Scene | RAR 3% Rec. | Label: Esoteric Recordings

This was a short lived, but essential band in the annals of what's called the Canterbury Sound, created by British progressive ensembles in the late sixties and early seventies. The band was formed when Robert Wyatt was ousted from Soft Machine, which he'd founded in the mid-sixties. "Matching Mole" was a wonderful debut that included tracks such as 'O Caroline', 'Signed Curtain' and 'Part of the Dance'. This edition has been newly remastered from the original master tapes and is expanded to include five previously unreleased studio session alternate takes, the single versions of 'O Caroline' and 'Signed Curtain', along with two BBC Radio One sessions from 1972.

"Little Red Record" was Matching Mole's second album, recorded in August 1972 and was produced by King Crimson leader Robert Fripp. This edition has been newly remastered from the original master tapes and is expanded to include four previously unreleased studio session alternate takes and Matching Mole's appearance on BBC Radio One In Concert in July 1972.

Matching Mole - 2 Studio Albums (1972) [Deluxe Editions 2012] (Re-up)

Matching Mole - Matching Mole (1972) [2CD Deluxe Edition 2012]
EAC Rip | FLAC (image+.cue+log) - 675 MB | MP3 CBR 320 kbps (LAME 3.93) - 296 MB | Covers - 77 MB
Genre: Progressive Rock/Canterbury Scene | RAR 3% Rec. | Label: Esoteric Recordings (ECLEC 22311)

CD 1 Tracklist:
01. O Caroline
02. Instant Pussy
03. Signed Curtain
04. Part Of The Dance
05. Instant Kitten
06. Dedicated To Hugh, But You Weren’t Listening
07. Beer As In Braindeer
08. Immediate Curtain
09. O Caroline (Single version, Bonus track)
10. Signed Curtain (Single edit, Bonus track)
11. Part Of The Dance Jam (Previously unreleased, Bonus track)

Total time: 01:07:52

CD 2 Tracklist:
01. Signed Curtain (Take two, Previously unreleased)
02. Memories Membrane (Previously unreleased)
03. Part Of The Dance (Take one, Previously unreleased)
04. Horse (Previously unreleased)
05. Immediate Kitten (John Peel Show, January 1972)
06. Marchides/Instant Pussy/Smoke Signal (John Peel Show, April 1972)

Total time: 57:46

Exact Audio Copy V0.99 prebeta 4 from 23. January 2008

Отчёт EAC об извлечении, выполненном 31. марта 2012, 19:02

MATCHING MOLE / Matching Mole

Дисковод: TSSTcorpCD/DVDW SH-S183A Adapter: 4 ID: 1

Режим чтения : Достоверность
Использование точного потока : Да
Отключение кэша аудио : Да
Использование указателей C2 : Нет

Коррекция смещения при чтении : 6
Способность читать области Lead-in и Lead-out : Нет
Заполнение пропущенных сэмплов тишиной : Да
Удаление блоков с тишиной в начале и конце : Нет
При вычислениях CRC использовались нулевые сэмплы : Да
Интерфейс : Встроенный Win32-интерфейс для Win NT/2000

Выходной формат : Внутренние WAV-операции
Формат сэмплов : 44.100 Гц; 16 бит; стерео


TOC извлечённого CD

Трек | Старт | Длительность | Начальный сектор | Конечный сектор
––––––––––––––––––––––––––––––––––-
1 | 0:00.00 | 5:06.37 | 0 | 22986
2 | 5:06.37 | 3:02.22 | 22987 | 36658
3 | 8:08.59 | 3:03.21 | 36659 | 50404
4 | 11:12.05 | 9:15.23 | 50405 | 92052
5 | 20:27.28 | 4:58.67 | 92053 | 114469
6 | 25:26.20 | 4:39.64 | 114470 | 135458
7 | 30:06.09 | 4:02.11 | 135459 | 153619
8 | 34:08.20 | 6:02.66 | 153620 | 180835
9 | 40:11.11 | 3:35.64 | 180836 | 197024
10 | 43:47.00 | 3:08.05 | 197025 | 211129
11 | 46:55.05 | 20:57.06 | 211130 | 305410


Характеристики диапазона извлечения и сообщения об ошибках

Выбранный диапазон

Имя файла D:\TEMP\MATCHING MOLE - 1972 - Matching Mole [2012 Esoteric ECLEC22311, 2CD Deluxe edition, CD1].wav

Пиковый уровень 98.8 %
Качество диапазона 100.0 %
CRC теста 93B1E3F9
CRC копии 93B1E3F9
Копирование… OK

Ошибок не произошло


AccurateRip: сводка

Трек 1 нет в базе данных
Трек 2 нет в базе данных
Трек 3 нет в базе данных
Трек 4 нет в базе данных
Трек 5 нет в базе данных
Трек 6 нет в базе данных
Трек 7 нет в базе данных
Трек 8 нет в базе данных
Трек 9 нет в базе данных
Трек 10 нет в базе данных
Трек 11 нет в базе данных

Ни одного трека нет в базе AccurateRip

Конец отчёта

[CUETools log; Date: 21.07.2021 0:28:01; Version: 2.1.4]
[CTDB TOCID: Z0dsUogteJWrJtbWHZBut4y7nDc-] found.
Track | CTDB Status
1 | (45/45) Accurately ripped
2 | (45/45) Accurately ripped
3 | (45/45) Accurately ripped
4 | (45/45) Accurately ripped
5 | (45/45) Accurately ripped
6 | (45/45) Accurately ripped
7 | (45/45) Accurately ripped
8 | (45/45) Accurately ripped
9 | (45/45) Accurately ripped
10 | (45/45) Accurately ripped
11 | (42/45) Accurately ripped
[AccurateRip ID: 0016e397-00ca7016-900fe80b] found.
Track [ CRC | V2 ] Status
01 [daf80b0f|bcee7750] (02+35/39) Accurately ripped
02 [f5af61bb|d989d682] (02+36/40) Accurately ripped
03 [34272601|11d7f8fa] (02+36/40) Accurately ripped
04 [c130fed1|bb417fa6] (02+36/40) Accurately ripped
05 [d7d94bb4|42e9006a] (02+36/40) Accurately ripped
06 [f5dcc74f|72893137] (02+36/40) Accurately ripped
07 [336705cb|7d95f8bc] (02+36/40) Accurately ripped
08 [9da33a10|03c51b16] (02+36/40) Accurately ripped
09 [090d7d5c|ba3a1386] (02+35/39) Accurately ripped
10 [ed3b9819|219233dd] (02+35/39) Accurately ripped
11 [d6162f3b|2e31eca4] (02+33/37) Accurately ripped
Offsetted by 6:
01 [a1135388] (00/39) No match (V2 was not tested)
02 [2715cf5a] (00/40) No match (V2 was not tested)
03 [3fa808f6] (00/40) No match (V2 was not tested)
04 [db755011] (00/40) No match (V2 was not tested)
05 [a8861eee] (00/40) No match (V2 was not tested)
06 [dbc14b9d] (00/40) No match (V2 was not tested)
07 [d2984f30] (00/40) No match (V2 was not tested)
08 [879f59dc] (00/40) No match (V2 was not tested)
09 [6f466f5c] (00/39) No match (V2 was not tested)
10 [d093a687] (00/39) No match (V2 was not tested)
11 [77b8866d] (00/37) No match (V2 was not tested)

Track Peak [ CRC32 ] [W/O NULL] [ LOG ]
– 98,8 [93B1E3F9] [8315F86C] CRC32
01 65,7 [1D03F27D] [E8DC1D93]
02 79,4 [98F36174] [97E79606]
03 53,2 [B221A7C0] [839AA4B3]
04 98,8 [2E3EB421] [A54CAE39]
05 98,8 [A7FCA12B] [BB337CA8]
06 92,5 [4215B787] [F77B1BFB]
07 98,8 [AA77D462] [FE3F7161]
08 70,4 [B8887E85] [A8C7708B]
09 68,2 [D6981A9E] [4D13EA52]
10 51,3 [217AA6EC] [B31B4C9A]
11 96,3 [A65B9DBD] [BDEB1313]

Exact Audio Copy V0.99 prebeta 4 from 23. January 2008

Отчёт EAC об извлечении, выполненном 31. марта 2012, 19:22

MATCHING MOLE / Matching Mole [2012 Esoteric bonus CD]

Дисковод: TSSTcorpCD/DVDW SH-S183A Adapter: 4 ID: 1

Режим чтения : Достоверность
Использование точного потока : Да
Отключение кэша аудио : Да
Использование указателей C2 : Нет

Коррекция смещения при чтении : 6
Способность читать области Lead-in и Lead-out : Нет
Заполнение пропущенных сэмплов тишиной : Да
Удаление блоков с тишиной в начале и конце : Нет
При вычислениях CRC использовались нулевые сэмплы : Да
Интерфейс : Встроенный Win32-интерфейс для Win NT/2000

Выходной формат : Внутренние WAV-операции
Формат сэмплов : 44.100 Гц; 16 бит; стерео


TOC извлечённого CD

Трек | Старт | Длительность | Начальный сектор | Конечный сектор
––––––––––––––––––––––––––––––––––-
1 | 0:00.00 | 5:34.58 | 0 | 25107
2 | 5:34.58 | 11:18.74 | 25108 | 76031
3 | 16:53.57 | 7:29.65 | 76032 | 109771
4 | 24:23.47 | 3:50.09 | 109772 | 127030
5 | 28:13.56 | 9:56.25 | 127031 | 171755
6 | 38:10.06 | 19:36.01 | 171756 | 259956


Характеристики диапазона извлечения и сообщения об ошибках

Выбранный диапазон

Имя файла D:\TEMP\MATCHING MOLE - Matching Mole [2012 Esoteric ECLEC22311, 2CD Deluxe edition, CD2].wav

Пиковый уровень 98.8 %
Качество диапазона 99.9 %
CRC теста FF0C12ED
CRC копии FF0C12ED
Копирование… OK

Ошибок не произошло


AccurateRip: сводка

Трек 1 нет в базе данных
Трек 2 нет в базе данных
Трек 3 нет в базе данных
Трек 4 нет в базе данных
Трек 5 нет в базе данных
Трек 6 нет в базе данных

Ни одного трека нет в базе AccurateRip

Конец отчёта

[CUETools log; Date: 21.07.2021 0:29:36; Version: 2.1.4]
[CTDB TOCID: C2keE2AtKAxhaozT8rtItb.c67A-] found.
Track | CTDB Status
1 | (76/76) Accurately ripped
2 | (76/76) Accurately ripped
3 | (76/76) Accurately ripped
4 | (76/76) Accurately ripped
5 | (76/76) Accurately ripped
6 | (76/76) Accurately ripped
[AccurateRip ID: 000bbe78-00402127-490d8a06] found.
Track [ CRC | V2 ] Status
01 [b019c56b|7ebb4e42] (02+38/55) Accurately ripped
02 [1e538bca|c03652e8] (02+39/56) Accurately ripped
03 [ebd813e6|74b964f7] (02+39/56) Accurately ripped
04 [061d5421|403438ac] (02+39/56) Accurately ripped
05 [c08d4fe2|535c0995] (00+37/52) Accurately ripped
06 [70275647|08e2e8c4] (00+34/51) Accurately ripped
Offsetted by 6:
01 [2a21fb57] (00/55) No match (V2 was not tested)
02 [533f8f20] (00/56) No match (V2 was not tested)
03 [49a2bde8] (00/56) No match (V2 was not tested)
04 [9379469f] (00/56) No match (V2 was not tested)
05 [21d553aa] (00/52) No match (V2 was not tested)
06 [62fd5fd9] (00/51) No match (V2 was not tested)

Track Peak [ CRC32 ] [W/O NULL] [ LOG ]
– 98,8 [FF0C12ED] [28C3EF2B] CRC32
01 88,5 [611D1FB4] [DA66B255]
02 86,8 [A09CF8B5] [DA369F58]
03 88,7 [8DCF8FDD] [4D0DC2F8]
04 98,8 [11FA1253] [E65730B4]
05 98,3 [8A3C8DAA] [611582A7]
06 97,9 [9D0426F2] [A76B3F47]

Matching Mole - 2 Studio Albums (1972) [Deluxe Editions 2012] (Re-up)

Matching Mole - Little Red Record (1972) [2CD Deluxe Edition 2012]
EAC Rip | FLAC (image+.cue+log) - 420 MB | MP3 CBR 320 kbps (LAME 3.93) - 212 MB | Covers - 165 MB
Genre: Progressive Rock/Canterbury Scene | RAR 3% Rec. | Label: Esoteric Recordings (ECLEC 22312)

CD 1 Tracklist:
01. Starting In The Middle Of The Day We Can Drink Our Politics Away
02. Marchides
03. Nan True’s Hole
04. Righteous Rhumba
05. Brandy As In Benj
06. Gloria Gloom
07. God Song
08. Flora Fidgit
09. Smoke Signal

Total time: 43:05

CD 2 Tracklist:
01. Instant Pussy/Lithing And Gracing (BBC Radio One “In Concert” session)
02. Marchides (BBC Radio One “In Concert” session)
03. Part Of The Dance/Brandy As In Benj (BBC Radio One “In Concert” session)
04. Starting In The Middle Of The Day We Can Drink Our Politics Away (Take one, Previously unreleased)
05. Smoke Signal (Take four, Previously unreleased)
06. Flora Fidget (Take eight, Previously unreleased)
07. Mutter (Previously unreleased)

Total time: 46:52

Exact Audio Copy V0.99 prebeta 4 from 23. January 2008

Отчёт EAC об извлечении, выполненном 29. февраля 2012, 17:55

MATCHING MOLE / Little Red Record

Дисковод: TSSTcorpCD/DVDW SH-S183A Adapter: 4 ID: 1

Режим чтения : Достоверность
Использование точного потока : Да
Отключение кэша аудио : Да
Использование указателей C2 : Нет

Коррекция смещения при чтении : 6
Способность читать области Lead-in и Lead-out : Нет
Заполнение пропущенных сэмплов тишиной : Да
Удаление блоков с тишиной в начале и конце : Нет
При вычислениях CRC использовались нулевые сэмплы : Да
Интерфейс : Встроенный Win32-интерфейс для Win NT/2000

Выходной формат : Внутренние WAV-операции
Формат сэмплов : 44.100 Гц; 16 бит; стерео


TOC извлечённого CD

Трек | Старт | Длительность | Начальный сектор | Конечный сектор
––––––––––––––––––––––––––––––––––-
1 | 0:00.00 | 2:31.67 | 0 | 11391
2 | 2:31.67 | 8:25.22 | 11392 | 49288
3 | 10:57.14 | 3:36.62 | 49289 | 65550
4 | 14:34.01 | 2:50.50 | 65551 | 78350
5 | 17:24.51 | 4:25.27 | 78351 | 98252
6 | 21:50.03 | 8:06.37 | 98253 | 134739
7 | 29:56.40 | 2:59.67 | 134740 | 148231
8 | 32:56.32 | 3:27.45 | 148232 | 163801
9 | 36:24.02 | 6:40.65 | 163802 | 193866


Характеристики диапазона извлечения и сообщения об ошибках

Выбранный диапазон

Имя файла D:\TEMP\MATCHING MOLE - 1972 - Little Red Record [2012 Esoteric ECLEC22312, 2CD Deluxe edition, CD1].wav

Пиковый уровень 98.8 %
Качество диапазона 100.0 %
CRC теста 48B5AD9B
CRC копии 48B5AD9B
Копирование… OK

Ошибок не произошло


AccurateRip: сводка

Трек 1 нет в базе данных
Трек 2 нет в базе данных
Трек 3 нет в базе данных
Трек 4 нет в базе данных
Трек 5 нет в базе данных
Трек 6 нет в базе данных
Трек 7 нет в базе данных
Трек 8 нет в базе данных
Трек 9 нет в базе данных

Ни одного трека нет в базе AccurateRip

Конец отчёта

[CUETools log; Date: 21.07.2021 0:31:18; Version: 2.1.4]
[CTDB TOCID: TLceD5DB..q2aans8XPvaTduVxk-] found.
Track | CTDB Status
1 | (60/61) Accurately ripped
2 | (60/61) Accurately ripped
3 | (60/61) Accurately ripped
4 | (60/61) Accurately ripped
5 | (60/61) Accurately ripped
6 | (59/61) Accurately ripped
7 | (59/61) Accurately ripped
8 | (60/61) Accurately ripped
9 | (58/61) Accurately ripped
[AccurateRip ID: 000e6575-006a2415-890a1809] found.
Track [ CRC | V2 ] Status
01 [4fa71b7f|53453ee7] (05+27/44) Accurately ripped
02 [222b225c|fc2952bd] (04+28/45) Accurately ripped
03 [b67234c4|f8d55020] (05+28/46) Accurately ripped
04 [41ef87e4|3fea62a8] (04+28/45) Accurately ripped
05 [e5158b67|cb3a6f39] (05+28/46) Accurately ripped
06 [ab2c1e28|94bc7f2f] (05+28/46) Accurately ripped
07 [53063141|a80f8f7b] (05+28/46) Accurately ripped
08 [30e30ab7|b60f57f1] (05+28/46) Accurately ripped
09 [7804dc2c|8984e6e3] (05+28/45) Accurately ripped
Offsetted by 6:
01 [36be2dc7] (00/44) No match (V2 was not tested)
02 [1a0bde53] (00/45) No match (V2 was not tested)
03 [e5ad4949] (00/46) No match (V2 was not tested)
04 [330b488c] (00/45) No match (V2 was not tested)
05 [926864b6] (00/46) No match (V2 was not tested)
06 [cda552f4] (00/46) No match (V2 was not tested)
07 [adc9e8da] (00/46) No match (V2 was not tested)
08 [02715844] (00/46) No match (V2 was not tested)
09 [0753e023] (00/45) No match (V2 was not tested)

Track Peak [ CRC32 ] [W/O NULL] [ LOG ]
– 98,8 [48B5AD9B] [16A9B53F] CRC32
01 53,3 [12C61BE8] [CD5B3563]
02 98,8 [0BE3489D] [6F2C8F64]
03 81,4 [980351C3] [61F3BEF7]
04 98,8 [72461259] [559A2A32]
05 88,4 [7DB66193] [F816A84D]
06 78,9 [6DC50A20] [388E40A3]
07 56,1 [52A70AC6] [2F18BD42]
08 67,0 [06B2AA4C] [73897177]
09 82,2 [A7B80ED3] [33555CA6]

Exact Audio Copy V0.99 prebeta 4 from 23. January 2008

Отчёт EAC об извлечении, выполненном 29. февраля 2012, 18:57

MATCHING MOLE / Little Red Record [2012 Esoteric bonus CD]

Дисковод: TSSTcorpCD/DVDW SH-S183A Adapter: 4 ID: 1

Режим чтения : Достоверность
Использование точного потока : Да
Отключение кэша аудио : Да
Использование указателей C2 : Нет

Коррекция смещения при чтении : 6
Способность читать области Lead-in и Lead-out : Нет
Заполнение пропущенных сэмплов тишиной : Да
Удаление блоков с тишиной в начале и конце : Нет
При вычислениях CRC использовались нулевые сэмплы : Да
Интерфейс : Встроенный Win32-интерфейс для Win NT/2000

Выходной формат : Внутренние WAV-операции
Формат сэмплов : 44.100 Гц; 16 бит; стерео


TOC извлечённого CD

Трек | Старт | Длительность | Начальный сектор | Конечный сектор
––––––––––––––––––––––––––––––––––-
1 | 0:00.00 | 7:56.53 | 0 | 35752
2 | 7:56.53 | 10:30.32 | 35753 | 83034
3 | 18:27.10 | 8:43.62 | 83035 | 122321
4 | 27:10.72 | 2:52.40 | 122322 | 135261
5 | 30:03.37 | 6:45.53 | 135262 | 165689
6 | 36:49.15 | 6:39.27 | 165690 | 195641
7 | 43:28.42 | 3:23.16 | 195642 | 210882


Характеристики диапазона извлечения и сообщения об ошибках

Выбранный диапазон

Имя файла D:\TEMP\MATCHING MOLE - Little Red Record [2012 Esoteric ECLEC22312, 2CD Deluxe edition, CD2].wav

Пиковый уровень 98.8 %
Качество диапазона 100.0 %
CRC теста B7D568AD
CRC копии B7D568AD
Копирование… OK

Ошибок не произошло


AccurateRip: сводка

Трек 1 нет в базе данных
Трек 2 нет в базе данных
Трек 3 нет в базе данных
Трек 4 нет в базе данных
Трек 5 нет в базе данных
Трек 6 нет в базе данных
Трек 7 нет в базе данных

Ни одного трека нет в базе AccurateRip

Конец отчёта

[CUETools log; Date: 21.07.2021 0:32:49; Version: 2.1.4]
[CTDB TOCID: 94J_Iv0qlDqrMFpo9rznOKy5ck4-] found.
Track | CTDB Status
1 | (57/58) Accurately ripped
2 | (55/58) Accurately ripped
3 | (52/58) Accurately ripped
4 | (56/58) Accurately ripped
5 | (56/58) Accurately ripped
6 | (56/58) Accurately ripped
7 | (55/58) Accurately ripped
[AccurateRip ID: 000e796b-00547c8c-490afb07] found.
Track [ CRC | V2 ] Status
01 [2ad9697e|05aa48e8] (04+28/44) Accurately ripped
02 [f0182962|d979441c] (05+28/46) Accurately ripped
03 [1afe6379|b1968e6e] (05+28/45) Accurately ripped
04 [1b9ea730|5560ab4d] (05+29/47) Accurately ripped
05 [10a6cf93|568591cc] (04+29/46) Accurately ripped
06 [f5053163|9bd9458f] (05+29/47) Accurately ripped
07 [76f3d7dc|176f837c] (05+29/46) Accurately ripped
Offsetted by 6:
01 [347e5819] (00/44) No match (V2 was not tested)
02 [e674b6a3] (00/46) No match (V2 was not tested)
03 [da18d363] (00/45) No match (V2 was not tested)
04 [dc41c12e] (00/47) No match (V2 was not tested)
05 [e7726341] (00/46) No match (V2 was not tested)
06 [3c99dba7] (00/47) No match (V2 was not tested)
07 [f804e034] (00/46) No match (V2 was not tested)

Track Peak [ CRC32 ] [W/O NULL] [ LOG ]
– 98,8 [B7D568AD] [6483ADA9] CRC32
01 98,8 [3D721554] [64B459E0]
02 98,8 [176C0637] [4DFAF59E]
03 98,8 [FD409BD7] [A6307967]
04 52,5 [5CB8D8F0] [32FBE0ED]
05 74,0 [A30363BE] [7BDBD504]
06 84,4 [B217736A] [989229B0]
07 53,7 [B70AF4EC] [2766B2AE]

Thanks to spAceLover