Subcategories

Matt Suggs - Golden Days Before They End (2000)

Posted By: Designol
Matt Suggs - Golden Days Before They End (2000)

Matt Suggs - Golden Days Before They End (2000)
EAC | FLAC | Tracks (Cue&Log) ~ 262 Mb | Mp3 (CBR320) ~ 98 Mb | Scans included
Indie Rock, Chamber Pop | Label: Merge Records | # MRG177CD | Time: 00:38:56

At first or second listen, this sounds unnervingly like a solo album that Ray Davies might have made circa the early 1970s. There's that same witty melodicism, and a similar resigned yet bemused air to Suggs' vocal delivery. It manages, though, not to sound like an inferior rewrite of Kinks cliches, and upon closer inspection, reveals Suggs to be more his own man than might initially be suspected. Suggs favors far more abstract lyrics, for one thing, imbued with rather creepy images of vultures, skeletons, and dreamy disorientation. In addition, the music is more speckled with Americana than what Davies and the Kinks played, as heard on the enchanting minor-keyed mandolin strums and desert guide slide that anchor "The Rambler Vs. the Vulture/Devils Dance," managing to strike a mood between Appalachia and Tex-Mex balladry. Like few other ambitious musicians, singer-songwriter-identified and otherwise, working in indie rock circa 2000, Suggs knows how to use understatement instead of trying too hard or opting for an in-your-face approach. On pure musical terms this album merits high praise indeed, with an attention to detail and variety – tinkly off-kilter pianos, judicious use of lap steel and bells (both played by Suggs), a surfeit of melancholy hooks – that brings out the best in the songs. That really helps when the lyrics are so enigmatic as to often defy interpretation ("Farewell to a Tightrope Queen" is an exception). Yet Suggs' words are effective in establishing a sense of loss and bewilderment tinged with the surreal, retaining a subtle humor and grace that never descends into mopiness, and that's quite an accomplishment.

Review by Richie Unterberger, Allmusic.com

Matt Suggs - Golden Days Before They End (2000)



Tracklist:

01. Skeleton Blues in b Flat Minor (04:23)
02. Soon the Moon Will Glow (03:25)
03. Eloise (03:55)
04. Where's Your Patience Dear? (02:30)
05. The Rambler vs. the Volture/ Devil's Dance (05:31)
06. Harold Had a Hunch (03:16)
07. She Kept Time to the Teardrops (02:06)
08. Farewell to a Tightrope Queen (02:38)
09. Western Zephyr (03:01)
10. Rambler's Ride (01:50)
11. Walk With Him (03:52)
12. Kisses (02:23)


Exact Audio Copy V1.0 beta 3 from 29. August 2011

Отчёт EAC об извлечении, выполненном 30. марта 2014, 13:22

Matt Suggs / Golden Days Before They End

Дисковод: ASUS DRW-1814BLT Adapter: 4 ID: 0

Режим чтения : Достоверность
Использование точного потока : Да
Отключение кэша аудио : Да
Использование указателей C2 : Нет

Коррекция смещения при чтении : 6
Способность читать области Lead-in и Lead-out : Нет
Заполнение пропущенных сэмплов тишиной : Да
Удаление блоков с тишиной в начале и конце : Нет
При вычислениях CRC использовались нулевые сэмплы : Да
Интерфейс : Встроенный Win32-интерфейс для Win NT/2000
Обработка зазоров : Добавлено к предыдущему треку

Выходной формат : Пользовательский кодировщик
Выбранный битрейт : 128 kBit/s
Качество : Высокий
Добавление ID3-тега : Нет
Утилита сжатия : C:\Program Files\Exact Audio Copy\Flac\flac.exe
Дополнительные параметры : -V -8 -T "Genre=%genre%" -T "Artist=%artist%" -T "Title=%title%" -T "Album=%albumtitle%" -T "Date=%year%" -T "Tracknumber=%tracknr%" -T "Comment=EAC1.0b2 FLAC -8" %source%


TOC извлечённого CD

Трек | Старт | Длительность | Начальный сектор | Конечный сектор
––––––––––––––––––––––––––––––––––-
1 | 0:00.00 | 4:23.45 | 0 | 19769
2 | 4:23.45 | 3:25.47 | 19770 | 35191
3 | 7:49.17 | 3:55.58 | 35192 | 52874
4 | 11:45.00 | 2:30.45 | 52875 | 64169
5 | 14:15.45 | 5:31.40 | 64170 | 89034
6 | 19:47.10 | 3:16.22 | 89035 | 103756
7 | 23:03.32 | 2:06.05 | 103757 | 113211
8 | 25:09.37 | 2:38.45 | 113212 | 125106
9 | 27:48.07 | 3:01.65 | 125107 | 138746
10 | 30:49.72 | 1:50.58 | 138747 | 147054
11 | 32:40.55 | 3:52.30 | 147055 | 164484
12 | 36:33.10 | 2:23.30 | 164485 | 175239


Трек 1

Имя файла R:\Раздача 12\Matt Suggs - 2000 - Golden Days Before They End\01 Skeleton Blues in b Flat Minor.wav

Длина предзазора 0:00:02.00

Пиковый уровень 100.0 %
Скорость извлечения 2.3 X
Качество трека 99.9 %
CRC теста BA192CE6
CRC копии BA192CE6
Копирование… OK

Трек 2

Имя файла R:\Раздача 12\Matt Suggs - 2000 - Golden Days Before They End\02 Soon the Moon Will Glow.wav

Длина предзазора 0:00:01.53

Пиковый уровень 100.0 %
Скорость извлечения 2.8 X
Качество трека 100.0 %
CRC теста 95126CAD
CRC копии 95126CAD
Копирование… OK

Трек 3

Имя файла R:\Раздача 12\Matt Suggs - 2000 - Golden Days Before They End\03 Eloise.wav

Длина предзазора 0:00:00.62

Пиковый уровень 99.9 %
Скорость извлечения 3.1 X
Качество трека 100.0 %
CRC теста AB84B921
CRC копии AB84B921
Копирование… OK

Трек 4

Имя файла R:\Раздача 12\Matt Suggs - 2000 - Golden Days Before They End\04 Where's Your Patience Dear.wav

Длина предзазора 0:00:02.28

Пиковый уровень 97.1 %
Скорость извлечения 3.0 X
Качество трека 100.0 %
CRC теста 462AFBE5
CRC копии 462AFBE5
Копирование… OK

Трек 5

Имя файла R:\Раздача 12\Matt Suggs - 2000 - Golden Days Before They End\05 The Rambler vs. the Volture, Devil's Dance.wav

Длина предзазора 0:00:01.68

Пиковый уровень 97.9 %
Скорость извлечения 3.7 X
Качество трека 100.0 %
CRC теста BC9F6A25
CRC копии BC9F6A25
Копирование… OK

Трек 6

Имя файла R:\Раздача 12\Matt Suggs - 2000 - Golden Days Before They End\06 Harold Had a Hunch.wav

Длина предзазора 0:00:01.63

Пиковый уровень 100.0 %
Скорость извлечения 3.6 X
Качество трека 100.0 %
CRC теста 5841BFB3
CRC копии 5841BFB3
Копирование… OK

Трек 7

Имя файла R:\Раздача 12\Matt Suggs - 2000 - Golden Days Before They End\07 She Kept Time to the Teardrops.wav

Длина предзазора 0:00:01.00

Пиковый уровень 97.8 %
Скорость извлечения 3.4 X
Качество трека 100.0 %
CRC теста F03A1A4C
CRC копии F03A1A4C
Копирование… OK

Трек 8

Имя файла R:\Раздача 12\Matt Suggs - 2000 - Golden Days Before They End\08 Farewell to a Tightrope Queen.wav

Длина предзазора 0:00:02.07

Пиковый уровень 97.7 %
Скорость извлечения 3.7 X
Качество трека 100.0 %
CRC теста 08373585
CRC копии 08373585
Копирование… OK

Трек 9

Имя файла R:\Раздача 12\Matt Suggs - 2000 - Golden Days Before They End\09 Western Zephyr.wav

Длина предзазора 0:00:01.37

Пиковый уровень 97.7 %
Скорость извлечения 3.9 X
Качество трека 100.0 %
CRC теста C0FFFEDC
CRC копии C0FFFEDC
Копирование… OK

Трек 10

Имя файла R:\Раздача 12\Matt Suggs - 2000 - Golden Days Before They End\10 Rambler's Ride.wav

Длина предзазора 0:00:01.60

Пиковый уровень 94.4 %
Скорость извлечения 3.6 X
Качество трека 100.0 %
CRC теста 8D498F8A
CRC копии 8D498F8A
Копирование… OK

Трек 11

Имя файла R:\Раздача 12\Matt Suggs - 2000 - Golden Days Before They End\11 Walk With Him.wav

Длина предзазора 0:00:02.08

Пиковый уровень 100.0 %
Скорость извлечения 3.8 X
Качество трека 99.9 %
CRC теста 37595BB9
CRC копии 37595BB9
Копирование… OK

Трек 12

Имя файла R:\Раздача 12\Matt Suggs - 2000 - Golden Days Before They End\12 Kisses.wav

Длина предзазора 0:00:01.53

Пиковый уровень 98.0 %
Скорость извлечения 3.4 X
Качество трека 99.9 %
CRC теста 05A1D382
CRC копии 05A1D382
Копирование… OK

Ошибок не произошло

Конец отчёта

==== Контрольная сумма отчёта 2177D6413D0FE15171FF72244872D21CBCDFDB2F2FA00492641140E4BE0A9D60 ====

[CUETools log; Date: 18.10.2017 17:39:06; Version: 2.1.4]
[CTDB TOCID: 5vjRs9uhihkFHWTkvO_hShOk5AM-] disk not present in database.
[AccurateRip ID: 0012bf65-00ab4e1a-a909200c] found.
Track [ CRC | V2 ] Status
01 [c72a4ecd|061ead1d] (3+0/3) Accurately ripped
02 [f90763a4|b9327d96] (3+0/3) Accurately ripped
03 [ef3158c9|7298d470] (3+0/3) Accurately ripped
04 [77de21a9|9a6a03fb] (3+0/3) Accurately ripped
05 [6fe68719|04c86e58] (3+0/3) Accurately ripped
06 [df592b1c|e91ba5a1] (3+0/3) Accurately ripped
07 [c7fd4aba|34453477] (3+0/3) Accurately ripped
08 [b183a388|d263928d] (3+0/3) Accurately ripped
09 [4e2800db|9ea77f8a] (3+0/3) Accurately ripped
10 [ccdea3a4|0eeb1a2c] (3+0/3) Accurately ripped
11 [6e7f5929|25bdace9] (3+0/3) Accurately ripped
12 [6a68fdcc|3609f1a0] (3+0/3) Accurately ripped

Track Peak [ CRC32 ] [W/O NULL] [ LOG ]
– 100,0 [CB9A189B] [7383B8E2]
01 100,0 [BA192CE6] [749A4B6F] CRC32
02 100,0 [95126CAD] [9BE65D8B] CRC32
03 99,9 [AB84B921] [26E1C60B] CRC32
04 97,1 [462AFBE5] [9EA227E1] CRC32
05 97,9 [BC9F6A25] [119AABDB] CRC32
06 100,0 [5841BFB3] [8A0DEDA0] CRC32
07 97,8 [F03A1A4C] [1E391512] CRC32
08 97,7 [08373585] [71B62AFB] CRC32
09 97,7 [C0FFFEDC] [48A3C956] CRC32
10 94,4 [8D498F8A] [038E2E6D] CRC32
11 100,0 [37595BB9] [68C208F6] CRC32
12 98,0 [05A1D382] [7FBA6E96] CRC32

foobar2000 1.2 / Dynamic Range Meter 1.1.1
log date: 2014-04-03 17:23:23

––––––––––––––––––––––––––––––––––––––––
Analyzed: Matt Suggs / Golden Days Before They End
––––––––––––––––––––––––––––––––––––––––

DR Peak RMS Duration Track
––––––––––––––––––––––––––––––––––––––––
DR9 0.00 dB -11.22 dB 4:24 01-Skeleton Blues in b Flat Minor
DR9 0.00 dB -9.66 dB 3:26 02-Soon the Moon Will Glow
DR8 0.00 dB -11.41 dB 3:56 03-Eloise
DR9 -0.25 dB -11.40 dB 2:31 04-Where's Your Patience Dear?
DR10 -0.18 dB -11.90 dB 5:32 05-The Rambler vs. the Volture/ Devil's Dance
DR8 0.00 dB -9.68 dB 3:16 06-Harold Had a Hunch
DR9 -0.19 dB -10.76 dB 2:06 07-She Kept Time to the Teardrops
DR9 -0.20 dB -10.47 dB 2:39 08-Farewell to a Tightrope Queen
DR11 -0.20 dB -12.52 dB 3:02 09-Western Zephyr
DR9 -0.50 dB -11.13 dB 1:51 10-Rambler's Ride
DR9 0.00 dB -10.73 dB 3:52 11-Walk With Him
DR10 -0.17 dB -10.79 dB 2:23 12-Kisses
––––––––––––––––––––––––––––––––––––––––

Number of tracks: 12
Official DR value: DR9

Samplerate: 44100 Hz
Channels: 2
Bits per sample: 16
Bitrate: 910 kbps
Codec: FLAC
================================================================================

Matt Suggs - Golden Days Before They End (2000)

Matt Suggs - Golden Days Before They End (2000)

All thanks to original releaser - clustert

More interesting music in My Blog