Subcategories

Matt Yanzen - A Blanket Of Stars (2011)

Posted By: gribovar
Matt Yanzen - A Blanket Of Stars (2011)

Matt Yanzen - A Blanket Of Stars (2011)
EAC Rip | FLAC (image+.cue+log) - 209 MB | MP3 CBR 320 kbps (LAME 3.93) - 80 MB | Covers - 27 MB
Genre: Progressive Electronic | RAR 3% Rec. | Label: Shipwrecks Records (SHIPWRECKS-001)

New album from Dutch multi-instrumentalist Matt Yanzen. A wide plethora of styles blend together in a wrapper of electronics. Originally a guitarist, Matt was heavily influenced by '70's Prog giants like Yes, Barclay James Harvest, Rush *and* the 80's/90's synth driven music (Missing Persons, Propaganda, Kraftwerk, Device, Duran Duran…). This album contains dancy tracks like 'Wild' & 'Starbirth & Death' but also a Progressive rock anthem 'Luna's Tentacles' & some shorter ambient/experimental tracks.
Tracklist:
01. Wild! (3rd 1 = the Charm)
02. The Ravens At Summer's End
03. Star Birth And Death (Superwindz Mix)
04. Bethlehem
05. Luna's Tentacles
06. Nautilus (In The Arms Of Kali)

Total time: 35:05

Exact Audio Copy V1.0 beta 1 from 15. November 2010

EAC extraction logfile from 26. July 2011, 11:27

Unknown Artist / Unknown Title

Used drive : Optiarc DVD RW AD-5240S Adapter: 1 ID: 0

Read mode : Secure
Utilize accurate stream : Yes
Defeat audio cache : Yes
Make use of C2 pointers : No

Read offset correction : 48
Overread into Lead-In and Lead-Out : No
Fill up missing offset samples with silence : Yes
Delete leading and trailing silent blocks : No
Null samples used in CRC calculations : No
Used interface : Native Win32 interface for Win NT & 2000

Used output format : Internal WAV Routines
Sample format : 44.100 Hz; 16 Bit; Stereo


TOC of the extracted CD

Track | Start | Length | Start sector | End sector
––––––––––––––––––––––––––––-
1 | 0:00.00 | 7:39.68 | 0 | 34492
2 | 7:39.68 | 4:46.23 | 34493 | 55965
3 | 12:26.16 | 8:00.37 | 55966 | 92002
4 | 20:26.53 | 3:00.00 | 92003 | 105502
5 | 23:26.53 | 7:34.54 | 105503 | 139606
6 | 31:01.32 | 4:03.54 | 139607 | 157885
7 | 37:37.11 | 9:19.11 | 169286 | 211221


Range status and errors

Selected range

Filename E:\MUSIC RECORDING\CAKEWALK PROJECTS\FINISHED CD\16_44100\new rip\Matt Yanzen - A Blanket Of Stars.wav

Peak level 100.0 %
Extraction speed 1.3 X
Range quality 99.9 %
Test CRC A2952460
Copy CRC A2952460
Copy OK

No errors occurred


AccurateRip summary

Track 1 not present in database
Track 2 not present in database
Track 3 not present in database
Track 4 not present in database
Track 5 not present in database
Track 6 not present in database

None of the tracks are present in the AccurateRip database

End of status report

Thanks to SpooK13