Subcategories

Matthews Southern Comfort - Later That Same Year (1970) Expanded Reissue 2008 [Re-Up]

Posted By: Designol
Matthews Southern Comfort - Later That Same Year (1970) Expanded Reissue 2008 [Re-Up]

Matthews Southern Comfort - Later That Same Year (1970) Expanded Reissue 2008
XLD | FLAC | Tracks (Cue&Log) ~ 334 Mb | Mp3 (CBR320) ~ 128 Mb | Scans ~ 53 Mb | 00:55:38
British Folk-Rock, British Folk, Psychedelic Rock, Country-Rock | Label: BGO | # BGOCD807

Ian Matthews left Fairport Convention in 1969, and while the U.K.'s greatest folk-rock band was beginning to reinvent itself in a more traditional and very British direction, Matthews began digging deeper into the American influences that had marked his old band's first era. Later That Same Year, the second album from Ian's new group Matthews Southern Comfort (it was released in late 1970, a mere six months after their debut, hence the title), is a beautiful set of songs that splits the difference between West Coast folk-rock and early country-rock, with Gordon Huntley's pedal steel and Roger Coulam's lending an air of sunny sadness that dovetails beautifully with Matthews' silky tenor. Matthews wrote three of the songs on Later That Same Year, and they rank with the album's finest moments, especially the ethereal harmonies of "And Me" and the graceful simplicity of "My Lady," but Matthews also borrows some excellent material from American writers, including a cover of Neil Young's "Tell Me Why" that remains faithful while creating a languid mood of its own, a fine, poignant take on Jesse Winchester's "Brand New Tennessee Waltz," and two by Al Anderson, which date from the latter days of the Wildweeds before he joined up with NRBQ (and "Mare Take Me Home" and "And When She Smiles" show Big Al was already a songwriter of no small talent and Matthews handles both tunes beautifully). While country influences run all through the album, Matthews had the smarts not to try to emulate a Nashville production or arrangement style, and instead the album suggests the shadows of Tim Buckley or early Crosby, Stills & Nash while adding an English pastoral subtext all their own. After Later That Same Year, Matthews parted ways with Southern Comfort to record solo and later form Plainsong, but you'd never guess that this album was recorded by a band on its last legs – this is subtle but confident music that comes from a handful of artists working at the height of their skills. [Before the release of Later That Same Year, Matthews Southern Comfort released a cover of Joni Mitchell's "Woodstock" as a single, and it became a sizable hit in both America and Europe; it was added to the American release of the album, and is one of four bonus tracks added to the 2008 remastered reissue of the album from Beat Goes On Records. "The Struggle," "Parting" and "Scion" aren't quite as strong as the songs on the original edition of the album, but they're certainly worth a listen for fans and find Matthews and the band in solid form, while the digital remastering sounds excellent and well-detailed.]

Review by Jim Worbois, Allmusic.com

Matthews Southern Comfort - Later That Same Year (1970) Expanded Reissue 2008 [Re-Up]



Tracklist:

01. To Love (04:42)
02. And Me (04:37)
03. Tell Me Why (02:03)
04. Jonah (04:13)
05. My Lady (01:37)
06. And When She Smiles (She Makes The Sun Shine) (02:16)
07. Mare Take Me Home (03:44)
08. Sylvie (05:40)
09. Brand New Tennessee Waltz (02:59)
10. For Melanie (06:45)
11. Road To Ronderlin (02:19)
12. Woodstock (04:28)
13. The Struggle (03:48)
14. Parting (02:53)
15. Scion (03:28)


X Lossless Decoder version 20140427 (146.0)

XLD extraction logfile from 2014-05-03 22:03:23 +0200

Matthews Southern Comfort / Later That Same Year

Used drive : PHILIPS SPD6005T (revision P1.0)
Media type : Pressed CD

Ripper mode : XLD Secure Ripper
Disable audio cache : OK for the drive with a cache less than 1375KiB
Make use of C2 pointers : NO
Read offset correction : 6
Max retry count : 100
Gap status : Analyzed, Appended

TOC of the extracted CD
Track | Start | Length | Start sector | End sector
––––––––––––––––––––––––––––-
1 | 00:00:00 | 04:42:25 | 0 | 21174
2 | 04:42:25 | 04:37:55 | 21175 | 42004
3 | 09:20:05 | 02:03:54 | 42005 | 51283
4 | 11:23:59 | 04:13:31 | 51284 | 70289
5 | 15:37:15 | 01:37:41 | 70290 | 77605
6 | 17:14:56 | 02:16:00 | 77606 | 87805
7 | 19:30:56 | 03:44:71 | 87806 | 104676
8 | 23:15:52 | 05:40:30 | 104677 | 130206
9 | 28:56:07 | 02:59:55 | 130207 | 143686
10 | 31:55:62 | 06:45:45 | 143687 | 174106
11 | 38:41:32 | 02:21:04 | 174107 | 184685
12 | 41:02:36 | 04:30:11 | 184686 | 204946
13 | 45:32:47 | 03:50:71 | 204947 | 222267
14 | 49:23:43 | 02:54:33 | 222268 | 235350
15 | 52:18:01 | 03:28:01 | 235351 | 250951

List of alternate offset correction values
# | Absolute | Relative | Confidence
–––––––––––––––––––––
1 | 0 | -6 | 3

AccurateRip Summary (DiscID: 001e8898-015a70dc-db0d120f)
Track 01 : OK (v1, confidence 3/3, with different offset)
Track 02 : OK (v1, confidence 3/3, with different offset)
Track 03 : OK (v1, confidence 3/3, with different offset)
Track 04 : OK (v1, confidence 3/3, with different offset)
Track 05 : OK (v1, confidence 3/3, with different offset)
Track 06 : OK (v1, confidence 3/3, with different offset)
Track 07 : OK (v1, confidence 3/3, with different offset)
Track 08 : OK (v1, confidence 3/3, with different offset)
Track 09 : OK (v1, confidence 3/3, with different offset)
Track 10 : OK (v1, confidence 3/3, with different offset)
Track 11 : OK (v1, confidence 3/3, with different offset)
Track 12 : OK (v1, confidence 2/2, with different offset)
Track 13 : OK (v1, confidence 3/3, with different offset)
Track 14 : OK (v1, confidence 3/3, with different offset)
Track 15 : OK (v1, confidence 3/3, with different offset)
->All tracks accurately ripped.

All Tracks
Statistics
Read error : 1
Jitter error (maybe fixed) : 0
Retry sector count : 0
Damaged sector count : 0

Track 01
Filename : /Users/DrBanan/Desktop/01 Matthews Southern Comfort - To Love.flac
Pre-gap length : 00:02:00

CRC32 hash (test run) : 5D962C69
CRC32 hash : 5D962C69
CRC32 hash (skip zero) : 92FB578C
AccurateRip v1 signature : 4AEC81DB (B7978BBB w/correction)
AccurateRip v2 signature : 92E39B0A
->Accurately ripped with different offset (v1, confidence 3/3, offset -6)
Statistics
Read error : 0
Jitter error (maybe fixed) : 0
Retry sector count : 0
Damaged sector count : 0

Track 02
Filename : /Users/DrBanan/Desktop/02 Matthews Southern Comfort - And Me.flac
Pre-gap length : 00:00:01

CRC32 hash (test run) : 32D501EB
CRC32 hash : 32D501EB
CRC32 hash (skip zero) : BFFA0DB3
AccurateRip v1 signature : 16EAC638 (0E1FDA35 w/correction)
AccurateRip v2 signature : 90F8718D
->Accurately ripped with different offset (v1, confidence 3/3, offset -6)
Statistics
Read error : 0
Jitter error (maybe fixed) : 0
Retry sector count : 0
Damaged sector count : 0

Track 03
Filename : /Users/DrBanan/Desktop/03 Matthews Southern Comfort - Tell Me Why.flac

CRC32 hash (test run) : AC9D9539
CRC32 hash : AC9D9539
CRC32 hash (skip zero) : 555464DB
AccurateRip v1 signature : 2F4E77E8 (74EB711A w/correction)
AccurateRip v2 signature : F60DB471
->Accurately ripped with different offset (v1, confidence 3/3, offset -6)
Statistics
Read error : 0
Jitter error (maybe fixed) : 0
Retry sector count : 0
Damaged sector count : 0

Track 04
Filename : /Users/DrBanan/Desktop/04 Matthews Southern Comfort - Jonah.flac

CRC32 hash (test run) : CE26D372
CRC32 hash : CE26D372
CRC32 hash (skip zero) : E4F9E98C
AccurateRip v1 signature : 778C334D (98B9A6D6 w/correction)
AccurateRip v2 signature : A13AB835
->Accurately ripped with different offset (v1, confidence 3/3, offset -6)
Statistics
Read error : 0
Jitter error (maybe fixed) : 0
Retry sector count : 0
Damaged sector count : 0

Track 05
Filename : /Users/DrBanan/Desktop/05 Matthews Southern Comfort - My Lady.flac

CRC32 hash (test run) : D0DDEE26
CRC32 hash : D0DDEE26
CRC32 hash (skip zero) : 9469892B
AccurateRip v1 signature : 3B188BDB (AB469E6F w/correction)
AccurateRip v2 signature : F8CBA0B2
->Accurately ripped with different offset (v1, confidence 3/3, offset -6)
Statistics
Read error : 0
Jitter error (maybe fixed) : 0
Retry sector count : 0
Damaged sector count : 0

Track 06
Filename : /Users/DrBanan/Desktop/06 Matthews Southern Comfort - And When She Smiles (She Makes The Sun Shine).flac

CRC32 hash (test run) : 17DF2357
CRC32 hash : 17DF2357
CRC32 hash (skip zero) : F2D80469
AccurateRip v1 signature : 75AB83B2 (26D022DC w/correction)
AccurateRip v2 signature : 55A0F24C
->Accurately ripped with different offset (v1, confidence 3/3, offset -6)
Statistics
Read error : 0
Jitter error (maybe fixed) : 0
Retry sector count : 0
Damaged sector count : 0

Track 07
Filename : /Users/DrBanan/Desktop/07 Matthews Southern Comfort - Mare Take Me Home.flac

CRC32 hash (test run) : ABDF2B79
CRC32 hash : ABDF2B79
CRC32 hash (skip zero) : 8CD160FC
AccurateRip v1 signature : 9A886574 (F8762F20 w/correction)
AccurateRip v2 signature : 44DD07B1
->Accurately ripped with different offset (v1, confidence 3/3, offset -6)
Statistics
Read error : 0
Jitter error (maybe fixed) : 0
Retry sector count : 0
Damaged sector count : 0

Track 08
Filename : /Users/DrBanan/Desktop/08 Matthews Southern Comfort - Sylvie.flac

CRC32 hash (test run) : 436C4107
CRC32 hash : 436C4107
CRC32 hash (skip zero) : B4D83E8F
AccurateRip v1 signature : AF967C33 (E1B7517E w/correction)
AccurateRip v2 signature : 90EC0225
->Accurately ripped with different offset (v1, confidence 3/3, offset -6)
Statistics
Read error : 0
Jitter error (maybe fixed) : 0
Retry sector count : 0
Damaged sector count : 0

Track 09
Filename : /Users/DrBanan/Desktop/09 Matthews Southern Comfort - Brand New Tennessee Waltz.flac

CRC32 hash (test run) : 93A37B42
CRC32 hash : 93A37B42
CRC32 hash (skip zero) : 53CAF49C
AccurateRip v1 signature : 2DC0471F (D8A5D5E2 w/correction)
AccurateRip v2 signature : 09744F0A
->Accurately ripped with different offset (v1, confidence 3/3, offset -6)
Statistics
Read error : 0
Jitter error (maybe fixed) : 0
Retry sector count : 0
Damaged sector count : 0

Track 10
Filename : /Users/DrBanan/Desktop/10 Matthews Southern Comfort - For Melanie.flac

CRC32 hash (test run) : A97FDF66
CRC32 hash : A97FDF66
CRC32 hash (skip zero) : 548C9599
AccurateRip v1 signature : 90B46CD4 (E57DE488 w/correction)
AccurateRip v2 signature : D2F4E1BE
->Accurately ripped with different offset (v1, confidence 3/3, offset -6)
Statistics
Read error : 0
Jitter error (maybe fixed) : 0
Retry sector count : 0
Damaged sector count : 0

Track 11
Filename : /Users/DrBanan/Desktop/11 Matthews Southern Comfort - Road To Ronderlin.flac

CRC32 hash (test run) : 52700F23
CRC32 hash : 52700F23
CRC32 hash (skip zero) : B4D6A929
AccurateRip v1 signature : 925BA23A (8486B096 w/correction)
AccurateRip v2 signature : 083CCAA2
->Accurately ripped with different offset (v1, confidence 3/3, offset -6)
Statistics
Read error : 0
Jitter error (maybe fixed) : 0
Retry sector count : 0
Damaged sector count : 0

Track 12
Filename : /Users/DrBanan/Desktop/12 Matthews Southern Comfort - Woodstock.flac
Pre-gap length : 00:01:51

CRC32 hash (test run) : 907D938B
CRC32 hash : 907D938B
CRC32 hash (skip zero) : 960B6DD4
AccurateRip v1 signature : E738C6F0 (C6F47B92 w/correction)
AccurateRip v2 signature : B9761286
->Accurately ripped with different offset (v1, confidence 2/2, offset -6)
Statistics
Read error : 0
Jitter error (maybe fixed) : 0
Retry sector count : 0
Damaged sector count : 0

Track 13
Filename : /Users/DrBanan/Desktop/13 Matthews Southern Comfort - The Struggle.flac
Pre-gap length : 00:02:08

CRC32 hash (test run) : 56206279
CRC32 hash : 56206279
CRC32 hash (skip zero) : 36E90A5E
AccurateRip v1 signature : A2B69B5F (CC9CF491 w/correction)
AccurateRip v2 signature : 1D22F937
->Accurately ripped with different offset (v1, confidence 3/3, offset -6)
Statistics
Read error : 0
Jitter error (maybe fixed) : 0
Retry sector count : 0
Damaged sector count : 0

Track 14
Filename : /Users/DrBanan/Desktop/14 Matthews Southern Comfort - Parting.flac
Pre-gap length : 00:02:18

CRC32 hash (test run) : 3EE2C18D
CRC32 hash : 3EE2C18D
CRC32 hash (skip zero) : 3B2F5941
AccurateRip v1 signature : C97CA1F9 (F7ED8A89 w/correction)
AccurateRip v2 signature : 74B41627
->Accurately ripped with different offset (v1, confidence 3/3, offset -6)
Statistics
Read error : 0
Jitter error (maybe fixed) : 0
Retry sector count : 0
Damaged sector count : 0

Track 15
Filename : /Users/DrBanan/Desktop/15 Matthews Southern Comfort - Scion.flac
Pre-gap length : 00:01:04

CRC32 hash (test run) : 6861FC36
CRC32 hash : 6861FC36
CRC32 hash (skip zero) : BBBE5EEF
AccurateRip v1 signature : FFDB326F (59F8A16F w/correction)
AccurateRip v2 signature : 1C31B25D
->Accurately ripped with different offset (v1, confidence 3/3, offset -6)
Statistics
Read error : 1
Jitter error (maybe fixed) : 0
Retry sector count : 0
Damaged sector count : 0

Some errors occurred

End of status report

[CUETools log; Date: 19.10.2017 18:11:36; Version: 2.1.4]
[CTDB TOCID: cilneRHNyFEA_fUI.uZmrihiATU-] found.
Track | CTDB Status
1 | (12/12) Accurately ripped
2 | (12/12) Accurately ripped
3 | (12/12) Accurately ripped
4 | (12/12) Accurately ripped
5 | (12/12) Accurately ripped
6 | (12/12) Accurately ripped
7 | (12/12) Accurately ripped
8 | (12/12) Accurately ripped
9 | (12/12) Accurately ripped
10 | (12/12) Accurately ripped
11 | (12/12) Accurately ripped
12 | (12/12) Accurately ripped
13 | (12/12) Accurately ripped
14 | (12/12) Accurately ripped
15 | (12/12) Accurately ripped
[AccurateRip ID: 001e8898-015a70dc-db0d120f] found.
Track [ CRC | V2 ] Status
01 [4aec81db|92e39b0a] (0+2/5) Accurately ripped
02 [16eac638|90f8718d] (0+2/5) Accurately ripped
03 [2f4e77e8|f60db471] (0+2/5) Accurately ripped
04 [778c334d|a13ab835] (0+2/5) Accurately ripped
05 [3b188bdb|f8cba0b2] (0+2/5) Accurately ripped
06 [75ab83b2|55a0f24c] (0+2/5) Accurately ripped
07 [9a886574|44dd07b1] (0+2/5) Accurately ripped
08 [af967c33|90ec0225] (0+2/5) Accurately ripped
09 [2dc0471f|09744f0a] (0+2/5) Accurately ripped
10 [90b46cd4|d2f4e1be] (0+2/5) Accurately ripped
11 [925ba23a|083ccaa2] (0+2/5) Accurately ripped
12 [e738c6f0|b9761286] (0+2/4) Accurately ripped
13 [a2b69b5f|1d22f937] (0+2/5) Accurately ripped
14 [c97ca1f9|74b41627] (0+2/5) Accurately ripped
15 [ffdb326f|1c31b25d] (0+2/5) Accurately ripped
Offsetted by -6:
01 [b7978bbb] (3/5) Accurately ripped
02 [0e1fda35] (3/5) Accurately ripped
03 [74eb711a] (3/5) Accurately ripped
04 [98b9a6d6] (3/5) Accurately ripped
05 [ab469e6f] (3/5) Accurately ripped
06 [26d022dc] (3/5) Accurately ripped
07 [f8762f20] (3/5) Accurately ripped
08 [e1b7517e] (3/5) Accurately ripped
09 [d8a5d5e2] (3/5) Accurately ripped
10 [e57de488] (3/5) Accurately ripped
11 [8486b096] (3/5) Accurately ripped
12 [c6f47b92] (2/4) Accurately ripped
13 [cc9cf491] (3/5) Accurately ripped
14 [f7ed8a89] (3/5) Accurately ripped
15 [59f8a16f] (3/5) Accurately ripped
Offsetted by -36:
01 [d6eebd1b] (0/5) No match
02 [14702c69] (0/5) No match (V2 was not tested)
03 [4e9de1f2] (0/5) No match
04 [b541a7fa] (0/5) No match
05 [e9dd0906] (0/5) No match
06 [9ccb3f0b] (0/5) No match
07 [4345c0fc] (0/5) No match
08 [33a64f9d] (0/5) No match
09 [30fc82ec] (0/5) No match
10 [ddd36e96] (0/5) No match
11 [4001f739] (0/5) No match
12 [259f02bc] (0/4) No match (V2 was not tested)
13 [9e1cb28b] (0/5) No match
14 [e0221559] (0/5) No match
15 [1c8bcc6f] (0/5) No match

Track Peak [ CRC32 ] [W/O NULL]
– 100,0 [E04C9275] [0FEE0194]
01 84,1 [5D962C69] [92FB578C]
02 89,1 [32D501EB] [BFFA0DB3]
03 89,1 [AC9D9539] [555464DB]
04 89,1 [CE26D372] [E4F9E98C]
05 84,1 [D0DDEE26] [9469892B]
06 89,1 [17DF2357] [F2D80469]
07 89,1 [ABDF2B79] [8CD160FC]
08 89,1 [436C4107] [B4D83E8F]
09 89,1 [93A37B42] [53CAF49C]
10 89,1 [A97FDF66] [548C9599]
11 100,0 [52700F23] [B4D6A929]
12 100,0 [907D938B] [960B6DD4]
13 89,1 [56206279] [36E90A5E]
14 94,4 [3EE2C18D] [3B2F5941]
15 89,1 [6861FC36] [BBBE5EEF]

foobar2000 1.2 / Dynamic Range Meter 1.1.1
log date: 2015-03-10 16:22:25

––––––––––––––––––––––––––––––––––––––––
Analyzed: Matthews Southern Comfort / Later That Same Year
––––––––––––––––––––––––––––––––––––––––

DR Peak RMS Duration Track
––––––––––––––––––––––––––––––––––––––––
DR10 -1.50 dB -12.46 dB 4:42 01-To Love
DR11 -1.00 dB -15.20 dB 4:38 02-And Me
DR11 -1.00 dB -14.96 dB 2:04 03-Tell Me Why
DR11 -1.00 dB -14.97 dB 4:13 04-Jonah
DR11 -1.50 dB -15.04 dB 1:38 05-My Lady
DR10 -1.00 dB -13.47 dB 2:16 06-And When She Smiles (She Makes The Sun Shine)
DR10 -1.00 dB -13.57 dB 3:45 07-Mare Take Me Home
DR13 -1.00 dB -15.58 dB 5:40 08-Sylvie
DR10 -1.00 dB -14.15 dB 3:00 09-Brand New Tennessee Waltz
DR9 -1.00 dB -12.41 dB 6:46 10-For Melanie
DR11 0.00 dB -13.67 dB 2:21 11-Road To Ronderlin
DR11 0.00 dB -12.74 dB 4:30 12-Woodstock
DR10 -1.00 dB -13.59 dB 3:51 13-The Struggle
DR10 -0.50 dB -12.77 dB 2:54 14-Parting
DR11 -1.00 dB -13.22 dB 3:28 15-Scion
––––––––––––––––––––––––––––––––––––––––

Number of tracks: 15
Official DR value: DR11

Samplerate: 44100 Hz
Channels: 2
Bits per sample: 16
Bitrate: 873 kbps
Codec: FLAC
================================================================================

Matthews Southern Comfort - Later That Same Year (1970) Expanded Reissue 2008 [Re-Up]

Matthews Southern Comfort - Later That Same Year (1970) Expanded Reissue 2008 [Re-Up]