Subcategories

Matthias Maute, Ensemble Caprice - Salsa Baroque (2010)

Posted By: ArlegZ
Matthias Maute, Ensemble Caprice - Salsa Baroque (2010)

Matthias Maute, Ensemble Caprice - Salsa Baroque (2010)
EAC | FLAC | Image (Cue & Log) ~ 293 Mb | Total time: 61:15 | Scans included
Classical | Label: Analekta | # AN 2 9957 | Recorded: 2010

Under the artistic direction of Matthias Maute, Ensemble Caprice is renowned for its innovative interpretations of baroque music. Their previous CDs Vivaldi & Baroque Gypsies (AN 29912) and Telemann & Baroque Gypsies (AN 29919) have been extremely successful. Here they turn their attention to the fiery and passionate music of South America, music with a unique character.

Performer:
Ensemble Caprice
Matthias Maute, direction

Track List:
Anonymous, Collection Flores de música, 1706-1709
01. Chacona
Anonymous, Perú, 1631
02. Hanacpachap cussicuinin
Anonymous, Collection Flores de música, 1706-1709
03. Differenzias sobre la Gayra
Gaspar Fernandes (c.1570-1629)
04. Tleycantimo choquiliya
Anonymous, Collection Flores de música, 1706-1709
05. Xácara
Juan de Araujo (1648-1712)
06. Los coflades de la estleya
Anonymous, Collection Flores de música, 1706-1709
07. Pasacalles de 2o tono
Henri de Bailly (c.1585-1637)
08. Yo soy la locura
Domenico Zipoli (1668-1726)
Pastorale
09. I. Allegro
10. II. Piva
11. III. Pastorale
Anonymous, Collection Truxillo del Perú II, c. 1780
12. Lanchas para baylar
Domenico Zipoli
Battalia imperiale
13. I. Battalia imperiale
14. II. Battalia dolorosa
15. III. Battalia furiosa
Antonio de Salazar (c.1650-1715)
16. Tarará
Anonymous, Collection Flores de música, 1706-1709
17. Temblante estilo italiano
Gaspar Fernandes
18. Xicochi Conetzintle
Santiago de Murcia (1673-1739)
19. Marizápalos
20. La Jotta
Anonymous, Collection Flores de música, 1706-1709
21. Discurso con ecos
Juan García de Zéspedes (1619-1678)
22. Convidando está la noche


Exact Audio Copy V1.3 from 2. September 2016

EAC extraction logfile from 22. June 2019, 15:07

Ensemble Caprice / Salsa Baroque

Used drive : HL-DT-STDVDRAM GP65NW60 Adapter: 1 ID: 0

Read mode : Secure
Utilize accurate stream : Yes
Defeat audio cache : Yes
Make use of C2 pointers : No

Read offset correction : 6
Overread into Lead-In and Lead-Out : No
Fill up missing offset samples with silence : Yes
Delete leading and trailing silent blocks : No
Null samples used in CRC calculations : Yes
Used interface : Native Win32 interface for Win NT & 2000

Used output format : User Defined Encoder
Selected bitrate : 1024 kBit/s
Quality : High
Add ID3 tag : No
Command line compressor : C:\Program Files (x86)\Exact Audio Copy\FLAC\FLAC.EXE
Additional command line options : -6 -V -T "ARTIST=%artist%" -T "TITLE=%title%" -T "ALBUM=%albumtitle%" -T "DATE=%year%" -T "TRACKNUMBER=%tracknr%" -T "GENRE=%genre%" -T "COMMENT=%comment%" -T "BAND=%albuminterpret%" -T "ALBUMARTIST=%albuminterpret%" -T "COMPOSER=%composer%" %haslyrics%–tag-from-file=LYRICS="%lyricsfile%"%haslyrics% -T "DISCNUMBER=%cdnumber%" -T "TOTALDISCS=%totalcds%" -T "TOTALTRACKS=%numtracks%" %hascover%–picture="%coverfile%"%hascover% %source% -o %dest%


TOC of the extracted CD

Track | Start | Length | Start sector | End sector
––––––––––––––––––––––––––––-
1 | 0:00.00 | 2:38.46 | 0 | 11895
2 | 2:38.46 | 3:47.28 | 11896 | 28948
3 | 6:25.74 | 4:17.31 | 28949 | 48254
4 | 10:43.30 | 3:37.05 | 48255 | 64534
5 | 14:20.35 | 2:03.30 | 64535 | 73789
6 | 16:23.65 | 4:19.69 | 73790 | 93283
7 | 20:43.59 | 2:29.28 | 93284 | 104486
8 | 23:13.12 | 4:56.65 | 104487 | 126751
9 | 28:10.02 | 1:13.41 | 126752 | 132267
10 | 29:23.43 | 0:23.45 | 132268 | 134037
11 | 29:47.13 | 1:19.71 | 134038 | 140033
12 | 31:07.09 | 2:23.34 | 140034 | 150792
13 | 33:30.43 | 1:10.39 | 150793 | 156081
14 | 34:41.07 | 0:59.58 | 156082 | 160564
15 | 35:40.65 | 1:22.36 | 160565 | 166750
16 | 37:03.26 | 1:29.51 | 166751 | 173476
17 | 38:33.02 | 3:05.46 | 173477 | 187397
18 | 41:38.48 | 2:05.34 | 187398 | 196806
19 | 43:44.07 | 3:33.54 | 196807 | 212835
20 | 47:17.61 | 3:49.16 | 212836 | 230026
21 | 51:07.02 | 6:39.09 | 230027 | 259960
22 | 57:46.11 | 3:29.00 | 259961 | 275635


Range status and errors

Selected range

Filename C:\Users\Grant\Desktop\Ensemble Caprice - Salsa Baroque.wav

Peak level 98.8 %
Extraction speed 1.9 X
Range quality 100.0 %
Test CRC EF1D8C6C
Copy CRC EF1D8C6C
Copy OK

No errors occurred


AccurateRip summary

Track 1 accurately ripped (confidence 5) [77D1A07A] (AR v2)
Track 2 accurately ripped (confidence 5) [B52EE6BC] (AR v2)
Track 3 accurately ripped (confidence 5) [5494525C] (AR v2)
Track 4 accurately ripped (confidence 5) [C2386195] (AR v2)
Track 5 accurately ripped (confidence 5) [4596D8DB] (AR v2)
Track 6 accurately ripped (confidence 5) [8EDB8177] (AR v2)
Track 7 accurately ripped (confidence 5) [19D30463] (AR v2)
Track 8 accurately ripped (confidence 5) [BC6D9E42] (AR v2)
Track 9 accurately ripped (confidence 5) [2725AF37] (AR v2)
Track 10 accurately ripped (confidence 5) [A2C0FCB7] (AR v2)
Track 11 accurately ripped (confidence 5) [EEC3D661] (AR v2)
Track 12 accurately ripped (confidence 5) [73833578] (AR v2)
Track 13 accurately ripped (confidence 5) [48AFEE47] (AR v2)
Track 14 accurately ripped (confidence 5) [1693D8F4] (AR v2)
Track 15 accurately ripped (confidence 5) [952B0F79] (AR v2)
Track 16 accurately ripped (confidence 5) [DA891E63] (AR v2)
Track 17 accurately ripped (confidence 5) [A31E45D9] (AR v2)
Track 18 accurately ripped (confidence 5) [91064484] (AR v2)
Track 19 accurately ripped (confidence 5) [DB64C98F] (AR v2)
Track 20 accurately ripped (confidence 5) [0A01B787] (AR v2)
Track 21 accurately ripped (confidence 5) [DE3C2048] (AR v2)
Track 22 accurately ripped (confidence 5) [C937A052] (AR v2)

All tracks accurately ripped

End of status report

–– CUETools DB Plugin V2.1.6

[CTDB TOCID: K981pM3z1JFMc1YDcwOQTmSK3sA-] found
Submit result: K981pM3z1JFMc1YDcwOQTmSK3sA- has been confirmed
Track | CTDB Status
1 | (15/15) Accurately ripped
2 | (15/15) Accurately ripped
3 | (15/15) Accurately ripped
4 | (15/15) Accurately ripped
5 | (15/15) Accurately ripped
6 | (15/15) Accurately ripped
7 | (15/15) Accurately ripped
8 | (15/15) Accurately ripped
9 | (15/15) Accurately ripped
10 | (15/15) Accurately ripped
11 | (15/15) Accurately ripped
12 | (15/15) Accurately ripped
13 | (15/15) Accurately ripped
14 | (15/15) Accurately ripped
15 | (15/15) Accurately ripped
16 | (15/15) Accurately ripped
17 | (15/15) Accurately ripped
18 | (15/15) Accurately ripped
19 | (15/15) Accurately ripped
20 | (10/15) Accurately ripped
21 | (15/15) Accurately ripped
22 | (15/15) Accurately ripped


==== Log checksum 48D5BB57D20B4B417E095439A53F3DCFD9ADC24ECF7C726399F1EC9707F770EB ====

Matthias Maute, Ensemble Caprice - Salsa Baroque (2010)

Thanks to the original releaser