Subcategories

Matthias Maute, Ensemble Caprice - Vivaldi: The Return of the Angels (2011)

Posted By: ArlegZ
Matthias Maute, Ensemble Caprice - Vivaldi: The Return of the Angels (2011)

Matthias Maute, Ensemble Caprice - Vivaldi: The Return of the Angels (2011)
EAC | FLAC | Image (Cue & Log) ~ 258 Mb | Total time: 57:46 | Scans included
Classical | Label: Analekta | # AN29995 | Recorded: 2011

Following Ensemble Caprice’s first recording of Vivaldi’s sacred music (Gloria! Vivaldi and his Angels) we return to Vivaldi’s Venice and find ourselves yet again within the confines of the Ospedale della Pietà orphanage where, beginning in 1703, Vivaldi, the Red Priest, not only taught the orphan girls violin and singing, but also composed many of his most dazzling concertos as well as a substantial part of his highly inspired corpus of sacred music.

Performer:
Gabriele Hierdeis & Shannon Mercer (soprano)
Laura Pudwell (mezzo-soprano)
Alexis Basque (trumpet)
Matthew Jennejohn (baroque oboe)
Ensemble Caprice
Matthias Maute

Track List:
Antonio Vivaldi (1678-1741)
Oratorio Juditha triumphans, RV 644 (extraits / excerpts)
01. Coro: Arma, caedes, vindictae
02. Coro: O quam vaga
03. Aria: Armatae, face
04. Coro: Mundi rector
05. Coro: Plena nectare non mero
06. Aria: Si fulgida
07. Coro: Salve, invicta Juditha
Concerto in D Minor for 2 Recorders, 2 Oboes, 2 Violins, Strings and Continuo, RV 566
08. Allegro assai
09. Largo
10. Allegro
11. Laudate Dominum (Psalm 116), RV 606
Jan Dismas Zelenka (1679-1745)
Oratorio Gesù al calvario, ZWV 62 (extraits / excerpts)
12. Recitativo: O figlie di Sionne
13. Coro: Misera Madre
Antonio Vivaldi
14. In exitu Israel (Psalm 113), RV 604
Motet O qui coeli terraeque serenitas, RV 631
15. Aria: O qui coeli terraeque serenitas (Allegro)
16. Recitativo Fac ut sordescat tellus
17. Aria: Rosa quae moritur (Largo)
18. Alleluia (Allegro)
Soprano: Gabriele Hierdeis
Concerto in D Major for Trumpet, Oboe, Strings and Continuo, RV 563
19. Allegro
20. Grave
21. Allegro


Exact Audio Copy V1.3 from 2. September 2016

EAC extraction logfile from 13. June 2019, 12:21

Ensemble Caprice / Vivaldi - The Return of the Angels

Used drive : HL-DT-STDVDRAM GP65NW60 Adapter: 1 ID: 0

Read mode : Secure
Utilize accurate stream : Yes
Defeat audio cache : Yes
Make use of C2 pointers : No

Read offset correction : 6
Overread into Lead-In and Lead-Out : No
Fill up missing offset samples with silence : Yes
Delete leading and trailing silent blocks : No
Null samples used in CRC calculations : Yes
Used interface : Native Win32 interface for Win NT & 2000

Used output format : User Defined Encoder
Selected bitrate : 1024 kBit/s
Quality : High
Add ID3 tag : No
Command line compressor : C:\Program Files (x86)\Exact Audio Copy\FLAC\FLAC.EXE
Additional command line options : -6 -V -T "ARTIST=%artist%" -T "TITLE=%title%" -T "ALBUM=%albumtitle%" -T "DATE=%year%" -T "TRACKNUMBER=%tracknr%" -T "GENRE=%genre%" -T "COMMENT=%comment%" -T "BAND=%albuminterpret%" -T "ALBUMARTIST=%albuminterpret%" -T "COMPOSER=%composer%" %haslyrics%–tag-from-file=LYRICS="%lyricsfile%"%haslyrics% -T "DISCNUMBER=%cdnumber%" -T "TOTALDISCS=%totalcds%" -T "TOTALTRACKS=%numtracks%" %hascover%–picture="%coverfile%"%hascover% %source% -o %dest%


TOC of the extracted CD

Track | Start | Length | Start sector | End sector
––––––––––––––––––––––––––––-
1 | 0:00.00 | 3:30.18 | 0 | 15767
2 | 3:30.18 | 1:21.69 | 15768 | 21911
3 | 4:52.12 | 3:12.04 | 21912 | 36315
4 | 8:04.16 | 2:54.09 | 36316 | 49374
5 | 10:58.25 | 1:57.00 | 49375 | 58149
6 | 12:55.25 | 2:28.66 | 58150 | 69315
7 | 15:24.16 | 1:12.74 | 69316 | 74789
8 | 16:37.15 | 2:22.61 | 74790 | 85500
9 | 19:00.01 | 2:48.66 | 85501 | 98166
10 | 21:48.67 | 2:55.57 | 98167 | 111348
11 | 24:44.49 | 1:36.55 | 111349 | 118603
12 | 26:21.29 | 1:08.61 | 118604 | 123764
13 | 27:30.15 | 5:09.73 | 123765 | 147012
14 | 32:40.13 | 3:17.06 | 147013 | 161793
15 | 35:57.19 | 3:29.37 | 161794 | 177505
16 | 39:26.56 | 0:35.33 | 177506 | 180163
17 | 40:02.14 | 5:23.30 | 180164 | 204418
18 | 45:25.44 | 1:42.30 | 204419 | 212098
19 | 47:07.74 | 2:24.73 | 212099 | 222971
20 | 49:32.72 | 1:48.51 | 222972 | 231122
21 | 51:21.48 | 1:52.56 | 231123 | 239578
22 | 53:14.29 | 4:32.35 | 239579 | 260013


Range status and errors

Selected range

Filename C:\Users\Grant\Desktop\Ensemble Caprice - Vivaldi - The Return of the Angels.wav

Peak level 99.9 %
Extraction speed 1.9 X
Range quality 100.0 %
Test CRC 3A980917
Copy CRC 3A980917
Copy OK

No errors occurred


AccurateRip summary

Track 1 accurately ripped (confidence 3) [45DCA8E4] (AR v2)
Track 2 accurately ripped (confidence 3) [A94E988E] (AR v2)
Track 3 accurately ripped (confidence 3) [7224D853] (AR v2)
Track 4 accurately ripped (confidence 3) [872913E1] (AR v2)
Track 5 accurately ripped (confidence 3) [FC64B62A] (AR v2)
Track 6 accurately ripped (confidence 3) [BCB10F02] (AR v2)
Track 7 accurately ripped (confidence 3) [B362F44A] (AR v2)
Track 8 accurately ripped (confidence 3) [8B4EB145] (AR v2)
Track 9 accurately ripped (confidence 3) [111A6E33] (AR v2)
Track 10 accurately ripped (confidence 3) [AA397EFE] (AR v2)
Track 11 accurately ripped (confidence 3) [E248E68B] (AR v2)
Track 12 accurately ripped (confidence 3) [26DC0A22] (AR v2)
Track 13 accurately ripped (confidence 3) [9A91A02C] (AR v2)
Track 14 accurately ripped (confidence 3) [23248B65] (AR v2)
Track 15 accurately ripped (confidence 3) [0F5D356B] (AR v2)
Track 16 accurately ripped (confidence 3) [25D275E6] (AR v2)
Track 17 accurately ripped (confidence 3) [7257F2FB] (AR v2)
Track 18 accurately ripped (confidence 3) [E61B03A9] (AR v2)
Track 19 accurately ripped (confidence 3) [E5F0D40B] (AR v2)
Track 20 accurately ripped (confidence 3) [699C226D] (AR v2)
Track 21 accurately ripped (confidence 3) [8CBCB12B] (AR v2)
Track 22 accurately ripped (confidence 3) [AA0CEF35] (AR v2)

All tracks accurately ripped

End of status report

–– CUETools DB Plugin V2.1.6

[CTDB TOCID: 8NrogLuBWxl8bmXCDVsXUshs90Q-] found
Submit result: 8NrogLuBWxl8bmXCDVsXUshs90Q- has been confirmed
Track | CTDB Status
1 | (4/4) Accurately ripped
2 | (4/4) Accurately ripped
3 | (4/4) Accurately ripped
4 | (4/4) Accurately ripped
5 | (4/4) Accurately ripped
6 | (4/4) Accurately ripped
7 | (4/4) Accurately ripped
8 | (4/4) Accurately ripped
9 | (4/4) Accurately ripped
10 | (4/4) Accurately ripped
11 | (4/4) Accurately ripped
12 | (4/4) Accurately ripped
13 | (4/4) Accurately ripped
14 | (4/4) Accurately ripped
15 | (4/4) Accurately ripped
16 | (4/4) Accurately ripped
17 | (4/4) Accurately ripped
18 | (4/4) Accurately ripped
19 | (4/4) Accurately ripped
20 | (4/4) Accurately ripped
21 | (4/4) Accurately ripped
22 | (4/4) Accurately ripped


==== Log checksum D37679186BE609F764C731A018226BE8EAA3D3B523A54130513157D69E22CF5E ====

Matthias Maute, Ensemble Caprice - Vivaldi: The Return of the Angels (2011)

Thanks to the original releaser