Subcategories

Max Richter - Taboo (Music From The Original TV Series) (2017)

Posted By: Pisulik
Max Richter - Taboo (Music From The Original TV Series) (2017)

Max Richter - Taboo (Music From The Original TV Series) (2017)
EAC Rip | FLAC (Tracks) +cue, log, artworks - 336 MB | 00:43:56
Soundtrack, Classical, Ambient | Label: Deutsche Grammophon

„Taboo“ is hardly the word that springs to mind when we think of esteemed contemporary composer Max Richter, but his loveliness persists here in a score of stakes-raising tension. The soundtrack was made for the eponymous TV show about the mysterious time of 1814, which was a long time ago.

TRACKLIST

01. Openings
02. The Inexorable Advance Of Mr. Delaney
03. Song Of The Dead
04. Zilpha
05. A Lamenting Song
06. Shadows
07. This Little Pig Went To Market
08. Zilpha (Recollection)
09. Song Of The Beyond
10. I'd Hoped To Settle This&
11. Nocturnal
12. The Onrush Of Events
13. Zilpha Alone
14. Attend To The Matter
15. Lamentation For A Lost Life
16. Taboo Lament (Antimatter Fellini Waltz) (Bonus Track)
17. Celesta Taboo Lament (Title Edit) (Bonus Track)

Exact Audio Copy V1.1 from 23. June 2015

EAC extraction logfile from 27. September 2017, 16:02

Max Richter / Taboo

Used drive : slimtype eTDU108 1 Adapter: 1 ID: 0

Read mode : Secure
Utilize accurate stream : Yes
Defeat audio cache : Yes
Make use of C2 pointers : No

Read offset correction : 6
Overread into Lead-In and Lead-Out : No
Fill up missing offset samples with silence : Yes
Delete leading and trailing silent blocks : No
Null samples used in CRC calculations : Yes
Used interface : Native Win32 interface for Win NT & 2000
Gap handling : Appended to previous track

Used output format : User Defined Encoder
Selected bitrate : 1024 kBit/s
Quality : High
Add ID3 tag : No
Command line compressor : C:\Program Files (x86)\Exact Audio Copy\FLAC\FLAC.EXE
Additional command line options : -6 -V -T "ARTIST=%artist%" -T "TITLE=%title%" -T "ALBUM=%albumtitle%" -T "DATE=%year%" -T "TRACKNUMBER=%tracknr%" -T "GENRE=%genre%" -T "COMMENT=%comment%" -T "BAND=%albuminterpret%" -T "ALBUMARTIST=%albuminterpret%" -T "COMPOSER=%composer%" %haslyrics%–tag-from-file=LYRICS="%lyricsfile%"%haslyrics% -T "DISCNUMBER=%cdnumber%" -T "TOTALDISCS=%totalcds%" -T "TOTALTRACKS=%numtracks%" %hascover%–picture="%coverfile%"%hascover% %source% -o %dest%


TOC of the extracted CD

Track | Start | Length | Start sector | End sector
––––––––––––––––––––––––––––-
1 | 0:00.00 | 2:13.45 | 0 | 10019
2 | 2:13.45 | 2:56.03 | 10020 | 23222
3 | 5:09.48 | 5:18.15 | 23223 | 47087
4 | 10:27.63 | 4:30.61 | 47088 | 67398
5 | 14:58.49 | 1:49.56 | 67399 | 75629
6 | 16:48.30 | 2:53.31 | 75630 | 88635
7 | 19:41.61 | 1:01.40 | 88636 | 93250
8 | 20:43.26 | 2:44.70 | 93251 | 105620
9 | 23:28.21 | 2:36.39 | 105621 | 117359
10 | 26:04.60 | 2:07.05 | 117360 | 126889
11 | 28:11.65 | 4:06.74 | 126890 | 145413
12 | 32:18.64 | 2:05.69 | 145414 | 154857
13 | 34:24.58 | 2:19.10 | 154858 | 165292
14 | 36:43.68 | 1:26.42 | 165293 | 171784
15 | 38:10.35 | 2:21.38 | 171785 | 182397


Track 1

Filename D:\My Music\barca008\Max Richter - Taboo\01 - Openings.wav

Pre-gap length 0:00:02.00

Peak level 98.5 %
Extraction speed 0.9 X
Track quality 100.0 %
Test CRC 84474C9C
Copy CRC 84474C9C
Track not present in AccurateRip database
Copy OK

Track 2

Filename D:\My Music\barca008\Max Richter - Taboo\02 - The Inexorable Advance of Mr. Delaney.wav

Peak level 98.4 %
Extraction speed 1.1 X
Track quality 100.0 %
Test CRC 4EB1D449
Copy CRC 4EB1D449
Track not present in AccurateRip database
Copy OK

Track 3

Filename D:\My Music\barca008\Max Richter - Taboo\03 - Song of the Dead.wav

Peak level 98.6 %
Extraction speed 1.3 X
Track quality 100.0 %
Test CRC 13E454B5
Copy CRC 13E454B5
Track not present in AccurateRip database
Copy OK

Track 4

Filename D:\My Music\barca008\Max Richter - Taboo\04 - Zilpha.wav

Peak level 98.3 %
Extraction speed 1.4 X
Track quality 100.0 %
Test CRC 274EC996
Copy CRC 274EC996
Track not present in AccurateRip database
Copy OK

Track 5

Filename D:\My Music\barca008\Max Richter - Taboo\05 - A Lamenting Song.wav

Peak level 45.8 %
Extraction speed 1.3 X
Track quality 100.0 %
Test CRC 3284C3EC
Copy CRC 3284C3EC
Track not present in AccurateRip database
Copy OK

Track 6

Filename D:\My Music\barca008\Max Richter - Taboo\06 - Shadows.wav

Peak level 98.4 %
Extraction speed 1.4 X
Track quality 100.0 %
Test CRC 3AC5DD34
Copy CRC 3AC5DD34
Track not present in AccurateRip database
Copy OK

Track 7

Filename D:\My Music\barca008\Max Richter - Taboo\07 - This Little Pig Went To Market.wav

Peak level 95.5 %
Extraction speed 1.1 X
Track quality 100.0 %
Test CRC 0504B142
Copy CRC 0504B142
Track not present in AccurateRip database
Copy OK

Track 8

Filename D:\My Music\barca008\Max Richter - Taboo\08 - Zilpha (Recollection).wav

Peak level 80.6 %
Extraction speed 1.5 X
Track quality 100.0 %
Test CRC A76976AA
Copy CRC A76976AA
Track not present in AccurateRip database
Copy OK

Track 9

Filename D:\My Music\barca008\Max Richter - Taboo\09 - Song of the Beyond.wav

Peak level 38.1 %
Extraction speed 1.5 X
Track quality 100.0 %
Test CRC 6C313069
Copy CRC 6C313069
Track not present in AccurateRip database
Copy OK

Track 10

Filename D:\My Music\barca008\Max Richter - Taboo\10 - I'd Hoped To Settle This….wav

Peak level 98.4 %
Extraction speed 1.5 X
Track quality 100.0 %
Test CRC B32D8060
Copy CRC B32D8060
Track not present in AccurateRip database
Copy OK

Track 11

Filename D:\My Music\barca008\Max Richter - Taboo\11 - Nocturnal.wav

Peak level 99.1 %
Extraction speed 1.6 X
Track quality 99.9 %
Test CRC 704E7E15
Copy CRC 704E7E15
Track not present in AccurateRip database
Copy OK

Track 12

Filename D:\My Music\barca008\Max Richter - Taboo\12 - The Onrush of Events.wav

Peak level 98.6 %
Extraction speed 1.6 X
Track quality 100.0 %
Test CRC F84CD696
Copy CRC F84CD696
Track not present in AccurateRip database
Copy OK

Track 13

Filename D:\My Music\barca008\Max Richter - Taboo\13 - Zilpha Alone.wav

Peak level 74.1 %
Extraction speed 1.4 X
Track quality 99.9 %
Test CRC CFA1BB6A
Copy CRC CFA1BB6A
Track not present in AccurateRip database
Copy OK

Track 14

Filename D:\My Music\barca008\Max Richter - Taboo\14 - Attend To the Matter.wav

Peak level 93.1 %
Extraction speed 1.5 X
Track quality 100.0 %
Test CRC 114754A6
Copy CRC 114754A6
Track not present in AccurateRip database
Copy OK

Track 15

Filename D:\My Music\barca008\Max Richter - Taboo\15 - Lamentation For a Lost Life.wav

Peak level 55.4 %
Extraction speed 1.7 X
Track quality 100.0 %
Test CRC 2C4C7F92
Copy CRC 2C4C7F92
Track not present in AccurateRip database
Copy OK


None of the tracks are present in the AccurateRip database

No errors occurred

End of status report

–– CUETools DB Plugin V2.1.6

[CTDB TOCID: XJGtVkkiYucfm6aILyjpDvK1128-] disk not present in database
Submit result: XJGtVkkiYucfm6aILyjpDvK1128- has been uploaded


==== Log checksum 7F5D8174AA94878714BC713E134FEF2A06325AD976AF2AC9CF88F860C7C1906B ====