Subcategories
Tags
Language
Tags

Maxfield Parrish - It's A Cinch To Give Legs To Old Hard-Boiled Eggs (1972) Expanded Remastered Reissue 1999

Posted By: Designol
Maxfield Parrish - It's A Cinch To Give Legs To Old Hard-Boiled Eggs (1972) Expanded Remastered Reissue 1999

Maxfield Parrish - It's A Cinch To Give Legs To Old Hard-Boiled Eggs (1972)
EAC | FLAC | Image (Cue&Log) ~ 335 Mb | Mp3 (CBR320) ~ 136 Mb | Scans ~ 55 Mb
Label: Taxim Records | # TX 2051-2 TA | Time: 00:59:32
Psychedelic, Country-Rock, Folk-Rock

Maxfield Parrish's sole album, It's a Cinch to Give Legs to Old Hard-Boiled Eggs, is a perfect example of the direction that many West Coast rockers were taking in the late '60s, incorporating country stylings into adventurous rock songs. In this respect, It's a Cinch… falls neatly between the Grateful Dead at their rootsiest and cosmic cowboys like the New Riders of the Purple Sage. The high, lonesome melodies and lead singing and three- to four-part harmonies connect the band's inspirations and mentors, such as Jerry Garcia (who taught some members guitar) and the Beatles, to early-1900s mountain music that was so influential to all of the Californian country-rockers. However, the songs on It's a Cinch… are not nearly as explicitly country as NRPS, often owing as much to the adventurous mid-period music of the Byrds, and even Middle Eastern drones. This latter effect was probably most prominent due to the presence of the several members of Kaleidoscope who played on and produced the record. Songs like "It's Alright (I Love Her)" and "Bottle of Reds Blues" are definitely Bakersfield-heavy country-pop, but the fuzz-toned riffs of rockers like "Ellie McCall" and "'Round the Morning" might have been at home on Revolver or Aoxomoxoa. Though recorded in 1969, which places Maxfield Parrish at the forefront of the country-rock revolution (even if they were not innovators), It's a Cinch… would not be released until 1972, at which point country-rock had seen its glory days, and made the band appear to be imitators more than anything else. But this is clearly not the case – by turns accessible ("Cross Over the World"), whimsical ("Julie Columbus"), and flat-out odd ( the gothic-psychedelic "The Untransmuted Child" was even more adventurous in its scope than some of David Crosby's most far-out experiments with the Byrds), the album showcased a band willing to take high-flying chances with its music. Barely heard upon its release, this is a fine album worth investigation, more rewarding with every listen. Initially left off the original release, "The Untransmuted Child" and "'Round the Morning" were restored to their intended places when this lost gem was given its CD reissue in 1999; also included are five solid demos from 1972, which show principal songwriters David Biasotti and David Perrin Muir recording Rolling Stones-ish, acoustic roots-rock tunes that would unfortunately not see the light of day in full band arrangements.

Review by Alex Stimmel, Allmusic.com

Maxfield Parrish - It's A Cinch To Give Legs To Old Hard-Boiled Eggs (1972) Expanded Remastered Reissue 1999



The Maxfield Parrish
Perrin Muir - Vocals, Acoustic Guitar
David Biasotti - Vocals, Acoustic Guitar
Randy Groenke - Banjo
David McClellan - Mandolin
With
Chester Crill - Organ, Piano, Harmonica
Chris Darrow - Vocals, Bass
David Lindley - Electric Guitar, Banjo
Bernie Leadon - Acoustic Guitar
John Ware - Drums, Piano
John London - Bass

Recorded in 1969.
Tracks 1-8 "Original Album"
Tracks 9-10 "Original Album Leftovers"
Tracks 11-15 "All Gone Down - The Palmer Canyon Tape" Acoustic recordings by Muir & Biasotti

Tracklist:

01. The Lighthouse Is Falling (3:13)
02. It's Alright (I Love Her) (2:58)
03. Ellie McCall (2:05)
04. Cruel Deception (4:11)
05. Bottle Of Reds Blues (3:49)
06. Julie Columbus (2:28)
07. Cross Over The World (2:04)
08. The Widow (Lennie Porrue) (8:13)
09. 'round The Morning (2:56)
10. The Untransmuted Child (6:27)
11. Juanita (3:58)
12. Hershey (2:55)
13. Whoa Johnny (3:24)
14. Mother Of Pearl (3:04)
15. Dismal River (7:45)


Exact Audio Copy V0.99 prebeta 4 from 23. January 2008

Отчёт EAC об извлечении, выполненном 20. апреля 2013, 13:52

Maxfield Parrish / It's A Cinch To Give Legs To Old Hard-Boiled Eggs

Дисковод: ASUS DRW-1814BL Adapter: 1 ID: 0

Режим чтения : Достоверность
Использование точного потока : Да
Отключение кэша аудио : Да
Использование указателей C2 : Нет

Коррекция смещения при чтении : 6
Способность читать области Lead-in и Lead-out : Нет
Заполнение пропущенных сэмплов тишиной : Да
Удаление блоков с тишиной в начале и конце : Нет
При вычислениях CRC использовались нулевые сэмплы : Да
Интерфейс : Установленный внешний ASPI-интерфейс

Выходной формат : Пользовательский кодировщик
Выбранный битрейт : 1024 kBit/s
Качество : Высокий
Добавление ID3-тэга : Нет
Утилита сжатия : C:\Program Files\Exact Audio Copy\FLAC\FLAC.EXE
Дополнительные параметры : -6 -V -T "ARTIST=%a" -T "TITLE=%t" -T "ALBUM=%g" -T "DATE=%y" -T "TRACKNUMBER=%n" -T "GENRE=%m" -T "COMMENT=%e" %s -o %d


TOC извлечённого CD

Трек | Старт | Длительность | Начальный сектор | Конечный сектор
––––––––––––––––––––––––––––––––––-
1 | 0:00.00 | 3:13.35 | 0 | 14509
2 | 3:13.35 | 2:58.22 | 14510 | 27881
3 | 6:11.57 | 2:05.25 | 27882 | 37281
4 | 8:17.07 | 4:11.23 | 37282 | 56129
5 | 12:28.30 | 3:48.52 | 56130 | 73281
6 | 16:17.07 | 2:28.13 | 73282 | 84394
7 | 18:45.20 | 2:03.50 | 84395 | 93669
8 | 20:48.70 | 8:13.22 | 93670 | 130666
9 | 29:02.17 | 2:56.05 | 130667 | 143871
10 | 31:58.22 | 6:26.53 | 143872 | 172874
11 | 38:25.00 | 3:58.20 | 172875 | 190744
12 | 42:23.20 | 2:55.15 | 190745 | 203884
13 | 45:18.35 | 3:24.37 | 203885 | 219221
14 | 48:42.72 | 3:04.05 | 219222 | 233026
15 | 51:47.02 | 7:44.53 | 233027 | 267879


Характеристики диапазона извлечения и сообщения об ошибках

Выбранный диапазон

Имя файла D:\loSSleSS\maxfield parrish'72\Maxfield Parrish - It's A Cinch To Give Legs To Old Hard-Boiled Eggs.wav

Пиковый уровень 99.6 %
Качество диапазона 100.0 %
CRC теста F813F533
CRC копии F813F533
Копирование… OK

Ошибок не произошло


AccurateRip: сводка

Трек 1 нет в базе данных
Трек 2 нет в базе данных
Трек 3 нет в базе данных
Трек 4 нет в базе данных
Трек 5 нет в базе данных
Трек 6 нет в базе данных
Трек 7 нет в базе данных
Трек 8 нет в базе данных
Трек 9 нет в базе данных
Трек 10 нет в базе данных
Трек 11 нет в базе данных
Трек 12 нет в базе данных
Трек 13 нет в базе данных
Трек 14 нет в базе данных
Трек 15 нет в базе данных

Ни одного трека нет в базе AccurateRip

Конец отчёта

[CUETools log; Date: 11.12.2018 17:02:16; Version: 2.1.4]
[CTDB TOCID: 8Euw9wVaktZb9ktyBFbKswPAOg0-] found.
Track | CTDB Status
1 | (1/1) Accurately ripped
2 | (1/1) Accurately ripped
3 | (1/1) Accurately ripped
4 | (1/1) Accurately ripped
5 | (1/1) Accurately ripped
6 | (1/1) Accurately ripped
7 | (1/1) Accurately ripped
8 | (1/1) Accurately ripped
9 | (1/1) Accurately ripped
10 | (1/1) Accurately ripped
11 | (1/1) Accurately ripped
12 | (1/1) Accurately ripped
13 | (1/1) Accurately ripped
14 | (1/1) Accurately ripped
15 | (1/1) Accurately ripped
[AccurateRip ID: 001dbe8c-01594928-cd0df30f] disk not present in database.

Track Peak [ CRC32 ] [W/O NULL] [ LOG ]
– 99,6 [F813F533] [D9DB345B] CRC32
01 96,6 [A8B560B0] [9AE167CE]
02 82,8 [D4F6FDEF] [0CBAE581]
03 88,1 [E9A8EDDD] [46F41DB7]
04 99,6 [F2663E72] [C382A049]
05 82,8 [C7B22ED4] [518721E4]
06 70,9 [76D8DEE8] [52CC7716]
07 97,9 [C7084593] [3661C212]
08 96,3 [56999338] [41DE20F4]
09 93,0 [6AB68B36] [97323451]
10 95,1 [6D8AA3CC] [001FEE4C]
11 79,4 [BE9D5E76] [C01999DC]
12 79,4 [4F3D15F0] [75524CCA]
13 79,4 [282C5434] [2884BDAE]
14 79,4 [EFCEFE30] [D583B9E3]
15 79,4 [F51CEEC3] [94555128]

foobar2000 1.2 / Dynamic Range Meter 1.1.1
log date: 2018-12-11 17:21:18

––––––––––––––––––––––––––––––––––––––––
Analyzed: Maxfield Parrish / It's A Cinch To Give Legs To Old Hard-Boiled Eggs
––––––––––––––––––––––––––––––––––––––––

DR Peak RMS Duration Track
––––––––––––––––––––––––––––––––––––––––
DR9 -0.30 dB -12.74 dB 3:13 01-The Lighthouse Is Falling
DR9 -1.63 dB -12.07 dB 2:58 02-It's Alright (I Love Her)
DR8 -1.10 dB -10.70 dB 2:05 03-Ellie McCall
DR10 -0.03 dB -11.53 dB 4:11 04-Cruel Deception
DR8 -1.63 dB -10.77 dB 3:49 05-Bottle Of Reds Blues
DR6 -2.98 dB -11.25 dB 2:28 06-Julie Columbus
DR10 -0.18 dB -11.71 dB 2:04 07-Cross Over The World
DR11 -0.32 dB -13.56 dB 8:13 08-The Widow (Lennie Porrue)
DR8 -0.63 dB -10.44 dB 2:56 09-'round The Morning
DR10 -0.43 dB -11.98 dB 6:27 10-The Untransmuted Child
DR6 -2.00 dB -10.73 dB 3:58 11-Juanita
DR6 -2.00 dB -10.74 dB 2:55 12-Hershey
DR7 -2.00 dB -9.71 dB 3:24 13-Whoa Johnny
DR6 -2.00 dB -8.85 dB 3:04 14-Mother Of Pearl
DR5 -2.00 dB -8.94 dB 7:45 15-Dismal River
––––––––––––––––––––––––––––––––––––––––

Number of tracks: 15
Official DR value: DR8

Samplerate: 44100 Hz
Channels: 2
Bits per sample: 16
Bitrate: 786 kbps
Codec: FLAC
================================================================================

Maxfield Parrish - It's A Cinch To Give Legs To Old Hard-Boiled Eggs (1972) Expanded Remastered Reissue 1999

Maxfield Parrish - It's A Cinch To Give Legs To Old Hard-Boiled Eggs (1972) Expanded Remastered Reissue 1999

All thanks to original releaser - vicpalbk2006

More interesting music in My Blog