Subcategories

Maynard Ferguson - Carnival (2003)

Posted By: PCWhizzkid
Maynard Ferguson - Carnival (2003)

Maynard Ferguson - Carnival (2003)
EAC V1.0 beta 1 | FLAC ( Secure Mode ) Image + Cue + Log - 296 MB
FULL SCANS - 11 MB (600dpi) | Recovery Record + 3%
Genre: Jazz / Big Band | Label: Wounded Bird (Sony) | Catalogue No: WOU 5480
Wupload & Filesonic

Maynard Ferguson has been considered one of the premier jazz trumpet virtuosos for over 4 decades! He has a cult following of trumpet players all over the world. He has released numerous albums over those years, his most popular being on the Columbia label in the 70's and 80's. Carnival was originally issued in 1978 and reached # 113 on the Billboard charts. This album features his interpretation of the jazz classic 'Birdland' as well as 7 other tracks.

Personnel:

Maynard Ferguson (trumpet, flugelhorn); Barbara Massey, Martha Stewart, Ullanda McCullough, Yolanda McCullough, Maretha Stewart, Hilda Harris, Vivian Cherry (vocals); John Qdini (guitar, acoustic guitar, electric guitar); John Odini (guitar); Bobby Militello (flute, alto flute, piccolo, baritone saxophone); Mike Migliore (flute, soprano saxophone, alto saxophone); Gordon Johnson (flute, acoustic bass, electric bass); Eric Traub (soprano saxophone, tenor saxophone); Joe Mosello (trumpet, piccolo trumpet, flugelhorn, percussion); Dan Welty, Dennis Noday, Stan Mark, Ron Tooley (trumpet, flugelhorn); Nick Lane, Phil Gray (trombone); Biff Hannon (electric piano, Fender Rhodes piano, keyboards, synthesizer, Moog synthesizer); Bill Hannon (electric piano, synthesizer); Bob Economou, Peter Erskine (drums); Ralph MacDonald, Rubens Bassini (percussion).


TRACK LIST:

01. M.F. Carnival [0:06:07.10]
02. Fantasy [0:04:23.40]
03. Theme from "Battlestar Galactica" [0:05:58.37]
04. Stella by Starlight [0:07:18.50]
05. Birdland [0:05:39.63]
06. Baker Street [0:06:52.00]
07. How Ya Doin' Baby? [0:04:05.12]
08. Over the Rainbow [0:05:29.73]

Recording Time: - 45:54

Exact Audio Copy V1.0 beta 1 from 15. November 2010

EAC extraction logfile from 16. July 2011, 11:48

Maynard Ferguson / Carnival

Used drive : HL-DT-STDVDRAM GH22NS40 Adapter: 5 ID: 0

Read mode : Secure
Utilize accurate stream : Yes
Defeat audio cache : Yes
Make use of C2 pointers : No

Read offset correction : 667
Overread into Lead-In and Lead-Out : No
Fill up missing offset samples with silence : Yes
Delete leading and trailing silent blocks : No
Null samples used in CRC calculations : Yes
Used interface : Native Win32 interface for Win NT & 2000

Used output format : User Defined Encoder
Selected bitrate : 1024 kBit/s
Quality : High
Add ID3 tag : No
Command line compressor : C:\Program Files (x86)\Exact Audio Copy\FLAC\FLAC.EXE
Additional command line options : -6 -V -T "ARTIST=%a" -T "TITLE=%t" -T "ALBUM=%g" -T "DATE=%y" -T "TRACKNUMBER=%n" -T "GENRE=%m" -T "COMMENT=%e" %j–picture="%i"%j %s -o %d


TOC of the extracted CD

Track | Start | Length | Start sector | End sector
––––––––––––––––––––––––––––-
1 | 0:00.00 | 6:07.10 | 0 | 27534
2 | 6:07.10 | 4:23.40 | 27535 | 47299
3 | 10:30.50 | 5:58.37 | 47300 | 74186
4 | 16:29.12 | 7:18.50 | 74187 | 107086
5 | 23:47.62 | 5:39.63 | 107087 | 132574
6 | 29:27.50 | 6:52.00 | 132575 | 163474
7 | 36:19.50 | 4:05.12 | 163475 | 181861
8 | 40:24.62 | 5:29.73 | 181862 | 206609


Range status and errors

Selected range

Filename T:\Maynard Ferguson - Carnival\Maynard Ferguson - Carnival.wav

Peak level 100.0 %
Extraction speed 0.2 X
Range quality 100.0 %
Test CRC 09DBAE63
Copy CRC 09DBAE63
Copy OK

No errors occurred


AccurateRip summary

Track 1 accurately ripped (confidence 3) [D78D76A7]
Track 2 accurately ripped (confidence 3) [CA699E8B]
Track 3 accurately ripped (confidence 3) [E56001BE]
Track 4 accurately ripped (confidence 3) [4652D305]
Track 5 accurately ripped (confidence 3) [CA5AA631]
Track 6 accurately ripped (confidence 3) [103A648D]
Track 7 accurately ripped (confidence 3) [6173943E]
Track 8 accurately ripped (confidence 3) [5D2F7E55]

All tracks accurately ripped

End of status report

==== Log checksum 894BBFAB426CB909F411EC08BD8C867685C02CE00311B8137A0FE47E49123A5D ====



Maynard Ferguson - Carnival (2003)



Maynard Ferguson - Carnival (2003)