Subcategories

Maynard Ferguson - I Have But Two Horns (The Arrangements of Bill Holman) [2CD] (2005)

Posted By: PCWhizzkid
Maynard Ferguson - I Have But Two Horns (The Arrangements of Bill Holman) [2CD] (2005)

Maynard Ferguson - I Have But Two Horns (The Arrangements of Bill Holman) [2CD] (2005)
EAC V1.0 beta 1 | FLAC ( Secure Mode ) Image + Cue + Log - (CD1) 331 MB + (CD2) 246 MB
FULL SCANS - 21 MB (600dpi) | Recovery Record + 5%
Genre: Jazz / Big Band | Label: Fresh Sound Records | Catalogue No: FSR 2209
Wupload & Filesonic

Until the early 50 s, Maynard Ferguson's fantastic technique was often said to obscure every other aspect of his work. With the tracks at hand, he revealed himself as a fine all-round musician, band leader and brilliant soloist, both in trumpet and valve trombone. Bill Homan whose works can be considered as some of the most representative of the West Coast school of jazz once said, "I've always tried to write things that sound like jazz, not like Bach revisited." Thanks to his arrangements and to the exceptional musicians who perform them, Ferguson expresses himself in a way he had never previously found possible.

Personnel:

Conte Candoli, Buddy Childers, Ray Linn, Red Mitchell, Lorraine Geller, Bob Gordon, Georgie Auld, Bill Holman, Nino Tempo, Herb Geller, more


TRACK LIST:

Disc 1


1. Finger Snappin 3:51
2. Autumn Leaves 3:15
3. What Was Her Name? 5:03
4. My New Flame 4:04
5. 20, Rue de Madrid 5:05
6. Inter-Space 3:34
7. Super-G 7:29
8. Yeah 6:52
9. I Have But Two Horns 3:41
10. Breakfast Dance 3:59
11. Slow Stroll 2:41
12. Wonder Why 3:28
13. Egad, Martha 3:50

Exact Audio Copy V1.0 beta 1 from 15. November 2010

EAC extraction logfile from 13. June 2011, 13:19

Maynard Ferguson / I Have But Two Horns (Disc1)

Used drive : HL-DT-STDVDRAM GH22NS40 Adapter: 4 ID: 0

Read mode : Secure
Utilize accurate stream : Yes
Defeat audio cache : Yes
Make use of C2 pointers : No

Read offset correction : 667
Overread into Lead-In and Lead-Out : No
Fill up missing offset samples with silence : Yes
Delete leading and trailing silent blocks : No
Null samples used in CRC calculations : Yes
Used interface : Native Win32 interface for Win NT & 2000

Used output format : User Defined Encoder
Selected bitrate : 1024 kBit/s
Quality : High
Add ID3 tag : No
Command line compressor : C:\Program Files (x86)\Exact Audio Copy\FLAC\FLAC.EXE
Additional command line options : -6 -V -T "ARTIST=%a" -T "TITLE=%t" -T "ALBUM=%g" -T "DATE=%y" -T "TRACKNUMBER=%n" -T "GENRE=%m" -T "COMMENT=%e" %j–picture="%i"%j %s -o %d


TOC of the extracted CD

Track | Start | Length | Start sector | End sector
––––––––––––––––––––––––––––-
1 | 0:00.00 | 3:50.19 | 0 | 17268
2 | 3:50.19 | 3:16.39 | 17269 | 32007
3 | 7:06.58 | 5:03.72 | 32008 | 54804
4 | 12:10.55 | 4:05.08 | 54805 | 73187
5 | 16:15.63 | 5:06.64 | 73188 | 96201
6 | 21:22.52 | 3:35.31 | 96202 | 112357
7 | 24:58.08 | 7:30.31 | 112358 | 146138
8 | 32:28.39 | 6:53.66 | 146139 | 177179
9 | 39:22.30 | 3:42.06 | 177180 | 193835
10 | 43:04.36 | 4:00.38 | 193836 | 211873
11 | 47:04.74 | 2:42.31 | 211874 | 224054
12 | 49:47.30 | 3:29.21 | 224055 | 239750
13 | 53:16.51 | 3:49.56 | 239751 | 256981


Range status and errors

Selected range

Filename H:\Maynard Ferguson - I Have But Two Horns (Disc1).wav

Peak level 85.0 %
Extraction speed 0.1 X
Range quality 100.0 %
Copy CRC 238C7BAB
Copy OK

No errors occurred


AccurateRip summary

Track 1 accurately ripped (confidence 4) [B51C3740]
Track 2 accurately ripped (confidence 4) [2D35B298]
Track 3 accurately ripped (confidence 4) [D3A25F9D]
Track 4 accurately ripped (confidence 4) [12DDAB42]
Track 5 accurately ripped (confidence 4) [8D32C8B1]
Track 6 accurately ripped (confidence 4) [136C8BD0]
Track 7 accurately ripped (confidence 4) [77C049B1]
Track 8 accurately ripped (confidence 4) [DEFAB8E2]
Track 9 accurately ripped (confidence 4) [0C42502D]
Track 10 accurately ripped (confidence 4) [CE3A5C74]
Track 11 accurately ripped (confidence 4) [A3EAA821]
Track 12 accurately ripped (confidence 4) [A2E6A6BA]
Track 13 accurately ripped (confidence 4) [19A7F0C5]

All tracks accurately ripped

End of status report

==== Log checksum 14E46920E41C43E0B2E2D2D479400C00803E6CBC91082A285C4E5945B3551A48 ====



TRACK LIST:

Disc 2


1. The Roamin Showman 3:34
2. Open Sesame 3:10
3. C est La Blues 3:57
4. Wildman 3:14
5. Dancing Nitely 3:45
6. Ain t Life Grand? 3:13
7. Idyll 3:19
8. Well, Hardly Ever 3:29
9. Dreamboat 2:50
10. Never You Mind 3:27
11. Mrs. Pitlack Regrets 3:11
12. Pork Pie 3:26


Total Recording Time Recording Time 97 minutes


Exact Audio Copy V1.0 beta 1 from 15. November 2010

EAC extraction logfile from 13. June 2011, 13:48

Maynard Ferguson / I Have But Two Horns (Disc2)

Used drive : HL-DT-STDVDRAM GH22NS40 Adapter: 4 ID: 0

Read mode : Secure
Utilize accurate stream : Yes
Defeat audio cache : Yes
Make use of C2 pointers : No

Read offset correction : 667
Overread into Lead-In and Lead-Out : No
Fill up missing offset samples with silence : Yes
Delete leading and trailing silent blocks : No
Null samples used in CRC calculations : Yes
Used interface : Native Win32 interface for Win NT & 2000

Used output format : User Defined Encoder
Selected bitrate : 1024 kBit/s
Quality : High
Add ID3 tag : No
Command line compressor : C:\Program Files (x86)\Exact Audio Copy\FLAC\FLAC.EXE
Additional command line options : -6 -V -T "ARTIST=%a" -T "TITLE=%t" -T "ALBUM=%g" -T "DATE=%y" -T "TRACKNUMBER=%n" -T "GENRE=%m" -T "COMMENT=%e" %j–picture="%i"%j %s -o %d


TOC of the extracted CD

Track | Start | Length | Start sector | End sector
––––––––––––––––––––––––––––-
1 | 0:00.00 | 3:33.34 | 0 | 16008
2 | 3:33.34 | 3:11.65 | 16009 | 30398
3 | 6:45.24 | 3:58.68 | 30399 | 48316
4 | 10:44.17 | 3:15.58 | 48317 | 62999
5 | 14:00.00 | 3:45.69 | 63000 | 79943
6 | 17:45.69 | 3:14.04 | 79944 | 94497
7 | 20:59.73 | 3:20.58 | 94498 | 109555
8 | 24:20.56 | 3:30.19 | 109556 | 125324
9 | 27:51.00 | 2:51.24 | 125325 | 138173
10 | 30:42.24 | 3:28.11 | 138174 | 153784
11 | 34:10.35 | 3:12.12 | 153785 | 168196
12 | 37:22.47 | 3:26.35 | 168197 | 183681


Range status and errors

Selected range

Filename H:\Maynard Ferguson - I Have But Two Horns (Disc2).wav

Peak level 91.8 %
Extraction speed 0.1 X
Range quality 100.0 %
Copy CRC 1B92CB0E
Copy OK

No errors occurred


AccurateRip summary

Track 1 accurately ripped (confidence 4) [1570D13C]
Track 2 accurately ripped (confidence 4) [2821CF29]
Track 3 accurately ripped (confidence 4) [A1C16109]
Track 4 accurately ripped (confidence 4) [0E91AC18]
Track 5 accurately ripped (confidence 4) [A3CC0AEC]
Track 6 accurately ripped (confidence 4) [13B3CB26]
Track 7 accurately ripped (confidence 4) [BD61685B]
Track 8 accurately ripped (confidence 4) [0FB2FE6A]
Track 9 accurately ripped (confidence 4) [31794C3A]
Track 10 accurately ripped (confidence 4) [D32434BF]
Track 11 accurately ripped (confidence 4) [F46D6A11]
Track 12 accurately ripped (confidence 4) [808C4A27]

All tracks accurately ripped

End of status report

==== Log checksum 43E2CFB534B57E2675467102090754851C8C63F0FE24744A1A0E0403A53C92B7 ====



Maynard Ferguson - I Have But Two Horns (The Arrangements of Bill Holman) [2CD] (2005)



Maynard Ferguson - I Have But Two Horns (The Arrangements of Bill Holman) [2CD] (2005)