Subcategories

McDonald And Giles - McDonald And Giles (1971) [Reissue 2002] (Repost)

Posted By: gribovar
McDonald And Giles - McDonald And Giles (1971) [Reissue 2002] (Repost)

McDonald And Giles - McDonald And Giles (1971) [Reissue 2002]
EAC Rip | FLAC (tracks+.cue+log) - 277 MB | MP3 CBR 320 kbps (LAME 3.93) - 106 MB | Covers - 80 MB
Genre: Progressive Rock | RAR 3% Rec. | Label: Virgin Records (CDV2963)

Following the meltdown of the original King Crimson lineup, Ian McDonald and Michael Giles brought brother Peter Giles back, which helps to account, in some ways, for the resemblance of this album to the 1968 Giles, Giles & Fripp recordings - though the songs here tend to go on at some length, combining prog rock's traits of length and multiple sections with some of the lighter feel of the GG&F days. The 20-minute "Birdman" tends toward self-indulgence, while "Tomorrow's People - The Children of Today" loses focus halfway and spends the next four minutes being a blithering - if pretty - musical idiot. The main attraction is really the performances turned in by McDonald and the Giles brothers - they all sound fabulous, even when waffling musically, while Michael Giles has a unique drum tone that never has been duplicated (Giles himself abandoned the sound for his later career in Jackson Heights and as a session drummer). Peter Giles returned to the accounting trade, alas, while Ian McDonald eventually wound up as part of Foreigner, which is another tale entirely.

Tracklist:
01. Suite In C
02. Flight Of The Ibis
03. Is She Waiting?
04. Tomorrow's People ~ The Children Of Today
05. Birdman: The Inventor's Dream (O.U.A.T.)
06. Birdman: The Workshop
07. Birdman: Wishbone Ascension
08. Birdman: Birdman Flies!
09. Birdman: Wings In The Sunset
10. Birdman: Birdman ~ The Relection

Total time: 45:20

Exact Audio Copy V1.0 beta 3 from 29. August 2011

Отчёт EAC об извлечении, выполненном 5. ноября 2011, 18:55

McDonald And Giles / McDonald And Giles

Дисковод: Optiarc DVD RW AD-7203A Adapter: 0 ID: 0

Режим чтения : Достоверность
Использование точного потока : Да
Отключение кэша аудио : Да
Использование указателей C2 : Нет

Коррекция смещения при чтении : 48
Способность читать области Lead-in и Lead-out : Нет
Заполнение пропущенных сэмплов тишиной : Да
Удаление блоков с тишиной в начале и конце : Нет
При вычислениях CRC использовались нулевые сэмплы : Да
Интерфейс : Установленный внешний ASPI-интерфейс
Обработка зазоров : Добавлено к предыдущему треку

Выходной формат : Пользовательский кодировщик
Выбранный битрейт : 1024 kBit/s
Качество : Высокий
Добавление ID3-тега : Нет
Утилита сжатия : C:\Program Files\Exact Audio Copy\Flac\flac.exe
Дополнительные параметры : -V -8 -T "Genre=%genre%" -T "Artist=%artist%" -T "Title=%title%" -T "Album=%albumtitle%" -T "Date=%year%" -T "Tracknumber=%tracknr%" -T "Comment=%comment%" %source%


TOC извлечённого CD

Трек | Старт | Длительность | Начальный сектор | Конечный сектор
––––––––––––––––––––––––––––––––––-
1 | 0:00.00 | 11:15.22 | 0 | 50646
2 | 11:15.22 | 3:11.25 | 50647 | 64996
3 | 14:26.47 | 2:36.33 | 64997 | 76729
4 | 17:03.05 | 7:02.50 | 76730 | 108429
5 | 24:05.55 | 3:53.35 | 108430 | 125939
6 | 27:59.15 | 2:51.72 | 125940 | 138836
7 | 30:51.12 | 1:30.23 | 138837 | 145609
8 | 32:21.35 | 6:18.20 | 145610 | 173979
9 | 38:39.55 | 0:40.67 | 173980 | 177046
10 | 39:20.47 | 5:59.68 | 177047 | 204039


Трек 1

Имя файла E:\EAC\01 .Suite In C.wav

Длина предзазора 0:00:02.00

Пиковый уровень 95.9 %
Скорость извлечения 2.7 X
Качество трека 99.9 %
CRC теста 055F39D9
CRC копии 055F39D9
Точное извлечение (достоверность 2) [27B2B07B] (AR v2)
Копирование… OK

Трек 2

Имя файла E:\EAC\02 .Flight Of The Ibis.wav

Длина предзазора 0:00:00.46

Пиковый уровень 93.8 %
Скорость извлечения 3.0 X
Качество трека 100.0 %
CRC теста 596382B0
CRC копии 596382B0
Точное извлечение (достоверность 2) [835B417E] (AR v2)
Копирование… OK

Трек 3

Имя файла E:\EAC\03 .Is She Waiting.wav

Пиковый уровень 80.2 %
Скорость извлечения 3.0 X
Качество трека 100.0 %
CRC теста 65942452
CRC копии 65942452
Точное извлечение (достоверность 2) [F3EE789C] (AR v2)
Копирование… OK

Трек 4

Имя файла E:\EAC\04 .Tomorrow's People ~ The Children Of Today.wav

Пиковый уровень 99.4 %
Скорость извлечения 3.6 X
Качество трека 100.0 %
CRC теста 26741830
CRC копии 26741830
Точное извлечение (достоверность 2) [434EBC02] (AR v2)
Копирование… OK

Трек 5

Имя файла E:\EAC\05 .Birdman- The Inventor's Dream (O.U.A.T.).wav

Пиковый уровень 93.5 %
Скорость извлечения 3.7 X
Качество трека 100.0 %
CRC теста 67C0F639
CRC копии 67C0F639
Точное извлечение (достоверность 2) [E4FBB0BE] (AR v2)
Копирование… OK

Трек 6

Имя файла E:\EAC\06 .Birdman- The Workshop.wav

Пиковый уровень 100.0 %
Скорость извлечения 3.1 X
Качество трека 99.9 %
CRC теста 4D0FB191
CRC копии 4D0FB191
Точное извлечение (достоверность 2) [76E347A3] (AR v2)
Копирование… OK

Трек 7

Имя файла E:\EAC\07 .Birdman- Wishbone Ascension.wav

Пиковый уровень 96.3 %
Скорость извлечения 2.5 X
Качество трека 99.8 %
CRC теста B61E688D
CRC копии B61E688D
Точное извлечение (достоверность 2) [464FD7F2] (AR v2)
Копирование… OK

Трек 8

Имя файла E:\EAC\08 .Birdman- Birdman Flies!.wav

Пиковый уровень 96.0 %
Скорость извлечения 4.3 X
Качество трека 100.0 %
CRC теста 7A785CCF
CRC копии 7A785CCF
Точное извлечение (достоверность 2) [B9A4E066] (AR v2)
Копирование… OK

Трек 9

Имя файла E:\EAC\09 .Birdman- Wings In The Sunset.wav

Пиковый уровень 32.0 %
Скорость извлечения 2.5 X
Качество трека 100.0 %
CRC теста FF827E2F
CRC копии FF827E2F
Точное извлечение (достоверность 2) [31E0299D] (AR v2)
Копирование… OK

Трек 10

Имя файла E:\EAC\10 .Birdman- Birdman ~ The Relection.wav

Пиковый уровень 93.8 %
Скорость извлечения 4.2 X
Качество трека 99.9 %
CRC теста 2AE93921
CRC копии 2AE93921
Точное извлечение (достоверность 2) [8AAD8DEE] (AR v2)
Копирование… OK


Все треки извлечены точно

Ошибок не произошло

Конец отчёта

==== Контрольная сумма отчёта 2A6B8B360A313707E0DA249ED765A15D9F0F4062F5ED98F3021438D9DD4EB968 ====

[CUETools log; Date: 14.11.2017 13:49:51; Version: 2.1.4]
HDCD: peak extend: none, transient filter: none, gain: -4,0dB..0,0dB
[CTDB TOCID: Wyke4eP3Z9RxLhPV7r22Indqh5M-] found.
Track | CTDB Status
1 | (75/76) Accurately ripped
2 | (76/76) Accurately ripped
3 | (76/76) Accurately ripped
4 | (76/76) Accurately ripped
5 | (76/76) Accurately ripped
6 | (76/76) Accurately ripped
7 | (76/76) Accurately ripped
8 | (76/76) Accurately ripped
9 | (76/76) Accurately ripped
10 | (74/76) Accurately ripped
[AccurateRip ID: 00135252-0092c421-8b0aa00a] found.
Track [ CRC | V2 ] Status
01 [bdb956a8|27b2b07b] (22+31/90) Accurately ripped
02 [28d3a993|835b417e] (22+31/90) Accurately ripped
03 [b15978b7|f3ee789c] (22+31/90) Accurately ripped
04 [b31140fa|434ebc02] (22+31/90) Accurately ripped
05 [1036e364|e4fbb0be] (22+31/90) Accurately ripped
06 [bd7bea51|76e347a3] (22+31/89) Accurately ripped
07 [d6ab0824|464fd7f2] (22+31/90) Accurately ripped
08 [91208274|b9a4e066] (22+31/90) Accurately ripped
09 [4f93c7b3|31e0299d] (22+31/90) Accurately ripped
10 [a306feac|8aad8dee] (22+31/90) Accurately ripped
Offsetted by -676:
01 [b42def00] (13/90) Accurately ripped
02 [849645ab] (13/90) Accurately ripped
03 [492a4a37] (13/90) Accurately ripped
04 [1db99971] (13/90) Accurately ripped
05 [11073c6f] (13/90) Accurately ripped
06 [b39944c9] (13/89) Accurately ripped
07 [b5f35afe] (13/90) Accurately ripped
08 [e25ccc43] (13/90) Accurately ripped
09 [81e739d2] (13/90) Accurately ripped
10 [114f5729] (13/90) Accurately ripped
Offsetted by -18:
01 [b95077a5] (02/90) Accurately ripped
02 [5a33ff85] (02/90) Accurately ripped
03 [50ca3c65] (02/90) Accurately ripped
04 [8dcfca54] (02/90) Accurately ripped
05 [78195e22] (02/90) Accurately ripped
06 [6dedeb49] (02/89) Accurately ripped
07 [eb45dd21] (02/90) Accurately ripped
08 [162aa87e] (02/90) Accurately ripped
09 [fcd1cf8a] (02/90) Accurately ripped
10 [a4af1212] (02/90) Accurately ripped
Offsetted by -444:
01 [ccc2c501] (00/90) No match (V2 was not tested)
02 [1af964f4] (00/90) No match (V2 was not tested)
03 [77ad9aff] (00/90) No match (V2 was not tested)
04 [71514180] (00/90) No match (V2 was not tested)
05 [8b2d0866] (00/90) No match (V2 was not tested)
06 [c4ce9453] (00/89) No match (V2 was not tested)
07 [b767a40b] (00/90) No match (V2 was not tested)
08 [2d55d80e] (00/90) No match (V2 was not tested)
09 [e2b017c5] (00/90) No match (V2 was not tested)
10 [7f25bbc4] (00/90) No match (V2 was not tested)

Track Peak [ CRC32 ] [W/O NULL] [ LOG ]
– 100,0 [D8AFDF0A] [BD01AAEC]
01 95,9 [055F39D9] [F1051CF4] CRC32
02 93,8 [596382B0] [CBA65D61] CRC32
03 80,2 [65942452] [8DEBC820] CRC32
04 99,4 [26741830] [0998BC6D] CRC32
05 93,5 [67C0F639] [E48B7394] CRC32
06 100,0 [4D0FB191] [B01E0150] CRC32
07 96,3 [B61E688D] [D5DDE99B] CRC32
08 96,0 [7A785CCF] [0705B673] CRC32
09 32,0 [FF827E2F] [2369340B] CRC32
10 93,8 [2AE93921] [0068D51D] CRC32

Thanks to Gera1957