Subcategories

Sir John Blackwood McEwen - String Quartets, Vol.1 (Chilingirian Quartet)

Posted By: tapaz9
Sir John Blackwood McEwen - String Quartets, Vol.1 (Chilingirian Quartet)

Sir John Blackwood McEwen - String Quartets, Vol.1 (Chilingirian Quartet)
Classical | EAC: FLAC+Cue+Log | 1 Cd, Covers + Booklet | 340 Mb
Label: Chandos - Date: 2002

The chamber music of Sir John Blackwood McEwen is most likely an unknown quantity for the vast majority of listeners. In fact the entire corpus of this underestimated composer is probably unexplored territory for all but the most persistent of British Music enthusiasts. To be fair some people will be aware of the odd piano piece or maybe one of the tone poems. It is perhaps the string quartets that best allow us to see the achievement of McEwen. He wrote nineteen examples of this form. The first was composed in 1893 and the last in the year before his death.
Tracks:

01. Quartet No.16 "Quartette provencale" in G Major, I. Summer Morning. La place du Bon Roi. Moderato capriccioso [0:06:33.68]
02. II. Summer Evening. Le Col de 'Ange. Adagio [0:07:00.67]
03. III. Le Mistral. Molto vivace, marcato - Tranquillo - Tempo - Meno mosso [0:06:47.32]
04. Quartet for String No.7 "Threnody" in E flat major. Lento [0:05:40.53]
05. | = 72 [0:02:16.01]
06. Allegro molto [0:04:01.64]
07. Poco meno mosso - Lento [0:04:28.43]
08. Quartet No.4 in C Minor. I. Allegro ma non troppo - Piu lento [0:08:43.19]
09. II. Vivace [0:03:55.49]
10. III. Andante espressivo - Poco piu mosso - Tempo primo [0:03:52.63]
11. IV. Larghetto - Vivace - A tempo - Vivace - Larghetto - Vivace - Presto [0:04:38.49]
12. "Fantasia" for String Quartet, No.17 in C sharp minor. Andante quasi adagio - Allegro - Meno mosso - A tempo - Allergo - A temp [0:10:46.00]


Exact Audio Copy V1.0 beta 3 from 29. August 2011

EAC extraction logfile from 14. January 2013, 0:19

Sir John Blackwood McEwen / String Quartets, Vol.1 (Chilingirian Quartet)

Used drive : TSSTcorpCDDVDW SH-S223C Adapter: 2 ID: 1

Read mode : Secure
Utilize accurate stream : Yes
Defeat audio cache : Yes
Make use of C2 pointers : No

Read offset correction : 697
Overread into Lead-In and Lead-Out : No
Fill up missing offset samples with silence : Yes
Delete leading and trailing silent blocks : No
Null samples used in CRC calculations : Yes
Used interface : Native Win32 interface for Win NT & 2000

Used output format : User Defined Encoder
Selected bitrate : 896 kBit/s
Quality : High
Add ID3 tag : No
Command line compressor : C:\Program Files (x86)\Exact Audio Copy\FLAC\FLAC.EXE
Additional command line options : -V -0 -T "COMMENT=Ripped by Tapaz9" -T "artist=%artist%" -T "title=%title%" -T "album=%albumtitle%" -T "date=%year%" -T "tracknumber=%tracknr%" -T "genre=%genre%" %source%


TOC of the extracted CD

Track | Start | Length | Start sector | End sector
––––––––––––––––––––––––––––-
1 | 0:00.00 | 6:33.68 | 0 | 29542
2 | 6:33.68 | 7:00.67 | 29543 | 61109
3 | 13:34.60 | 6:47.32 | 61110 | 91666
4 | 20:22.17 | 5:40.53 | 91667 | 117219
5 | 26:02.70 | 2:16.01 | 117220 | 127420
6 | 28:18.71 | 4:01.64 | 127421 | 145559
7 | 32:20.60 | 4:28.43 | 145560 | 165702
8 | 36:49.28 | 8:43.19 | 165703 | 204946
9 | 45:32.47 | 3:55.49 | 204947 | 222620
10 | 49:28.21 | 3:52.63 | 222621 | 240083
11 | 53:21.09 | 4:38.49 | 240084 | 260982
12 | 57:59.58 | 10:46.00 | 260983 | 309432


Range status and errors

Selected range

Filename F:\Musique\McEwen\McEwen_StringQuartetsVol1\Sir John Blackwood McEwen - String Quartets, Vol.1 (Chilingirian Quartet).wav

Peak level 94.8 %
Extraction speed 14.4 X
Range quality 99.9 %
Copy CRC F3A2ED17
Copy OK

No errors occurred

End of status report

==== Log checksum 440D24A7A189C73FE7E8F1DF0792714B835DE75616F0ED23969310E4A45FFC3F ====

No Mirrors and Torrent-uploads Please

See my classical digital download posts in the Vinyl & HR section or check out My Avax blog