Subcategories

McKendree Spring - Live at the Beachland Ballroom (2006)

Posted By: v3122
McKendree Spring - Live at the Beachland Ballroom (2006)

McKendree Spring - Live at the Beachland Ballroom (2006)
EAC | Flac(Image) + Cue + Log & iPod M4A(Tracks) & MP3 CBR 320Kbps
McKendree Spring | ~ 529 or 534 or 192 Mb | Scans Included
Progressive Folk Rock

In the McKendree Spring exhibit at the Rock & Roll Hall of Fame & Museum in Cleveland, Ohio is an attribution that says: “Experimental and innovative, McKendree Spring mixed blues, folk and country with a progressive musical vision. Over the course of seven albums, they highlighted the songs of singer/guitarist Fran McKendree and offered up unique interpretations of songs by Bob Dylan, Neil Young and James Taylor. McKendree Spring built much of its reputation as a live act by featuring the virtuosity of guitarist Marty Slutsky and violinist Mike (Doc) Dreyfuss.” McKendree Spring formed in 1969 as a drumerless four-piece folk-rock ensemble that promoter/manager Bill Graham dubbed "one of the best unknown bands in the world." McKendree Spring toured with some of the most exciting artists of the 70's and shared the stage with performers such as the Everly Brothers, Fleetwood Mac, Frank Zappa & the Mothers of Invention, Elton John, Ike & Tina Turner, Joni Mitchell, Randy Newman, the Byrds, Jethro Tull, and Van Morrison. McKendree Spring played various memorable venues as well including Carnegie Hall, the Fillmore East, Lincoln Center, and Kennedy Center. Not to mention venues that got them there - like My Father's Place on Long Island, the Agoras in Columbus and Cleveland, the College Coffee House Circuit, and Ohio University in Athens. On May 8th, 1972 McKendree Spring performed with Billy Preston in the first-ever rock concert at legendary New York Radio City Music Hall. The band played to a million plus people at the Washington Monument to protest war in Vietnam, and starred on the BBC TV’s “Old Grey Whistle Test” in London with Cleo Lane. McKendree Spring has a knack for covering songs that sounded as if they were written by them or for them. The group is noted for its live shows that brought the crowds - and there are crowds - to their feet. Recording its 30th reunion show May 28, 2006 in front of an amazing audience of fans, their kids, and new friends at the Beachland Ballroom in Cleveland, McKendree Spring finally snared the energy and excitement of its legendary live shows. The result is one richly buoyant album called, “Live at the Beachland Ballroom.” It was a thrill to play.

~ cdbaby
McKendree Spring - Live at the Beachland Ballroom (2006):

McKendree Spring - Live at the Beachland Ballroom (2006)

Tracklist:

01. I Should Have Known 04:28
02. Fire And Rain 04:10
03. Take It From The Heart 02:49
04. Corrina Corrina 05:03
05. Give All You've Got To Give 04:54
06. Heart Like A Wheel 03:40
07. Lani 03:09
08. Oh What A Feeling 03:03
09. Flying Dutchman 07:09
10. Meeting In Paris 03:44
11. God Bless The Conspiracy 07:34
12. Train To Dixie 03:27
13. No Regrets 06:37
14. Down By The River 07:26
15. Hold On 03:47
16. The Weight 08:28

Musicians:

Fran McKendree - Acoustic guitar, Lead Vocals
Martin Slutsky - Lead Electric Guitar
Michael Dreyfuss - Electric Viola
Steve Anderson - Electric Bass, Background Vocals
Alan Stoker - Drums, Background Vocals
Dave Morrison - Harmonica
Suzanne French, Sharon Ferrara - Background Vocals

EAC extraction logfile from 29. October 2007, 21:52 for CD
McKendree Spring / Live at the Beachland Ballroom

Used drive : HL-DT-STDVD-ROM GDR8162B Adapter: 0 ID: 3
Read mode : Secure with NO C2, accurate stream, disable cache
Read offset correction : 102
Overread into Lead-In and Lead-Out : No

Used output format : C:\Eac\Codecs\flac112.exe (User Defined Encoder)
320 kBit/s
Additional command line options : -8 -T "artist=%a" -T "title=%t" -T "album=%g" -T "date=%y" -T "tracknumber=%n" -T "genre=%m" %s

Other options :
Fill up missing offset samples with silence : Yes
Delete leading and trailing silent blocks : No
Installed external ASPI interface


Track 1
Filename C:\Gene6 Server\(01) I should have known - McKendree Spring.wav

Pre-gap length 0:00:02.00

Peak level 96.6 %
Track quality 100.0 %
Test CRC 298A0C29
Copy CRC 298A0C29
Copy OK

Track 2
Filename C:\Gene6 Server\(02) Fire and rain - McKendree Spring.wav

Peak level 97.7 %
Track quality 100.0 %
Test CRC 74592184
Copy CRC 74592184
Copy OK

Track 3
Filename C:\Gene6 Server\(03) Take it from the heart - McKendree Spring.wav

Peak level 97.7 %
Track quality 100.0 %
Test CRC 84835942
Copy CRC 84835942
Copy OK

Track 4
Filename C:\Gene6 Server\(04) Corrina corrina - McKendree Spring.wav

Peak level 97.7 %
Track quality 100.0 %
Test CRC BFFF512B
Copy CRC BFFF512B
Copy OK

Track 5
Filename C:\Gene6 Server\(05) Give all you've got to give - McKendree Spring.wav

Peak level 97.7 %
Track quality 100.0 %
Test CRC 5FCF5EE3
Copy CRC 5FCF5EE3
Copy OK

Track 6
Filename C:\Gene6 Server\(06) Heart like a wheel - McKendree Spring.wav

Peak level 97.7 %
Track quality 99.9 %
Test CRC 8825A34E
Copy CRC 8825A34E
Copy OK

Track 7
Filename C:\Gene6 Server\(07) Lani - McKendree Spring.wav

Peak level 76.5 %
Track quality 100.0 %
Test CRC 45F5D616
Copy CRC 45F5D616
Copy OK

Track 8
Filename C:\Gene6 Server\(08) Oh what a feeling - McKendree Spring.wav

Peak level 97.7 %
Track quality 99.9 %
Test CRC 4015DDEF
Copy CRC 4015DDEF
Copy OK

Track 9
Filename C:\Gene6 Server\(09) Flying dutchman - McKendree Spring.wav

Peak level 97.7 %
Track quality 100.0 %
Test CRC 6292B085
Copy CRC 6292B085
Copy OK

Track 10
Filename C:\Gene6 Server\(10) Meeting in Paris - McKendree Spring.wav

Peak level 97.7 %
Track quality 100.0 %
Test CRC 52937DAF
Copy CRC 52937DAF
Copy OK

Track 11
Filename C:\Gene6 Server\(11) God bless the conspiracy - McKendree Spring.wav

Peak level 97.7 %
Track quality 100.0 %
Test CRC B3D1FC58
Copy CRC B3D1FC58
Copy OK

Track 12
Filename C:\Gene6 Server\(12) Train to dixie - McKendree Spring.wav

Peak level 97.7 %
Track quality 100.0 %
Test CRC 35477B68
Copy CRC 35477B68
Copy OK

Track 13
Filename C:\Gene6 Server\(13) No Regrets - McKendree Spring.wav

Peak level 97.7 %
Track quality 100.0 %
Test CRC F10E7720
Copy CRC F10E7720
Copy OK

Track 14
Filename C:\Gene6 Server\(14) Down by the river - McKendree Spring.wav

Peak level 97.7 %
Track quality 100.0 %
Test CRC 2C2439C3
Copy CRC 2C2439C3
Copy OK

Track 15
Filename C:\Gene6 Server\(15) Hold on - McKendree Spring.wav

Peak level 97.7 %
Track quality 100.0 %
Test CRC D07A3D31
Copy CRC D07A3D31
Copy OK

Track 16
Filename C:\Gene6 Server\(16) The weight - McKendree Spring.wav

Peak level 97.7 %
Track quality 99.9 %
Test CRC AFE1FFAB
Copy CRC AFE1FFAB
Copy OK

No errors occured


End of status report

foobar2000 1.2.4 / Dynamic Range Meter 1.1.1
log date: 2013-05-10 22:01:51

––––––––––––––––––––––––––––––––––––––––
Analyzed: McKendree Spring / Live at the Beachland Ballroom
––––––––––––––––––––––––––––––––––––––––

DR Peak RMS Duration Track
––––––––––––––––––––––––––––––––––––––––
DR11 -0.30 dB -13.09 dB 4:28 01-I should have known
DR10 -0.20 dB -11.71 dB 4:10 02-Fire and rain
DR9 -0.20 dB -11.20 dB 2:49 03-Take it from the heart
DR9 -0.20 dB -12.00 dB 5:03 04-Corrina corrina
DR11 -0.20 dB -12.42 dB 4:54 05-Give all you've got to give
DR11 -0.20 dB -13.85 dB 3:40 06-Heart like a wheel
DR13 -2.33 dB -18.11 dB 3:09 07-Lani
DR9 -0.20 dB -11.90 dB 3:03 08-Oh what a feeling
DR10 -0.20 dB -11.67 dB 7:09 09-Flying dutchman
DR10 -0.20 dB -11.64 dB 3:44 10-Meeting in Paris
DR9 -0.20 dB -13.25 dB 7:34 11-God bless the conspiracy
DR10 -0.20 dB -11.69 dB 3:27 12-Train to dixie
DR11 -0.20 dB -14.38 dB 6:37 13-No Regrets
DR9 -0.20 dB -11.45 dB 7:26 14-Down by the river
DR10 -0.20 dB -11.90 dB 3:47 15-Hold on
DR9 -0.20 dB -11.01 dB 8:28 16-The weight
––––––––––––––––––––––––––––––––––––––––

Number of tracks: 16
Official DR value: DR10

Samplerate: 44100 Hz
Channels: 2
Bits per sample: 16
Bitrate: 869 kbps
Codec: FLAC

McKendree Spring - Live at the Beachland Ballroom (2006)

All thanks go to суслик

Download McKendree Spring - Live at the Beachland Ballroom (2006):