Subcategories

Mel Torme & Buddy Rich - Together Again - for the First Time (1978) [MFSL, UDCD 592]

Posted By: v3122
Mel Torme & Buddy Rich - Together Again - for the First Time (1978) [MFSL, UDCD 592]

Mel Torme & Buddy Rich - Together Again - for the First Time (1978)
EAC | Flac(Image) + Cue + Log & MP3 CBR 320Kbps
1993 | Mobile Fidelity Sound Lab, UDCD 592 | ~ 200 or 80 Mb | Scans(jpg) -> 5.74 Mb
Big Band, Vocal, Swing

Mel Tormé and Buddy Rich had been friends for decades prior to finally getting around to recording together. Although largely a Tormé vocal record, the Buddy Rich Orchestra, with guest altoist Phil Woods, is in top form, and the drummer/leader has several solos. Most memorable is Tormé's tribute to Ella Fitzgerald on "Lady Be Good" and a remarkable tour-de-force on "Blues in the Night." This enjoyable and somewhat historic LP, put out by Gryphon, is worthy of reissue on CD by Mobile Fidelity.

by Scott Yanow, allmusic
Mel Torme & Buddy Rich - Together Again - for the First Time (1978):

Mel Torme & Buddy Rich - Together Again - for the First Time (1978) [MFSL, UDCD 592]

Tracklist:

01. When I Found You [3:21]
02. Here's That Rainy Day [4:59]
03. Blues In The Night [8:08]
04. Bluesette [3:32]
05. You Are The Sunshine of My Life [4:32]
06. I Won't Last A Day Without You [3:58]
07. Lady Be Good [4:37]

Exact Audio Copy V1.3 from 2. September 2016

EAC extraction logfile from 19. November 2016, 8:49

MEL TORME & BUDDY RICH / Together Again - For The First Time (USA, MFSL, UDCD 592)

Used drive : ASUS DRW-24B3ST Adapter: 1 ID: 1

Read mode : Secure
Utilize accurate stream : Yes
Defeat audio cache : Yes
Make use of C2 pointers : No

Read offset correction : 6
Overread into Lead-In and Lead-Out : No
Fill up missing offset samples with silence : Yes
Delete leading and trailing silent blocks : No
Null samples used in CRC calculations : Yes
Used interface : Native Win32 interface for Win NT & 2000

Used output format : User Defined Encoder
Selected bitrate : 1024 kBit/s
Quality : High
Add ID3 tag : No
Command line compressor : C:\Program Files\EAC(v.1.3)\WV\wavpack.exe
Additional command line options : -h -hh -m %source%


TOC of the extracted CD

Track | Start | Length | Start sector | End sector
––––––––––––––––––––––––––––-
1 | 0:00.37 | 3:20.55 | 37 | 15091
2 | 3:21.17 | 4:59.15 | 15092 | 37531
3 | 8:20.32 | 8:07.55 | 37532 | 74111
4 | 16:28.12 | 3:32.30 | 74112 | 90041
5 | 20:00.42 | 4:32.05 | 90042 | 110446
6 | 24:32.47 | 3:57.60 | 110447 | 128281
7 | 28:30.32 | 4:37.30 | 128282 | 149086


Range status and errors

Selected range

Filename F:\MEL TORME & BUDDY RICH - Together Again … (1978) (US 1993 Mobile Fidelity Sound Lab • UDCD 592)\MEL TORME & BUDDY RICH - Together Again … (USA, MFSL, UDCD 592).wav

Peak level 92.3 %
Extraction speed 6.9 X
Range quality 100.0 %
Test CRC 7681A004
Copy CRC 7681A004
Copy OK

No errors occurred


AccurateRip summary

Track 1 accurately ripped (confidence 11) [173F2A08] (AR v2)
Track 2 accurately ripped (confidence 11) [40DC5702] (AR v2)
Track 3 accurately ripped (confidence 11) [4212285F] (AR v2)
Track 4 accurately ripped (confidence 11) [97D47226] (AR v2)
Track 5 accurately ripped (confidence 11) [2E83F600] (AR v2)
Track 6 accurately ripped (confidence 11) [06552C58] (AR v2)
Track 7 accurately ripped (confidence 11) [F184B1F4] (AR v2)

All tracks accurately ripped

End of status report

==== Log checksum 4FD848BE6D9F77B138575F78CDA2E2F2559015F84771224F9728073E0535DC32 ====


[CUETools log; Date: 18.12.2017 21:34:32; Version: 2.1.5]
Pregap length 00:00:37.
[AccurateRip ID: 000939d7-003795cb-4007c307] found.
Track [ CRC | V2 ] Status
01 [a1a29179|173f2a08] (06+13/19) Accurately ripped
02 [8f4902df|40dc5702] (06+13/19) Accurately ripped
03 [d6dd1cf9|4212285f] (05+13/18) Accurately ripped
04 [92549546|97d47226] (06+13/19) Accurately ripped
05 [db912685|2e83f600] (06+13/19) Accurately ripped
06 [50038988|06552c58] (06+13/19) Accurately ripped
07 [a2f2cc7b|f184b1f4] (05+13/18) Accurately ripped

Track Peak [ CRC32 ] [W/O NULL] [ LOG ]
– 92,3 [7681A004] [BA012E73] CRC32
01 81,5 [29BA4476] [66F1F262]
02 67,1 [50EF64DE] [830875A7]
03 89,9 [2862C62B] [36D33839]
04 83,4 [04AAAF1C] [C47DE64D]
05 79,5 [06051824] [3BF327DD]
06 74,5 [B104877C] [8E35667C]
07 92,3 [9DACDC8B] [44521865]


Mel Torme & Buddy Rich - Together Again - for the First Time (1978) [MFSL, UDCD 592]

All thanks go to the original releaser

MFSL in my Blog

Download Mel Torme & Buddy Rich - Together Again - for the First Time (1978):