Tags
Language
Tags

Memphis Slim - Alone With My Friends (1961) [Reissue 1996]

Posted By: gribovar
Memphis Slim - Alone With My Friends (1961) [Reissue 1996]

Memphis Slim - Alone With My Friends (1961) [Reissue 1996]
EAC Rip | FLAC (tracks+.cue+log) - 198 MB | Covers (5 MB) included
Genre: Piano Blues | RAR 3% Rec. | Label: Battle Records/Fantasy (00025218058124)

Memphis Slim devoted all but one of the ten songs on this April 1961 session to covers of some of his favorite songwriters. He's only accompanied by his own piano playing as he provides serviceable, laidback interpretations of numbers by Big Bill Broonzy, Blind Lemon Jefferson, Willie Dixon, Sonny Boy Williamson, and others, as well as his own "Sunnyland Train."
Tracklist:
01. Highway 51 Blues
02. I Feel So Good
03. Rock Me, Momma
04. Goin' Down Slow
05. Sittin' on Top of the World
06. Sunnyland Train
07. Goin' Down to the River
08. I Just Want to Make Love to You
09. I Can Hear My Name A-Ringin'
10. Going Back to My Plow

Total time: 38:26

Exact Audio Copy V0.99 prebeta 4 from 23. January 2008

EAC extraction logfile from 10. April 2009, 20:25

Memphis Slim / Alone with My Friends

Used drive : LITE-ON CD-RW SOHR-5238S Adapter: 5 ID: 1

Read mode : Secure
Utilize accurate stream : Yes
Defeat audio cache : Yes
Make use of C2 pointers : No

Read offset correction : 6
Overread into Lead-In and Lead-Out : No
Fill up missing offset samples with silence : Yes
Delete leading and trailing silent blocks : No
Null samples used in CRC calculations : Yes
Used interface : Installed external ASPI interface
Gap handling : Appended to previous track

Used output format : Internal WAV Routines
Sample format : 44.100 Hz; 16 Bit; Stereo


TOC of the extracted CD

Track | Start | Length | Start sector | End sector
––––––––––––––––––––––––––––-
1 | 0:00.00 | 4:19.25 | 0 | 19449
2 | 4:19.25 | 2:50.27 | 19450 | 32226
3 | 7:09.52 | 3:54.28 | 32227 | 49804
4 | 11:04.05 | 3:44.20 | 49805 | 66624
5 | 14:48.25 | 3:42.05 | 66625 | 83279
6 | 18:30.30 | 3:57.05 | 83280 | 101059
7 | 22:27.35 | 3:04.55 | 101060 | 114914
8 | 25:32.15 | 4:00.22 | 114915 | 132936
9 | 29:32.37 | 4:07.73 | 132937 | 151534
10 | 33:40.35 | 4:45.40 | 151535 | 172949


Track 1

Filename J:\rips\Memphis Slim Alone\01 - Highway 51 Blues.wav

Pre-gap length 0:00:02.00

Peak level 99.9 %
Track quality 99.9 %
Test CRC 3802C3D1
Copy CRC 3802C3D1
Track not present in AccurateRip database
Copy OK

Track 2

Filename J:\rips\Memphis Slim Alone\02 - I Feel So Good.wav

Pre-gap length 0:00:03.10

Peak level 100.0 %
Track quality 99.9 %
Test CRC F2747F7F
Copy CRC F2747F7F
Track not present in AccurateRip database
Copy OK

Track 3

Filename J:\rips\Memphis Slim Alone\03 - Rock Me, Momma.wav

Pre-gap length 0:00:01.47

Peak level 86.3 %
Track quality 100.0 %
Test CRC BB4532C9
Copy CRC BB4532C9
Track not present in AccurateRip database
Copy OK

Track 4

Filename J:\rips\Memphis Slim Alone\04 - Goin' Down Slow.wav

Pre-gap length 0:00:01.38

Peak level 97.3 %
Track quality 100.0 %
Test CRC E748E978
Copy CRC E748E978
Track not present in AccurateRip database
Copy OK

Track 5

Filename J:\rips\Memphis Slim Alone\05 - Sittin' on Top of the World.wav

Pre-gap length 0:00:01.50

Peak level 83.7 %
Track quality 100.0 %
Test CRC 0E39055B
Copy CRC 0E39055B
Track not present in AccurateRip database
Copy OK

Track 6

Filename J:\rips\Memphis Slim Alone\06 - Sunnyland Train.wav

Pre-gap length 0:00:01.70

Peak level 83.3 %
Track quality 100.0 %
Test CRC 638D923A
Copy CRC 638D923A
Track not present in AccurateRip database
Copy OK

Track 7

Filename J:\rips\Memphis Slim Alone\07 - Goin' Down to the River.wav

Pre-gap length 0:00:01.15

Peak level 95.5 %
Track quality 100.0 %
Test CRC 17754F07
Copy CRC 17754F07
Track not present in AccurateRip database
Copy OK

Track 8

Filename J:\rips\Memphis Slim Alone\08 - I Just Want to Make Love to You.wav

Pre-gap length 0:00:01.23

Peak level 99.8 %
Track quality 100.0 %
Test CRC 5B2F1C8C
Copy CRC 5B2F1C8C
Track not present in AccurateRip database
Copy OK

Track 9

Filename J:\rips\Memphis Slim Alone\09 - I Can Hear My Name A-Ringin'.wav

Pre-gap length 0:00:01.60

Peak level 94.1 %
Track quality 100.0 %
Test CRC DCCABFAA
Copy CRC DCCABFAA
Track not present in AccurateRip database
Copy OK

Track 10

Filename J:\rips\Memphis Slim Alone\10 - Going Back to My Plow.wav

Pre-gap length 0:00:02.25

Peak level 94.3 %
Track quality 100.0 %
Test CRC BB1335B5
Copy CRC BB1335B5
Track not present in AccurateRip database
Copy OK


None of the tracks are present in the AccurateRip database

No errors occurred

End of status report

[CUETools log; Date: 24.07.2019 22:32:29; Version: 2.1.4]
[CTDB TOCID: .9nJ0wOu4FldVKItiVgw0GOJSKU-] found.
Track | CTDB Status
1 | (4/4) Accurately ripped
2 | (4/4) Accurately ripped
3 | (4/4) Accurately ripped
4 | (4/4) Accurately ripped
5 | (4/4) Accurately ripped
6 | (4/4) Accurately ripped
7 | (4/4) Accurately ripped
8 | (4/4) Accurately ripped
9 | (4/4) Accurately ripped
10 | (4/4) Accurately ripped
[AccurateRip ID: 000e1c70-00710bc4-7209020a] found.
Track [ CRC | V2 ] Status
01 [7e2ae9d2|ce7b3209] (0+0/2) No match
02 [adc39129|f614ecb1] (0+0/2) No match
03 [226017b7|6fb86294] (0+0/2) No match
04 [5b017ed4|8b0ec87a] (0+0/2) No match
05 [b7ec573c|fd3321df] (0+0/2) No match
06 [8c0ae571|0e63b27c] (0+0/2) No match
07 [6b1fdb29|e8cfc91d] (0+0/2) No match
08 [066ba0a2|ef3bf796] (0+0/2) No match
09 [d9ec1cb7|edb8e6b4] (0+0/2) No match
10 [b08cde73|db76ba41] (0+0/2) No match
Offsetted by 664:
01 [6a18d532] (2/2) Accurately ripped
02 [b663aac1] (2/2) Accurately ripped
03 [6aaca65f] (2/2) Accurately ripped
04 [3658607c] (2/2) Accurately ripped
05 [77f70224] (2/2) Accurately ripped
06 [bf71a669] (2/2) Accurately ripped
07 [9fd13da9] (2/2) Accurately ripped
08 [2c651842] (2/2) Accurately ripped
09 [8ccc265f] (2/2) Accurately ripped
10 [da4c3b7b] (2/2) Accurately ripped
Offsetted by 1490:
01 [0ed0fdda] (0/2) No match (V2 was not tested)
02 [ccaf743b] (0/2) No match (V2 was not tested)
03 [e68a57d5] (0/2) No match (V2 was not tested)
04 [b63bf932] (0/2) No match (V2 was not tested)
05 [073ee18a] (0/2) No match (V2 was not tested)
06 [66b6198b] (0/2) No match (V2 was not tested)
07 [87eb9709] (0/2) No match (V2 was not tested)
08 [4920d2da] (0/2) No match (V2 was not tested)
09 [9e349515] (0/2) No match (V2 was not tested)
10 [60bc98d9] (0/2) No match (V2 was not tested)

Track Peak [ CRC32 ] [W/O NULL] [ LOG ]
– 100,0 [63C1B0FA] [A64AE0FF]
01 99,9 [3802C3D1] [F23E1863] CRC32
02 100,0 [F2747F7F] [62180158] CRC32
03 86,3 [BB4532C9] [B02D08FB] CRC32
04 97,3 [E748E978] [CE640DA2] CRC32
05 83,7 [0E39055B] [D7CAD8F3] CRC32
06 83,3 [638D923A] [015CA85F] CRC32
07 95,5 [17754F07] [0C07E9A5] CRC32
08 99,8 [5B2F1C8C] [C77201EC] CRC32
09 94,1 [DCCABFAA] [DECF6D2F] CRC32
10 94,3 [BB1335B5] [C2ACCD7E] CRC32

Thanks to garet jax

See also:
Memphis Slim - All Kinds Of Blues (1963) [Reissue 1991]
Memphis Slim & Willie Dixo...Mailletz (1963) [Reissue 2000]
Memphis Slim - Clap Your Hands (1965) [Reissue 2006]
Memphis Slim - The Bluesman (1969) [Reissue 2006]
Memphis Slim - The Sonet Blues Story (1973) [Reissue 2005]
Memphis Slim - Going Back to Tennessee (1975) [Reissue 2006]