Tags
Language
Tags

Memphis Slim - Boogie Woogie (1971) [Reissue 2006]

Posted By:
Memphis Slim - Boogie Woogie (1971) [Reissue 2006]

Memphis Slim - Boogie Woogie (1971) [Reissue 2006]
EAC Rip | FLAC (tracks+.cue+log) - 376 MB | Covers (11 MB) included
Genre: Piano Blues | RAR 3% Rec. | Label: Maison De Blues (983 344-0)

In his powerfully insightful book of blues-inspired poetry Fattening Frogs for Snakes - Delta Sound Suite, John Sinclair cites blues and jazz scholar Robert Palmer as a source for the theory that the linguistic taproots of the word "boogie" probably reach back to West Africa, as the Hausa "buga" and the Mandingo "bug" both mean "to beat" as in "to beat a drum." This makes sense given the rhythmic potency of boogie-woogie, a style that emerged during the early 20th century among Southern black laborers who lived, toiled, and partied near the very bottom of the U.S. social hierarchy, usually living in an environment that was secluded from the rest of the population and often engaging in the production of turpentine. There are other distinct levels of meaning and purpose here: the subject of blackness, the act of partying in order to blow off steam, and the performer's utility function as a provider of music in order to keep the participants from brawling. Sometimes carelessly criticized for its apparent simplicity, the boogie is as complex as human nature itself. Popularized by white big bands during the 1930s and '40s, boogie-woogie also helped to spawn the eminently exploitable genres of R&B and rock & roll. By the end of the 1960s, pianist Memphis Slim openly made a point of varying the textures and tempos of his music, noting that many of his friends and contemporaries sometimes slid into ruts of predictability. Comfortably established in Paris during the year 1971, Slim demonstrated his incredible technique and refreshing versatility in a magnificent series of blues and boogie-woogie piano duets with drummer Michel Denis. The entire spectrum of movement is covered here, from slow ruminations to lightning-quick fisticuffs. While there are clearly discernible reverberations from Slim's early idol Roosevelt Sykes, one may also pick up on the influences of Jimmy Yancey and Pete Johnson. The album is entirely instrumental with the possible exception of "Ouargla," named for a city in Saharan East Central Algeria. This track begins with off-mike remarks and a humorous vocal outburst. Beautifully alive with musical portraits of his wife Christina and daughter Nathalie, vibrant with colorful sketches of Parisian nightspots and fancy cars, Memphis Slim's richly rewarding Boogie Woogie album stands with the very best in his entire recorded legacy, and belongs among the greatest achievements ever realized in this genre.
Tracklist:
01. Mellow One
02. Rolling
03. Paris On Rolls
04. Stomping At The Caveau De La Huchette
05. Talk To Me
06. Long Long Boogie
07. Nathalie's Boogie
08. Boogie Woogie At The Penthouse
09. Roll 'Em Slim
10. Ouargla
11. Christina Boogie
12. Mistral Boogie
13. Just Playing Boogie
14. Discotheque Boogie
15. Funky And Nice
16. Hudson Boogie

Total time: 01:06:37

Exact Audio Copy V0.99 prebeta 5 from 4. May 2009

EAC extraction logfile from 23. May 2009, 20:10

Memphis Slim / Boogie Woogie

Used drive : LITE-ON CD-RW SOHR-5238S Adapter: 5 ID: 3

Read mode : Secure
Utilize accurate stream : Yes
Defeat audio cache : Yes
Make use of C2 pointers : No

Read offset correction : 6
Overread into Lead-In and Lead-Out : No
Fill up missing offset samples with silence : Yes
Delete leading and trailing silent blocks : No
Null samples used in CRC calculations : Yes
Used interface : Installed external ASPI interface
Gap handling : Appended to previous track

Used output format : Internal WAV Routines
Sample format : 44.100 Hz; 16 Bit; Stereo


TOC of the extracted CD

Track | Start | Length | Start sector | End sector
––––––––––––––––––––––––––––-
1 | 0:00.00 | 4:41.68 | 0 | 21142
2 | 4:41.68 | 3:38.52 | 21143 | 37544
3 | 8:20.45 | 2:25.04 | 37545 | 48423
4 | 10:45.49 | 4:26.27 | 48424 | 68400
5 | 15:12.01 | 2:23.39 | 68401 | 79164
6 | 17:35.40 | 11:17.45 | 79165 | 129984
7 | 28:53.10 | 2:56.58 | 129985 | 143242
8 | 31:49.68 | 4:19.67 | 143243 | 162734
9 | 36:09.60 | 4:52.04 | 162735 | 184638
10 | 41:01.64 | 3:46.18 | 184639 | 201606
11 | 44:48.07 | 5:00.48 | 201607 | 224154
12 | 49:48.55 | 2:50.39 | 224155 | 236943
13 | 52:39.19 | 3:11.47 | 236944 | 251315
14 | 55:50.66 | 3:56.55 | 251316 | 269070
15 | 59:47.46 | 4:58.29 | 269071 | 291449
16 | 64:46.00 | 1:51.42 | 291450 | 299816


Track 1

Filename D:\EAC\Memphis Boogie\01 - Mellow One.wav

Pre-gap length 0:00:02.00

Peak level 95.5 %
Track quality 99.9 %
Test CRC 21CBBC6A
Copy CRC 21CBBC6A
Accurately ripped (confidence 1) [2CB9256F]
Copy OK

Track 2

Filename D:\EAC\Memphis Boogie\02 - Rolling.wav

Pre-gap length 0:00:02.00

Peak level 97.7 %
Track quality 100.0 %
Test CRC 6158CB94
Copy CRC 6158CB94
Accurately ripped (confidence 1) [38EFDB56]
Copy OK

Track 3

Filename D:\EAC\Memphis Boogie\03 - Paris On Rolls.wav

Pre-gap length 0:00:02.02

Peak level 69.2 %
Track quality 100.0 %
Test CRC 35E1F1B3
Copy CRC 35E1F1B3
Accurately ripped (confidence 1) [F1705FE0]
Copy OK

Track 4

Filename D:\EAC\Memphis Boogie\04 - Stomping At The Caveau De La Huchette.wav

Pre-gap length 0:00:02.00

Peak level 91.7 %
Track quality 100.0 %
Test CRC C8F3C45C
Copy CRC C8F3C45C
Accurately ripped (confidence 1) [D0D3F23C]
Copy OK

Track 5

Filename D:\EAC\Memphis Boogie\05 - Talk To Me.wav

Pre-gap length 0:00:02.00

Peak level 83.9 %
Track quality 100.0 %
Test CRC BB807B56
Copy CRC BB807B56
Accurately ripped (confidence 1) [1F5216BB]
Copy OK

Track 6

Filename D:\EAC\Memphis Boogie\06 - Long Long Boogie.wav

Pre-gap length 0:00:02.00

Peak level 97.7 %
Track quality 100.0 %
Test CRC C9ECF755
Copy CRC C9ECF755
Accurately ripped (confidence 1) [D6E034CB]
Copy OK

Track 7

Filename D:\EAC\Memphis Boogie\07 - Nathalie's Boogie.wav

Pre-gap length 0:00:02.00

Peak level 80.8 %
Track quality 100.0 %
Test CRC BB8EBD52
Copy CRC BB8EBD52
Accurately ripped (confidence 1) [B4E57833]
Copy OK

Track 8

Filename D:\EAC\Memphis Boogie\08 - Boogie Woogie At The Penthouse.wav

Pre-gap length 0:00:02.00

Peak level 95.6 %
Track quality 100.0 %
Test CRC 58AAAA4C
Copy CRC 58AAAA4C
Cannot be verified as accurate (confidence 1) [9E2B7878], AccurateRip returned [C6BD13EE]
Copy OK

Track 9

Filename D:\EAC\Memphis Boogie\09 - Roll 'Em Slim.wav

Pre-gap length 0:00:04.49

Peak level 84.7 %
Track quality 100.0 %
Test CRC 21A99155
Copy CRC 21A99155
Accurately ripped (confidence 1) [7EDB3981]
Copy OK

Track 10

Filename D:\EAC\Memphis Boogie\10 - Ouargla.wav

Pre-gap length 0:00:02.00

Peak level 80.2 %
Track quality 100.0 %
Test CRC E817822F
Copy CRC E817822F
Accurately ripped (confidence 1) [F4787875]
Copy OK

Track 11

Filename D:\EAC\Memphis Boogie\11 - Christina Boogie.wav

Pre-gap length 0:00:02.00

Peak level 97.7 %
Track quality 100.0 %
Test CRC A8E23499
Copy CRC A8E23499
Accurately ripped (confidence 1) [744F13FB]
Copy OK

Track 12

Filename D:\EAC\Memphis Boogie\12 - Mistral Boogie.wav

Pre-gap length 0:00:02.00

Peak level 89.7 %
Track quality 100.0 %
Test CRC 6A2D4AA8
Copy CRC 6A2D4AA8
Accurately ripped (confidence 1) [FF2F76E3]
Copy OK

Track 13

Filename D:\EAC\Memphis Boogie\13 - Just Playing Boogie.wav

Pre-gap length 0:00:02.00

Peak level 93.5 %
Track quality 100.0 %
Test CRC EDC19D27
Copy CRC EDC19D27
Accurately ripped (confidence 1) [5AFDDBA7]
Copy OK

Track 14

Filename D:\EAC\Memphis Boogie\14 - Discotheque Boogie.wav

Pre-gap length 0:00:02.00

Peak level 66.4 %
Track quality 100.0 %
Test CRC 66B3B73F
Copy CRC 66B3B73F
Accurately ripped (confidence 1) [5D6F7C3A]
Copy OK

Track 15

Filename D:\EAC\Memphis Boogie\15 - Funky And Nice.wav

Pre-gap length 0:00:02.00

Peak level 73.1 %
Track quality 100.0 %
Test CRC 19B11540
Copy CRC 19B11540
Accurately ripped (confidence 1) [4D80C750]
Copy OK

Track 16

Filename D:\EAC\Memphis Boogie\16 - Hudson Boogie.wav

Pre-gap length 0:00:02.00

Peak level 97.8 %
Track quality 100.0 %
Test CRC 57EEEE84
Copy CRC 57EEEE84
Accurately ripped (confidence 1) [658A1FF7]
Copy OK


15 track(s) accurately ripped
1 track(s) could not be verified as accurate

Some tracks could not be verified as accurate

No errors occurred

End of status report

[CUETools log; Date: 10.08.2019 19:25:06; Version: 2.1.4]
[CTDB TOCID: k7vCPP1GL2GnMB7T8ESn1A.HCMQ-] found.
Track | CTDB Status
1 | (5/5) Accurately ripped
2 | (5/5) Accurately ripped
3 | (5/5) Accurately ripped
4 | (5/5) Accurately ripped
5 | (5/5) Accurately ripped
6 | (5/5) Accurately ripped
7 | (5/5) Accurately ripped
8 | (5/5) Accurately ripped
9 | (5/5) Accurately ripped
10 | (5/5) Accurately ripped
11 | (5/5) Accurately ripped
12 | (5/5) Accurately ripped
13 | (5/5) Accurately ripped
14 | (5/5) Accurately ripped
15 | (5/5) Accurately ripped
16 | (5/5) Accurately ripped
[AccurateRip ID: 00286e28-01e5c2dc-e90f9d10] found.
Track [ CRC | V2 ] Status
01 [2cb9256f|34523898] (2+0/2) Accurately ripped
02 [38efdb56|fe908cc2] (2+0/2) Accurately ripped
03 [f1705fe0|59a24f04] (2+0/2) Accurately ripped
04 [d0d3f23c|408388ee] (2+0/2) Accurately ripped
05 [1f5216bb|c245cd52] (2+0/2) Accurately ripped
06 [d6e034cb|7dd13ed0] (2+0/2) Accurately ripped
07 [b4e57833|6aa6e539] (2+0/2) Accurately ripped
08 [9e2b7878|ff81d02c] (1+0/5) Accurately ripped
09 [7edb3981|b2ae6431] (2+0/2) Accurately ripped
10 [f4787875|dfe260de] (2+0/2) Accurately ripped
11 [744f13fb|eb269da6] (2+0/2) Accurately ripped
12 [ff2f76e3|0f033014] (2+0/2) Accurately ripped
13 [5afddba7|9e01980d] (2+0/2) Accurately ripped
14 [5d6f7c3a|b22d463e] (2+0/2) Accurately ripped
15 [4d80c750|99d53164] (2+0/2) Accurately ripped
16 [658a1ff7|5f20f6e4] (2+0/2) Accurately ripped
Offsetted by -30:
01 [f458f69b] (0/2) No match (V2 was not tested)
02 [bcc4f56a] (0/2) No match (V2 was not tested)
03 [ae22fcaa] (0/2) No match (V2 was not tested)
04 [6c954744] (0/2) No match (V2 was not tested)
05 [42b62a11] (0/2) No match (V2 was not tested)
06 [5d34b9cf] (0/2) No match (V2 was not tested)
07 [9a576da5] (0/2) No match (V2 was not tested)
08 [dd9ffb80] (1/5) Accurately ripped
09 [b71f4479] (0/2) No match (V2 was not tested)
10 [9ae461e3] (0/2) No match (V2 was not tested)
11 [fd9df6f9] (0/2) No match (V2 was not tested)
12 [8a614fc9] (0/2) No match (V2 was not tested)
13 [a737f6d3] (0/2) No match (V2 was not tested)
14 [806e2b76] (0/2) No match (V2 was not tested)
15 [4284fe0e] (0/2) No match (V2 was not tested)
16 [d40ab4e7] (0/2) No match (V2 was not tested)
Offsetted by 6:
01 [37ff9533] (0/2) No match
02 [1e920952] (0/2) No match
03 [987fda1e] (0/2) No match
04 [e4e07ad4] (0/2) No match
05 [183e12dd] (0/2) No match
06 [bc028097] (0/2) No match
07 [ba3513e9] (0/2) No match
08 [2b142b10] (1/5) Accurately ripped
09 [da00d0e9] (0/2) No match
10 [0662e35f] (0/2) No match
11 [58d8e695] (0/2) No match
12 [b0257eb5] (0/2) No match
13 [4bbf096b] (0/2) No match
14 [f009592e] (0/2) No match
15 [b619892a] (0/2) No match
16 [82a39bc7] (0/2) No match

Track Peak [ CRC32 ] [W/O NULL] [ LOG ]
– 97,8 [80E1CEB9] [807025FC]
01 95,5 [21CBBC6A] [647A5E44] CRC32
02 97,7 [6158CB94] [6D305F51] CRC32
03 69,2 [35E1F1B3] [C6DDF04B] CRC32
04 91,7 [C8F3C45C] [F3CE5C76] CRC32
05 83,9 [BB807B56] [28BC263B] CRC32
06 97,7 [C9ECF755] [3587AED7] CRC32
07 80,8 [BB8EBD52] [83FC7DDB] CRC32
08 95,6 [58AAAA4C] [BC575DD6] CRC32
09 84,7 [21A99155] [797C69B0] CRC32
10 80,2 [E817822F] [576A0B9E] CRC32
11 97,7 [A8E23499] [98576891] CRC32
12 89,7 [6A2D4AA8] [D8AC4CC0] CRC32
13 93,5 [EDC19D27] [685C6703] CRC32
14 66,4 [66B3B73F] [58D7C768] CRC32
15 73,1 [19B11540] [E6EE59B6] CRC32
16 97,8 [57EEEE84] [C2AFFA82] CRC32

Thanks to garet jax

See also: