Subcategories

Rockpalast Archiv: Men At Work - Markthalle, Hamburg (West Germany) 1982 (2019) [HDTV, 720p]

Posted By: v3122
Rockpalast Archiv: Men At Work - Markthalle, Hamburg (West Germany) 1982 (2019) [HDTV, 720p]

Rockpalast Archiv: Men At Work - Markthalle, Hamburg (West Germany) 1982 (2019)
TS: MPEG4 Video (H264) 1280x720 50fps 6 099 kb/s
MPEG Audio 48000Hz, stereo, 192kbps / Dolby AC3 48000Hz, stereo, 448kbps
Pop-Rock, New Wave | 01:31:09 | ~ 4.77 Gb

~ Men At Work Live at Markthalle, Hamburg, Germany. December 2, 1982 ~

Men at Work are an Australian rock band formed in 1979 and best known for their 1981 hit "Down Under". Its founding member was Colin Hay on lead vocals and guitar. After playing as an acoustic duo with Ron Strykert during 1978-79, he formed the group with Ron Strykert playing bass guitar, and Jerry Speiser on drums. They were soon joined by Greg Ham on flute, saxophone, and keyboards and John Rees on bass guitar, with Ron then switching to lead guitar. The group was managed by Russell Depeller, a friend of Colin Hay, whom he met at Latrobe University. This line-up achieved national and international success in the early 1980s. In January 1983, they were the first Australian artists to have a simultaneous No. 1 album and No. 1 single in the United States Billboard charts: Business as Usual (released on 9 November 1981) and "Down Under" (1981), respectively. With the same works, they achieved the distinction of a simultaneous No. 1 album and No. 1 single on the Australian, New Zealand, and United Kingdom charts. Their second album Cargo (2 May 1983) was also No. 1 in Australia, No. 2 in New Zealand, No. 3 in the US, and No. 8 in the UK. Their third album Two Hearts (3 April 1985) reached the top 20 in Australia and top 50 in the US.

They won the Grammy Award for Best New Artist in 1983, they were inducted into the ARIA Hall of Fame in 1994, and they have sold over 30 million albums worldwide. In May 2001, "Down Under" was listed at No. 4 on the APRA Top 30 Australian songs and Business as Usual appeared in the book 100 Best Australian Albums (October 2010).

The original band line-up split in two in 1984, with Jerry Speiser and John Rees being asked to leave the group. This left Colin Hay, Greg Ham and Ron Strykert. During the recording of the Two Hearts album, Ron decided to leave. Soon after the release of Two Hearts, Greg left also, leaving Colin Hay as the sole remaining member. Colin Hay and Greg Ham toured the world as Men At Work from 1996, until 2002. On 19 April 2012, Greg Ham was found dead at his home from an apparent heart attack. In 2019, Hay revived the moniker and began touring as Men at Work with a backing band…

~ wiki
Rockpalast Archiv: Men At Work - Markthalle, Hamburg (West Germany) 1982 (2019):

Tracklist:

01. No Restrictions
02. I Can See It In Your Eyes
03. People Just Love To Play With Words
04. Overkill
05. Touching The Untouchables
06. Catch A Star
07. Underground
08. Helpless Automation
09. Highwire
10. Down Under
11. F-19
12. Shintaro
13. Who Can It Be Now
14. Mr. Entertainer
15. It's A Mistake
16. I'd Like To
17. Be Good Johnny
18. Upstairs In My House
19. Keypunch Operator

Colin Hay: Vocals, Guitar
Ron Strykert: Guitar, Vocals
Jerry Speiser: Drums, Vocals
Greg Ham: Saxophone, Flute, Vocals, Keyboards
John Rees: Bass, Vocals


General
ID : 1 (0x1)
Complete name : E:\Mix\Men At Work - Markthalle, Hamburg\Rockpalast Archiv - Men At Work - Markthalle, Hamburg (West Germany) 1982.ts
Format : MPEG-TS
File size : 4.52 GiB
Duration : 1h 31mn
Overall bit rate mode : Variable
Overall bit rate : 7 096 Kbps
Maximum Overall bit rate : 35.5 Mbps

Video
ID : 4113 (0x1011)
Menu ID : 1 (0x1)
Format : AVC
Format/Info : Advanced Video Codec
Format profile : High@L4.0
Format settings, CABAC : Yes
Format settings, ReFrames : 4 frames
Codec ID : 27
Duration : 1h 31mn
Bit rate mode : Variable
Bit rate : 6 099 Kbps
Maximum bit rate : 40.0 Mbps
Width : 1 280 pixels
Height : 720 pixels
Display aspect ratio : 16:9
Frame rate : 50.000 fps
Color space : YUV
Chroma subsampling : 4:2:0
Bit depth : 8 bits
Scan type : Progressive
Bits/(Pixel*Frame) : 0.132
Stream size : 3.88 GiB (86%)

Audio #1
ID : 4352 (0x1100)
Menu ID : 1 (0x1)
Format : MPEG Audio
Format version : Version 1
Format profile : Layer 2
Codec ID : 4
Duration : 1h 31mn
Bit rate mode : Constant
Bit rate : 192 Kbps
Channel(s) : 2 channels
Sampling rate : 48.0 KHz
Compression mode : Lossy
Delay relative to video : 34ms
Stream size : 125 MiB (3%)
Language : German

Audio #2
ID : 4353 (0x1101)
Menu ID : 1 (0x1)
Format : AC-3
Format/Info : Audio Coding 3
Mode extension : CM (complete main)
Format settings, Endianness : Big
Codec ID : 129
Duration : 1h 31mn
Bit rate mode : Constant
Bit rate : 448 Kbps
Channel(s) : 2 channels
Channel positions : Front: L R
Sampling rate : 48.0 KHz
Bit depth : 16 bits
Compression mode : Lossy
Delay relative to video : 37ms
Stream size : 292 MiB (6%)
Language : German



Rockpalast Archiv: Men At Work - Markthalle, Hamburg (West Germany) 1982 (2019) [HDTV, 720p]

Rockpalast Archiv: Men At Work - Markthalle, Hamburg (West Germany) 1982 (2019) [HDTV, 720p]

Rockpalast Archiv: Men At Work - Markthalle, Hamburg (West Germany) 1982 (2019) [HDTV, 720p]

Rockpalast Archiv: Men At Work - Markthalle, Hamburg (West Germany) 1982 (2019) [HDTV, 720p]

Rockpalast Archiv: Men At Work - Markthalle, Hamburg (West Germany) 1982 (2019) [HDTV, 720p]

All thanks go to the original releaser

Rockpalastin my Blog

Download Rockpalast Archiv: Men At Work - Markthalle, Hamburg (West Germany) 1982 (2019):