Subcategories

Men At Work - The Essential Men at Work (2003)

Posted By: popsakov
Men At Work - The Essential Men at Work (2003)

Men At Work - The Essential Men at Work (2003)
DVD-5 | Video: MPEG 2, PAL 4:3 (720x576), VBR | Audio: DD 2.0, 384 Kbps
~ 2,84 Gb | FileSonic, FileServe, Uploaded | 3% Recovery
Rock, Pop Rock, New Wave | Label: Columbia / Legacy | Catalog#: 5134623000

Men at Work are an Australian rock band who achieved international success in the 1980s. They are the only Australian artists to have a simultaneous #1 album and #1 single in the United States (Business as Usual and "Down Under" respectively). They achieved the same distinction of a simultaneous #1 album and #1 single in the United Kingdom. The group won the 1983 Grammy Award for Best New Artist and sold over 30 million albums worldwide. The band's sound is distinguished by its use of woodwind and brass instruments.
Men At Work from Wiki
Men At Work - The Essential Men at Work (2003)

Complete name : D:\_Music\_NEW_3\Men At Work - The Essential (DVD5)\VIDEO_TS\VTS_01_1.VOB
Format : MPEG-PS
File size : 1 024 MiB

Video
ID : 224 (0xE0)
Format : MPEG Video
Format version : Version 2
Format profile : Main@Main
Format settings, BVOP : Yes
Format settings, Matrix : Default
Format settings, GOP : M=3, N=12
Bit rate mode : Variable
Bit rate : 9 400 Kbps
Width : 720 pixels
Height : 576 pixels
Display aspect ratio : 4:3
Frame rate : 25.000 fps
Standard : PAL
Color space : YUV
Chroma subsampling : 4:2:0
Bit depth : 8 bits
Scan type : Interlaced
Scan order : Top Field First
Bits/(Pixel*Frame) : 0.907

Audio
ID : 128 (0x80)
Format : AC-3
Format/Info : Audio Coding 3
Mode extension : CM (complete main)
Bit rate mode : Constant
Bit rate : 384 Kbps
Channel(s) : 2 channels
Channel positions : Front: L R
Sampling rate : 48.0 KHz

Menu

General
Complete name : D:\_Music\_NEW_3\Men At Work - The Essential (DVD5)\VIDEO_TS\VTS_01_2.VOB
Format : MPEG-PS
File size : 1 024 MiB
Duration : 16mn 36s
Overall bit rate : 8 624 Kbps

Video
ID : 224 (0xE0)
Format : MPEG Video
Format version : Version 2
Format profile : Main@Main
Format settings, BVOP : Yes
Format settings, Matrix : Default
Format settings, GOP : M=3, N=12
Duration : 16mn 36s
Bit rate mode : Variable
Bit rate : 8 068 Kbps
Nominal bit rate : 9 400 Kbps
Width : 720 pixels
Height : 576 pixels
Display aspect ratio : 4:3
Frame rate : 25.000 fps
Standard : PAL
Color space : YUV
Chroma subsampling : 4:2:0
Bit depth : 8 bits
Scan type : Interlaced
Scan order : Top Field First
Bits/(Pixel*Frame) : 0.778
Stream size : 958 MiB (94%)

Audio
ID : 128 (0x80)
Format : AC-3
Format/Info : Audio Coding 3
Mode extension : CM (complete main)
Duration : 16mn 36s
Bit rate mode : Constant
Bit rate : 384 Kbps
Channel(s) : 2 channels
Channel positions : Front: L R
Sampling rate : 48.0 KHz
Video delay : -256ms
Stream size : 45.6 MiB (4%)

Menu

General
Complete name : D:\_Music\_NEW_3\Men At Work - The Essential (DVD5)\VIDEO_TS\VTS_01_3.VOB
Format : MPEG-PS
File size : 657 MiB

Video
ID : 224 (0xE0)
Format : MPEG Video
Format version : Version 2
Format profile : Main@Main
Format settings, BVOP : Yes
Format settings, Matrix : Default
Format settings, GOP : M=3, N=12
Bit rate mode : Variable
Bit rate : 9 400 Kbps
Width : 720 pixels
Height : 576 pixels
Display aspect ratio : 4:3
Frame rate : 25.000 fps
Standard : PAL
Color space : YUV
Chroma subsampling : 4:2:0
Bit depth : 8 bits
Scan type : Interlaced
Scan order : Top Field First
Bits/(Pixel*Frame) : 0.907

Audio
ID : 128 (0x80)
Format : AC-3
Format/Info : Audio Coding 3
Mode extension : CM (complete main)
Bit rate mode : Constant
Bit rate : 384 Kbps
Channel(s) : 2 channels
Channel positions : Front: L R
Sampling rate : 48.0 KHz
Video delay : -608ms

Tracklist:

01. Down Under
02. Overkill
03. Who Can It Be Now?
04. Hard Luck Story
05. High Wire
06. Maria
07. Dr. Heckyll & Mr. Jive
08. It's a Mistake
09. Everything I Need
10. Be Good Johnny

Total time: 00:38:29
Men At Work - The Essential Men at Work (2003)

Men At Work - The Essential Men at Work (2003)

Men At Work - The Essential Men at Work (2003)

Men At Work - The Essential Men at Work (2003)

All links in txt file:

FileSonic | FileServe | Uploaded

pass: avaxhome.ws

In case you encounter some dead links, please leave the comment here or send me a private message!

Visit my blog!

All thanks go to meloman67