Subcategories

Mendelssohn - The Complete Masterpieces (CD 20-22)

Posted By: joway
Mendelssohn - The Complete Masterpieces (CD 20-22)

Mendelssohn - The Complete Masterpieces (CD 20-22)
RCA Red Seal, 2009 | FLAC, CUE, LOG, Scans | 3 CD, 1Gb (RS)


Review from Amazon
The symphonies are well-performed. 'Reformation' is an inspired live recording. The 12 string symphonies, written in Mendelssohn's youth, are also included. The concertos are exceptional - the violin concerto is as good as you'll find anywhere. The oratorios Elijah and Paulus are included, as well as the complete chamber works and a diverse assortment of choral works. The last few discs include the Lied ohne worte, the epic organ sonatas, and excellent renditions of A Midsummer Night's Dream and Fingal's Cave. While there are a few sketchy performances in the choral and chamber works, the performances and recordings are generally very solid, and the body of work couldn't be better.
CD 20
1-4. String Quartet No. 1 in E flat major, Op. 12 23:54
Performed by Henschel Quartet
5-8. String Quartet No. 6 in F minor, Op. 80 25:05
Performed by Henschel Quartet
9-12. String Quartet in E flat major 25:10
Performed by Henschel Quartet

CD 21
1-4. String Quartet No. 2 in A minor, Op. 13 29:38
Performed by Henschel Quartet
5-8. String Quartet No. 5 in E flat major, Op.44/3 33:48
Performed by Henschel Quartet

CD 22
1-4. String Quartet No. 3 in D major, Op.44/1 29:03
Performed by Henschel Quartet
5-8. String Quartet No. 4 in E minor, Op.44/2 26:15
Performed by Henschel Quartet
9-12. Pieces (4) for string quartet, Op. 81 20:17
Performed by Henschel Quartet


CD 20
Exact Audio Copy V0.99 prebeta 4 from 23. January 2008

Archivo Log de extracciones desde 9. Abril 2009, 17:54

Henschel Quartett / The Complete String Quartetts / Samtliche Streichquartette (disc 1)

Usar unidad : HL-DT-STDVDRAM GSA-H12N Adapter: 1 ID: 0

Modo de Lectura : Seguro
Utilizar Corriente Exacta : Sэ
Descartar Audio cachщ : Sэ
Utilizar los punteros C2 : No

Correcciєn de Desplazamiento de Lectura : 667
Sobreleer tanto en Lead-In como en Lead-Out : No
Rellenar las muestras faltantes con silencios : Sэ
Eliminar silencios inicial y final : No
Se han usado muestras nulas en los cсlculos CRC : No
Interfaz usada : Interfaz propio de Win32 para Windowns NT y 2000

Formato de Salida utilizado : Compresor definido por el usuario
Bitrate seleccionado : 1024 kBit/s
Calidad : Alta
Aёadir Etiqueta ID3 : No
Compresor de linea de comandos : C:\Utilidades\EAC\Exact Audio Copy\FLAC\FLAC.EXE
Opciones adicionales en lэnea de comandos : -8 -T "artist=%a" -T "title=%t" -T "album=%g" -T "date=%y" -T "tracknumber=%n" -T "genre=%m" %s


TOC del CD extraido

Pista | Inicio | Duraciєn | Sector inicial | Sector final
––––––––––––––––––––––––––––––-
1 | 0:00.00 | 7:12.62 | 0 | 32461
2 | 7:12.62 | 4:12.19 | 32462 | 51380
3 | 11:25.06 | 4:21.48 | 51381 | 71003
4 | 15:46.54 | 8:09.05 | 71004 | 107683
5 | 23:55.59 | 7:15.73 | 107684 | 140381
6 | 31:11.57 | 4:38.00 | 140382 | 161231
7 | 35:49.57 | 7:24.00 | 161232 | 194531
8 | 43:13.57 | 5:48.18 | 194532 | 220649
9 | 49:02.00 | 9:06.00 | 220650 | 261599
10 | 58:08.00 | 6:01.39 | 261600 | 288713
11 | 64:09.39 | 5:57.36 | 288714 | 315524
12 | 70:07.00 | 4:07.00 | 315525 | 334049


Gama de estados y errores

Seleccionar gama

Nombre de Archivo F:\Musica\F. Mendelssohn -The Complete Masterpieces\Mendelssohn - Cuartetos de cuerda\CD20\Henschel Quartett - The Complete String Quartetts Samtliche Streichquartette (disc 1).wav

Nivel Pico 99.8 %
Gama de Calidad 99.9 %
Copiar CRC 62DCBC8D
Copia OK

Sin Errores


Resumen AccurateRip

Pista 1 no presente en la base de datos
Pista 2 no presente en la base de datos
Pista 3 no presente en la base de datos
Pista 4 no presente en la base de datos
Pista 5 no presente en la base de datos
Pista 6 no presente en la base de datos
Pista 7 no presente en la base de datos
Pista 8 no presente en la base de datos
Pista 9 no presente en la base de datos
Pista 10 no presente en la base de datos
Pista 11 no presente en la base de datos
Pista 12 no presente en la base de datos

Ninguna de las pistas estс presente en la base de datos AccurateRip

Final del Informe

CD 21
Exact Audio Copy V0.99 prebeta 4 from 23. January 2008

Archivo Log de extracciones desde 9. Abril 2009, 18:29

Felix Mendelssohn-Bartholdy / Streichquartette Op. 13 Am & Op. 44/3 Eb (Henschel-Quartett)

Usar unidad : HL-DT-STDVDRAM GSA-H12N Adapter: 1 ID: 0

Modo de Lectura : Seguro
Utilizar Corriente Exacta : Sэ
Descartar Audio cachщ : Sэ
Utilizar los punteros C2 : No

Correcciєn de Desplazamiento de Lectura : 667
Sobreleer tanto en Lead-In como en Lead-Out : No
Rellenar las muestras faltantes con silencios : Sэ
Eliminar silencios inicial y final : No
Se han usado muestras nulas en los cсlculos CRC : No
Interfaz usada : Interfaz propio de Win32 para Windowns NT y 2000

Formato de Salida utilizado : Compresor definido por el usuario
Bitrate seleccionado : 1024 kBit/s
Calidad : Alta
Aёadir Etiqueta ID3 : No
Compresor de linea de comandos : C:\Utilidades\EAC\Exact Audio Copy\FLAC\FLAC.EXE
Opciones adicionales en lэnea de comandos : -8 -T "artist=%a" -T "title=%t" -T "album=%g" -T "date=%y" -T "tracknumber=%n" -T "genre=%m" %s


TOC del CD extraido

Pista | Inicio | Duraciєn | Sector inicial | Sector final
––––––––––––––––––––––––––––––-
1 | 0:00.00 | 7:31.64 | 0 | 33888
2 | 7:31.64 | 8:10.00 | 33889 | 70638
3 | 15:41.64 | 4:40.71 | 70639 | 91709
4 | 20:22.60 | 9:17.15 | 91710 | 133499
5 | 29:40.00 | 12:37.33 | 133500 | 190307
6 | 42:17.33 | 3:57.45 | 190308 | 208127
7 | 46:15.03 | 9:01.04 | 208128 | 248706
8 | 55:16.07 | 8:13.26 | 248707 | 285707


Gama de estados y errores

Seleccionar gama

Nombre de Archivo F:\Musica\F. Mendelssohn -The Complete Masterpieces\Mendelssohn - Cuartetos de cuerda\CD21\Felix Mendelssohn-Bartholdy - Streichquartette Op. 13 Am & Op. 44 3 Eb (Henschel-Quartett).wav

Nivel Pico 100.0 %
Gama de Calidad 99.9 %
Copiar CRC FF664B9C
Copia OK

Sin Errores


Resumen AccurateRip

Pista 1 no presente en la base de datos
Pista 2 no presente en la base de datos
Pista 3 no presente en la base de datos
Pista 4 no presente en la base de datos
Pista 5 no presente en la base de datos
Pista 6 no presente en la base de datos
Pista 7 no presente en la base de datos
Pista 8 no presente en la base de datos

Ninguna de las pistas estс presente en la base de datos AccurateRip

Final del Informe

CD 22
Exact Audio Copy V0.99 prebeta 4 from 23. January 2008

Archivo Log de extracciones desde 9. Abril 2009, 18:43

Felix Mendelssohn-Bartholdy / Streichquartette Op. 44/1 D, Op. 44/2 Em, Op. 81

Usar unidad : HL-DT-STDVDRAM GSA-H12N Adapter: 1 ID: 0

Modo de Lectura : Seguro
Utilizar Corriente Exacta : Sэ
Descartar Audio cachщ : Sэ
Utilizar los punteros C2 : No

Correcciєn de Desplazamiento de Lectura : 667
Sobreleer tanto en Lead-In como en Lead-Out : No
Rellenar las muestras faltantes con silencios : Sэ
Eliminar silencios inicial y final : No
Se han usado muestras nulas en los cсlculos CRC : No
Interfaz usada : Interfaz propio de Win32 para Windowns NT y 2000

Formato de Salida utilizado : Compresor definido por el usuario
Bitrate seleccionado : 1024 kBit/s
Calidad : Alta
Aёadir Etiqueta ID3 : No
Compresor de linea de comandos : C:\Utilidades\EAC\Exact Audio Copy\FLAC\FLAC.EXE
Opciones adicionales en lэnea de comandos : -8 -T "artist=%a" -T "title=%t" -T "album=%g" -T "date=%y" -T "tracknumber=%n" -T "genre=%m" %s


TOC del CD extraido

Pista | Inicio | Duraciєn | Sector inicial | Sector final
––––––––––––––––––––––––––––––-
1 | 0:00.00 | 11:55.43 | 0 | 53667
2 | 11:55.43 | 4:44.41 | 53668 | 75008
3 | 16:40.09 | 5:27.12 | 75009 | 99545
4 | 22:07.21 | 6:57.54 | 99546 | 130874
5 | 29:05.00 | 10:03.37 | 130875 | 176136
6 | 39:08.37 | 3:50.38 | 176137 | 193424
7 | 42:59.00 | 5:54.42 | 193425 | 220016
8 | 48:53.42 | 6:28.33 | 220017 | 249149
9 | 55:22.00 | 5:29.21 | 249150 | 273845
10 | 60:51.21 | 3:32.46 | 273846 | 289791
11 | 64:23.67 | 5:25.52 | 289792 | 314218
12 | 69:49.44 | 5:51.19 | 314219 | 340562


Gama de estados y errores

Seleccionar gama

Nombre de Archivo F:\Musica\F. Mendelssohn -The Complete Masterpieces\Mendelssohn - Cuartetos de cuerda\CD22\Felix Mendelssohn-Bartholdy - Streichquartette Op. 44 1 D, Op. 44 2 Em, Op. 81.wav

Nivel Pico 100.0 %
Gama de Calidad 100.0 %
Copiar CRC 583D8740
Copia OK

Sin Errores


Resumen AccurateRip

Pista 1 no presente en la base de datos
Pista 2 no presente en la base de datos
Pista 3 no presente en la base de datos
Pista 4 no presente en la base de datos
Pista 5 no presente en la base de datos
Pista 6 no presente en la base de datos
Pista 7 no presente en la base de datos
Pista 8 no presente en la base de datos
Pista 9 no presente en la base de datos
Pista 10 no presente en la base de datos
Pista 11 no presente en la base de datos
Pista 12 no presente en la base de datos

Ninguna de las pistas estс presente en la base de datos AccurateRip

Final del Informe

Links
Pass: mendels
PLEASE DO NOT POST DIRECT LINKS!

CD 1-13 | CD 14-15 | CD 16-17 | CD 18-19