Subcategories

Mendelssohn - Elijah, Op.70 (Terfel, Fleming, Bardon, Ainsley, Fulgoni, Paul Daniel) [1997]

Posted By: Aregak
Mendelssohn - Elijah, Op.70 (Terfel, Fleming, Bardon, Ainsley, Fulgoni, Paul Daniel) [1997]

Mendelssohn - Elijah, Op.70 (Terfel, Fleming, Bardon, Ainsley, Fulgoni, Paul Daniel) [1997]
EAC Rip | FLAC, IMG+CUE, LOG | Covers | 2cd, 567 MB
Classical | Label: Decca | Catalog Number: 455 6882 9 | TT: CD1`65:13, CD2`65:57

Mendelssohn (1809-1847) is a perennially underrated composer who finally may be coming to greater appreciation. Certainly this fine recording (in English) of a masterpiece that he believed joined the Jewish faith of his fathers with his own Protestant Christianity should not hurt his reputation. The superb Welsh baritone Bryn Terfel gives a dramatically charged performance in the title role, while soprano Renee Fleming sings with beauty and limpid understanding; the cast is almost uniformly strong. The Edinburgh Festival Chorus, directed by David Jones, sings with care and conviction, and Paul Daniel conducts his forces firmly. –Sarah Bryan Miller.

Performer:
Bryn Terfel - Elijah, Baritone
Renée Fleming - The Widow, Soprano I
Patricia Bardon - An Angel, Contralto I
John Mark Ainsley - Obadiah, Tenor I
Libby Crabtree - Soprano II
Sarah Fulgoni - The Queen, Contralto II
John Bowen - Ahab, Tenor II
Neal Davies - Bass II
Geoffrey Moses - Bass III
Matthew Munro - The Boy

Edinburgh Festival Chorus
David Jones - chorus master
Orchestra of the Age of Enlightenment
David Watkin - solo cello
Stephen Doughty - organ

Paul Daniel - Conductor

Tracklisting:
CD1
01. Part I. Introduction- As God The Lord Of Israel Liveth 01:05
02. Overture 03:23
03. No. 1- Chorus- Help, Lord! Wilt Thou Quite Destroy Us? (People) 03:50
04. No. 2- Duet with Chorus- Lord, Bow Thine Ear To Our Prayer! (People, Two Women) 01:53
05. No. 3- Recit- Ye People, Rend Your Hearts And Not Your Garments (Obadiah) 00:51
06. No. 4- Aria- If With All Your Hearts Ye Truly Seek Me… (Obadiah) 02:25
07. No. 5- Chorus- Yet Doth The Lord See It Not (People) 04:00
08. No. 6- Recit- Elijah! Get Thee Hence, Elijah! (An Angel) 00:51
09. No. 7- Double Quartet- For He Shall Give His Angels Charge Over Thee (Angel) 03:43
10. No. 8- Aria Duet- What Have I To Do With Thee, O Man Of God? (Widow, Elijah) 06:34
11. No. 9- Chorus- Blessed Are The Men Who Fear Him 03:21
12. No. 10- Recit & Chorus- As God The Lord Of Sabaoth Liveth (Elijah, Ahab, People) 04:36
13. No. 11- Chorus- Ball, We Cry To Thee (Prophets of Baal) 03:07
14. No. 12- Recit & Chorus- Call Him Louder, For He Is A God! (Elijah, Prophets of Baal) 01:10
15. No. 13- Recit & Chorus- Call Him Louder! He Heareth Not (Elijah, Prophets of Baal) 02:24
16. No. 14- Aria- Lord God Of Abraham, Isaac And Israel (Elijah) 03:04
17. No. 15- Quartet- Cast Thy Burden Upon The Lord (Angels) 01:41
18. No. 16- Recit & Chorus- O Thou, Who Makest Thine Angels Spirits (Elijah, People) 03:02
19. No. 17- Aria- Is Not His Word Like A Fire (Elijah) 01:59
20. No. 18- Arioso- Woe, Woe Unto Them Who Forsake Him! (Contralto I) 02:45
21. No. 19- Recit & Chorus- O Man Of God, Help Thy People! (Obadiah, Elijah, Boy, People) 05:48
22. No. 20- Chorus- Thanks Be To God! He Laveth The Thirsty Land (People) 03:42

CD2
01. No 21. Aria- Hear Ye, Israel (Soprano I) 05:25
02. No 22. Chorus- Be Not Afraid, Saith God The Lord 04:12
03. No 23. Recit & Chorus- The Lord Hath Exalted Thee From Among The People (Elijah, Queen, People) 03:26
04. No 24. Chorus- Woe To Him! He Shall Perish (People) 01:39
05. No 25. Recit- Man Of God, Now Let My Words Be Precious In Thy Sight (Obadiah, Elijah) 02:21
06. No 26. Aria- It Is Enough! O Lord, Now Take Away My Life (Elijah) 05:29
07. No 27. Recit- See, Now He Sleepeth Beneath A Juniper Treeative (Tenor I) 00:53
08. No 28. Trio- Lift Thine Eyes To The Mountains (Angels) 01:52
09. No 29. Chorus- He, Watching Over Israel 03:22
10. No 30. Recit-Arise, Elijah, For Thou Hast A Long Journey Before Thee (An Angel, Elijah) 01:57
11. No 31. Aria- Oh Rest In The Lord (An Angel) 02:53
12. No 32. Chorus- He That Shall Endure To The End, Shall Be Saved 02:17
13. No 33. Recit- Night Falleth Round Me, O Lord! ative (Elijah, An Angel) 01:48
14. No 34. Chorus- Behold, God The Lord Passed By! 04:50
15. No 35. Recit & Chorus- Above Him Stood The Seraphin - Holy Is God The Lord Sabaoth (Contralto I, Seraphim) 03:18
16. No 36. Chorus & Recit- Go, Return Upon Thy Way! (Elijah) 01:23
17. No 37. Arioso- For The Mountains Shall Depart (Elijah) 02:53
18. No 38. Chorus- Then Did Elijah The Prophet Break Forth Like A Fire 02:30
19. No 39. Aria- Then Shall The Righteous Shine Forth (Tenor I) 02:25
20. No 40. Recit- Behold, God Hath Sent Elijah The Prophet (Soprano I) 01:11
21. No 41. Chorus & Quartet- But The Lord From The North Hath Raised One - Oh Come Everyone That Thirsteth 06:31
22. No 42. Chorus- And Then Shall Your Light Break Forth 03:23

Exact Audio Copy V1.0 beta 3 from 29. August 2011

EAC extraction logfile from 18. January 2014, 19:34

- / Mendelssohn - Elijah, Oratorio (Daniel P.) - CD1

Used drive : ATAPI iHAS122 C Adapter: 0 ID: 1

Read mode : Secure
Utilize accurate stream : Yes
Defeat audio cache : Yes
Make use of C2 pointers : No

Read offset correction : 6
Overread into Lead-In and Lead-Out : No
Fill up missing offset samples with silence : Yes
Delete leading and trailing silent blocks : No
Null samples used in CRC calculations : Yes
Used interface : Installed external ASPI interface

Used output format : User Defined Encoder
Selected bitrate : 192 kBit/s
Quality : High
Add ID3 tag : No
Command line compressor : C:\Program Files\Exact Audio Copy\Flac\flac.exe
Additional command line options : -V -8 -T "Date=%year%" -T "Genre=%genre%" %source%


TOC of the extracted CD

Track | Start | Length | Start sector | End sector
––––––––––––––––––––––––––––-
1 | 0:00.32 | 1:05.13 | 32 | 4919
2 | 1:05.45 | 3:22.45 | 4920 | 20114
3 | 4:28.15 | 3:50.32 | 20115 | 37396
4 | 8:18.47 | 1:52.70 | 37397 | 45866
5 | 10:11.42 | 0:50.50 | 45867 | 49666
6 | 11:02.17 | 2:25.28 | 49667 | 60569
7 | 13:27.45 | 4:00.05 | 60570 | 78574
8 | 17:27.50 | 0:50.42 | 78575 | 82366
9 | 18:18.17 | 3:43.03 | 82367 | 99094
10 | 22:01.20 | 6:34.07 | 99095 | 128651
11 | 28:35.27 | 3:21.10 | 128652 | 143736
12 | 31:56.37 | 4:36.05 | 143737 | 164441
13 | 36:32.42 | 3:07.05 | 164442 | 178471
14 | 39:39.47 | 1:09.55 | 178472 | 183701
15 | 40:49.27 | 2:24.28 | 183702 | 194529
16 | 43:13.55 | 3:04.05 | 194530 | 208334
17 | 46:17.60 | 1:40.65 | 208335 | 215899
18 | 47:58.50 | 3:01.40 | 215900 | 229514
19 | 51:00.15 | 1:59.32 | 229515 | 238471
20 | 52:59.47 | 2:44.65 | 238472 | 250836
21 | 55:44.37 | 5:48.03 | 250837 | 276939
22 | 61:32.40 | 3:42.32 | 276940 | 293621


Range status and errors

Selected range

Filename C:\Program Files\Exact Audio Copy\Flac\Mendelssohn - Elijah, Oratorio (Daniel P.) - CD1.wav

Peak level 100.0 %
Extraction speed 10.0 X
Range quality 99.9 %
Test CRC CAA56C1B
Copy CRC CAA56C1B
Copy OK

No errors occurred


AccurateRip summary

Track 1 accurately ripped (confidence 5) [BC8157B0] (AR v2)
Track 2 accurately ripped (confidence 5) [4D87C50C] (AR v2)
Track 3 accurately ripped (confidence 5) [CC26AB82] (AR v2)
Track 4 accurately ripped (confidence 5) [D6A864D7] (AR v2)
Track 5 accurately ripped (confidence 5) [A57CE20C] (AR v2)
Track 6 accurately ripped (confidence 5) [E3260DB7] (AR v2)
Track 7 accurately ripped (confidence 5) [CF7AE24B] (AR v2)
Track 8 accurately ripped (confidence 5) [1D309725] (AR v2)
Track 9 accurately ripped (confidence 5) [A17884E6] (AR v2)
Track 10 accurately ripped (confidence 5) [1E3E6CB3] (AR v2)
Track 11 accurately ripped (confidence 5) [47DB7FB6] (AR v2)
Track 12 accurately ripped (confidence 5) [AD02D16E] (AR v2)
Track 13 accurately ripped (confidence 5) [D7AED4E5] (AR v2)
Track 14 accurately ripped (confidence 5) [A282AD8E] (AR v2)
Track 15 accurately ripped (confidence 5) [26CABD59] (AR v2)
Track 16 accurately ripped (confidence 5) [3F9421E3] (AR v2)
Track 17 accurately ripped (confidence 5) [A434CFC6] (AR v2)
Track 18 accurately ripped (confidence 5) [EE570051] (AR v2)
Track 19 accurately ripped (confidence 5) [23FB901E] (AR v2)
Track 20 accurately ripped (confidence 5) [CC5C4AE2] (AR v2)
Track 21 accurately ripped (confidence 5) [75505186] (AR v2)
Track 22 accurately ripped (confidence 5) [123FFB97] (AR v2)

All tracks accurately ripped

End of status report

==== Log checksum 3AE636A6CE98B48D4276F5B93BFADBA3FBE2FDEE3049F76679850B42CABD62E7 ====

Exact Audio Copy V1.0 beta 3 from 29. August 2011

EAC extraction logfile from 18. January 2014, 20:03

- / Mendelssohn - Elijah, Oratorio (Daniel P.) - CD2

Used drive : ATAPI iHAS122 C Adapter: 0 ID: 1

Read mode : Secure
Utilize accurate stream : Yes
Defeat audio cache : Yes
Make use of C2 pointers : No

Read offset correction : 6
Overread into Lead-In and Lead-Out : No
Fill up missing offset samples with silence : Yes
Delete leading and trailing silent blocks : No
Null samples used in CRC calculations : Yes
Used interface : Installed external ASPI interface

Used output format : User Defined Encoder
Selected bitrate : 192 kBit/s
Quality : High
Add ID3 tag : No
Command line compressor : C:\Program Files\Exact Audio Copy\Flac\flac.exe
Additional command line options : -V -8 -T "Date=%year%" -T "Genre=%genre%" %source%


TOC of the extracted CD

Track | Start | Length | Start sector | End sector
––––––––––––––––––––––––––––-
1 | 0:00.32 | 5:24.63 | 32 | 24394
2 | 5:25.20 | 4:11.47 | 24395 | 43266
3 | 9:36.67 | 3:26.05 | 43267 | 58721
4 | 13:02.72 | 1:39.00 | 58722 | 66146
5 | 14:41.72 | 2:20.63 | 66147 | 76709
6 | 17:02.60 | 5:28.67 | 76710 | 101376
7 | 22:31.52 | 0:53.10 | 101377 | 105361
8 | 23:24.62 | 1:51.58 | 105362 | 113744
9 | 25:16.45 | 3:21.52 | 113745 | 128871
10 | 28:38.22 | 1:57.25 | 128872 | 137671
11 | 30:35.47 | 2:53.30 | 137672 | 150676
12 | 33:29.02 | 2:16.63 | 150677 | 160939
13 | 35:45.65 | 1:48.35 | 160940 | 169074
14 | 37:34.25 | 4:50.22 | 169075 | 190846
15 | 42:24.47 | 3:17.40 | 190847 | 205661
16 | 45:42.12 | 1:22.55 | 205662 | 211866
17 | 47:04.67 | 2:52.63 | 211867 | 224829
18 | 49:57.55 | 2:29.67 | 224830 | 236071
19 | 52:27.47 | 2:25.35 | 236072 | 246981
20 | 54:53.07 | 1:10.73 | 246982 | 252304
21 | 56:04.05 | 6:31.12 | 252305 | 281641
22 | 62:35.17 | 3:22.53 | 281642 | 296844


Range status and errors

Selected range

Filename C:\Program Files\Exact Audio Copy\Flac\Mendelssohn - Elijah, Oratorio (Daniel P.) - CD2.wav

Peak level 100.0 %
Extraction speed 10.1 X
Range quality 100.0 %
Test CRC 82F54B59
Copy CRC 82F54B59
Copy OK

No errors occurred


AccurateRip summary

Track 1 accurately ripped (confidence 5) [1AC9B832] (AR v2)
Track 2 accurately ripped (confidence 5) [88F02129] (AR v2)
Track 3 accurately ripped (confidence 5) [19AD9D83] (AR v2)
Track 4 accurately ripped (confidence 5) [B433F1E7] (AR v2)
Track 5 accurately ripped (confidence 5) [9C8FA11F] (AR v2)
Track 6 accurately ripped (confidence 5) [1DA8F0B9] (AR v2)
Track 7 accurately ripped (confidence 5) [DE0E6F93] (AR v2)
Track 8 accurately ripped (confidence 5) [CFCD45F8] (AR v2)
Track 9 accurately ripped (confidence 5) [9CCF9E95] (AR v2)
Track 10 accurately ripped (confidence 5) [1B9C25B8] (AR v2)
Track 11 accurately ripped (confidence 5) [0C09A16A] (AR v2)
Track 12 accurately ripped (confidence 5) [7FE22D51] (AR v2)
Track 13 accurately ripped (confidence 5) [95E91CAE] (AR v2)
Track 14 accurately ripped (confidence 5) [0271F814] (AR v2)
Track 15 accurately ripped (confidence 5) [391681A6] (AR v2)
Track 16 accurately ripped (confidence 5) [66687886] (AR v2)
Track 17 accurately ripped (confidence 4) [7BCF94AD] (AR v2)
Track 18 accurately ripped (confidence 5) [FC1A9913] (AR v2)
Track 19 accurately ripped (confidence 5) [B43BE206] (AR v2)
Track 20 accurately ripped (confidence 5) [D979F549] (AR v2)
Track 21 accurately ripped (confidence 5) [D15BF358] (AR v2)
Track 22 accurately ripped (confidence 5) [1A161129] (AR v2)

All tracks accurately ripped

End of status report

==== Log checksum 3EA6DE771CA57130148A8007C817A8F5C2238009877A6FB501651543AB0A5EAA ====