Subcategories

Yehudi Menuhin & Stephane Grappelli - Menuhin & Grappelli Play Berlin, Kern, Porter And Rodgers & Hart (1988) {2011, Reissue}

Posted By: popsakov
Yehudi Menuhin & Stephane Grappelli - Menuhin & Grappelli Play Berlin, Kern, Porter And Rodgers & Hart (1988) {2011, Reissue}

Yehudi Menuhin & Stephane Grappelli - Menuhin & Grappelli Play Berlin, Kern, Porter And Rodgers & Hart (1988) {2011, Reissue}
EAC Rip | WV (Img) + Cue + Log ~ 408 Mb | MP3 CBR320 ~ 210 Mb
Scans Included (JPG, 600 dpi) | RAR 5% Recovery
Jazz, Crossover Jazz, Swing, Gypsy Jazz | EMI Hong Kong / Warner Music Hong Kong #5099908468628

These are the main ingredients of a perfectly-made CD for your listening pleasure: mix violins, piano, bass and drums together, combine two terrific violinists, season with the best melodies in the 20s, 30s and 40s from Irving Berlin, Jerome Kern, Cole Porter and Rodgers & Hart. Add the musical talents of Nelson Riddle, Max Harris, Martin Taylor, Eddie Tripp, Alan Clare and the rest of the studio musicians. Now all you have to do is to sit back, relax and savor these stunning melodies coming from your CD player. Listen to it in full-volume and fill your music room with the sheer beauty of these classics. A musical treat! ~ Customer review by Amazon

***************

Yehudi Menuhin & Stephane Grappelli - Menuhin & Grappelli Play Berlin, Kern, Porter And Rodgers & Hart (1988) {2011, Reissue}

Yehudi Menuhin & Stephane Grappelli - Menuhin & Grappelli Play Berlin, Kern, Porter And Rodgers & Hart (1988) {2011, Reissue}

Track List:

01. Cheek To Cheek [3:49]
02. Isn't This A Lovely Day? [3:00]
03. The Piccolino [3:16]
04. Change Partners [3:36]
05. Top Hat [4:01]
06. I've Got My Love To Keep Me Warm [3:31]
07. Heat Wave [2:59]
08. The Way You Look Tonight [3:42]
09. Pick Yourself Up [2:20]
10. A Fine Romance [3:27]
11. All The Things You Are [4:17]
12. Why Do I Love You? [3:31]
13. I Get A Kick Out Of You [4:08]
14. Night And Day [4:10]
15. Looking At You [3:27]
16. Just One Of Those Things [3:26]
17. My Funny Valentine [4:11]
18. Thou Swell [3:06]
19. The Lady Is A Tramp [4:28]
20. Blue Room [2:20]

Personnel:
Stéphane Grappelli, Yehudi Menuhin (violin)
Nelson Riddle (conductor)
Pierre Michelot, Ken Baldock, Lennie Bush (bass)
Alan Clare, Max Harris (piano)
Tony Crombie, Allan Ganley, Chris Karan (drums)
Denny Wright, Martin Taylor, Marc Fosset (guitar)
Laurie Holloway (keyboards)
Ike Isaacs (bass, guitar)
Derek Price (percussion)
David Snell (harp)
Ray Swinfield (flute, strings, brass, woodwind)

Exact Audio Copy V1.0 beta 6 from 9. April 2015

EAC extraction logfile from 17. April 2016, 20:57

Yehudi Menuhin & Stephane Grappelli / Menuhin & Grappelli Play Berlin, Kern, Porter and Rodgers & Hart

Used drive : TSSTcorpCDDVDW SH-224DB Adapter: 1 ID: 0

Read mode : Secure
Utilize accurate stream : Yes
Defeat audio cache : Yes
Make use of C2 pointers : No

Read offset correction : 6
Overread into Lead-In and Lead-Out : No
Fill up missing offset samples with silence : Yes
Delete leading and trailing silent blocks : No
Null samples used in CRC calculations : Yes
Used interface : Native Win32 interface for Win NT & 2000

Used output format : User Defined Encoder
Selected bitrate : 1024 kBit/s
Quality : High
Add ID3 tag : No
Command line compressor : C:\Program Files (x86)\Exact Audio Copy\wavpack.exe
Additional command line options : -hm %source% %dest%


TOC of the extracted CD

Track | Start | Length | Start sector | End sector
––––––––––––––––––––––––––––-
1 | 0:00.00 | 3:49.01 | 0 | 17175
2 | 3:49.01 | 2:59.49 | 17176 | 30649
3 | 6:48.50 | 3:16.02 | 30650 | 45351
4 | 10:04.52 | 3:35.74 | 45352 | 61550
5 | 13:40.51 | 4:01.11 | 61551 | 79636
6 | 17:41.62 | 3:31.03 | 79637 | 95464
7 | 21:12.65 | 2:59.18 | 95465 | 108907
8 | 24:12.08 | 3:41.74 | 108908 | 125556
9 | 27:54.07 | 2:19.55 | 125557 | 136036
10 | 30:13.62 | 3:26.46 | 136037 | 151532
11 | 33:40.33 | 4:16.43 | 151533 | 170775
12 | 37:57.01 | 3:30.55 | 170776 | 186580
13 | 41:27.56 | 4:08.30 | 186581 | 205210
14 | 45:36.11 | 4:09.71 | 205211 | 223956
15 | 49:46.07 | 3:26.40 | 223957 | 239446
16 | 53:12.47 | 3:25.46 | 239447 | 254867
17 | 56:38.18 | 4:10.54 | 254868 | 273671
18 | 60:48.72 | 3:05.59 | 273672 | 287605
19 | 63:54.56 | 4:28.25 | 287606 | 307730
20 | 68:23.06 | 2:19.54 | 307731 | 318209


Range status and errors

Selected range

Filename G:\iso\Yehudi Menuhin & Stephane Grappelli - Menuhin & Grappelli Play Berlin, Kern, Porter and Rodgers & Hart\Yehudi Menuhin & Stephane Grappelli - Menuhin & Grappelli Play Berlin, Kern, Porter and Rodgers & Hart.wav

Peak level 99.7 %
Extraction speed 2.2 X
Range quality 100.0 %
Test CRC 9E1B8176
Copy CRC 9E1B8176
Copy OK

No errors occurred


AccurateRip summary

Track 1 not present in database
Track 2 not present in database
Track 3 not present in database
Track 4 not present in database
Track 5 not present in database
Track 6 not present in database
Track 7 not present in database
Track 8 not present in database
Track 9 not present in database
Track 10 not present in database
Track 11 not present in database
Track 12 not present in database
Track 13 not present in database
Track 14 not present in database
Track 15 not present in database
Track 16 not present in database
Track 17 not present in database
Track 18 not present in database
Track 19 not present in database
Track 20 not present in database

None of the tracks are present in the AccurateRip database

End of status report

–– CUETools DB Plugin V2.1.6

[CTDB TOCID: 7wCl6S8fIppdzxvClSRcTJrvQiQ-] found
Submit result: 7wCl6S8fIppdzxvClSRcTJrvQiQ- has been confirmed
Track | CTDB Status
1 | (1/1) Accurately ripped
2 | (1/1) Accurately ripped
3 | (1/1) Accurately ripped
4 | (1/1) Accurately ripped
5 | (1/1) Accurately ripped
6 | (1/1) Accurately ripped
7 | (1/1) Accurately ripped
8 | (1/1) Accurately ripped
9 | (1/1) Accurately ripped
10 | (1/1) Accurately ripped
11 | (1/1) Accurately ripped
12 | (1/1) Accurately ripped
13 | (1/1) Accurately ripped
14 | (1/1) Accurately ripped
15 | (1/1) Accurately ripped
16 | (1/1) Accurately ripped
17 | (1/1) Accurately ripped
18 | (1/1) Accurately ripped
19 | (1/1) Accurately ripped
20 | (1/1) Accurately ripped


==== Log checksum 25EAB2E8A358904B8345EA49B883ADA94364BF49BC19AC2861B0C3D170760DB2 ====

foobar2000 1.3.16 / Dynamic Range Meter 1.1.1
log date: 2017-12-05 02:09:28

––––––––––––––––––––––––––––––––––––––––
Analyzed: Yehudi Menuhin & Stephane Grappelli / Menuhin & Grappelli Play Berlin, Kern, Porter and Rodgers & Hart
––––––––––––––––––––––––––––––––––––––––

DR Peak RMS Duration Track
––––––––––––––––––––––––––––––––––––––––
DR11 -3.48 dB -19.25 dB 3:49 01-Cheek To Cheek
DR12 -1.21 dB -17.22 dB 3:00 02-Isn't This A Lovely Day?
DR14 -1.39 dB -18.79 dB 3:16 03-The Piccolino
DR12 -3.47 dB -19.45 dB 3:36 04-Change Partners
DR15 -0.41 dB -19.21 dB 4:01 05-Top Hat
DR12 -3.34 dB -19.42 dB 3:31 06-I've Got My Love To Keep Me Warm
DR14 -1.08 dB -19.13 dB 2:59 07-Heat Wave
DR12 -0.41 dB -18.65 dB 3:42 08-The Way You Look Tonight
DR12 -3.98 dB -18.47 dB 2:20 09-Pick Yourself Up
DR12 -4.27 dB -19.72 dB 3:27 10-A Fine Romance
DR12 -2.93 dB -19.08 dB 4:17 11-All The Things You Are
DR13 -1.82 dB -18.79 dB 3:31 12-Why Do I Love You?
DR13 -1.94 dB -20.05 dB 4:08 13-I Get A Kick Out Of You
DR12 -4.11 dB -19.89 dB 4:10 14-Night And Day
DR14 -0.18 dB -18.31 dB 3:27 15-Looking At You
DR12 -2.43 dB -17.61 dB 3:26 16-Just One Of Those Things
DR13 -2.68 dB -18.90 dB 4:11 17-My Funny Valentine
DR12 -0.02 dB -16.98 dB 3:06 18-Thou Swell
DR13 -1.44 dB -19.12 dB 4:28 19-The Lady Is A Tramp
DR12 -1.76 dB -17.93 dB 2:20 20-Blue Room
––––––––––––––––––––––––––––––––––––––––

Number of tracks: 20
Official DR value: DR13

Samplerate: 44100 Hz
Channels: 2
Bits per sample: 16
Bitrate: 693 kbps
Codec: WavPack
================================================================================

[CUETools log; Date: 05.12.2017 2:09:25; Version: 2.1.5]
[CTDB TOCID: 7wCl6S8fIppdzxvClSRcTJrvQiQ-] found.
Track | CTDB Status
1 | (2/2) Accurately ripped
2 | (2/2) Accurately ripped
3 | (2/2) Accurately ripped
4 | (2/2) Accurately ripped
5 | (2/2) Accurately ripped
6 | (2/2) Accurately ripped
7 | (2/2) Accurately ripped
8 | (2/2) Accurately ripped
9 | (2/2) Accurately ripped
10 | (2/2) Accurately ripped
11 | (2/2) Accurately ripped
12 | (2/2) Accurately ripped
13 | (2/2) Accurately ripped
14 | (2/2) Accurately ripped
15 | (2/2) Accurately ripped
16 | (2/2) Accurately ripped
17 | (2/2) Accurately ripped
18 | (2/2) Accurately ripped
19 | (2/2) Accurately ripped
20 | (2/2) Accurately ripped
[AccurateRip ID: 0032a875-02e9fbc7-13109214] found.
Track [ CRC | V2 ] Status
01 [e92a6c88|7788334b] (0+1/1) Accurately ripped
02 [7ea24154|fd2b15df] (0+1/1) Accurately ripped
03 [d04d3867|462806df] (0+1/1) Accurately ripped
04 [95090287|68d07af3] (0+1/1) Accurately ripped
05 [72998b89|e899c51a] (0+1/1) Accurately ripped
06 [5fd2ec38|ac1744ba] (0+1/1) Accurately ripped
07 [9dc54c15|413df7ee] (0+1/1) Accurately ripped
08 [3587feba|0630163d] (0+1/1) Accurately ripped
09 [c8f50f02|7c94956d] (0+1/1) Accurately ripped
10 [b99d965f|8ee52830] (0+1/1) Accurately ripped
11 [a170b75a|69212fbe] (0+1/1) Accurately ripped
12 [69a914a9|6c01e20b] (0+1/1) Accurately ripped
13 [a26e3797|a5817e61] (0+1/1) Accurately ripped
14 [6e00c6ba|61ca0c0a] (0+1/1) Accurately ripped
15 [d5a918e4|ebdc7c0a] (0+1/1) Accurately ripped
16 [60e651aa|bc0a9ab8] (0+1/1) Accurately ripped
17 [bd9b0c1f|0b299eee] (0+1/1) Accurately ripped
18 [2c16245b|642903c5] (0+1/1) Accurately ripped
19 [39f6bbbb|9ba41ffb] (0+1/1) Accurately ripped
20 [2a51f751|98d4f962] (0+1/1) Accurately ripped

Track Peak [ CRC32 ] [W/O NULL] [ LOG ]
– 99,7 [9E1B8176] [48182E8C] CRC32
01 67,0 [B316154D] [E07F909F]
02 87,0 [325E057E] [2B36D22B]
03 85,2 [49E19C2C] [2EB31F35]
04 67,0 [E707BA04] [EF3C9C39]
05 95,3 [94F1A64B] [C9944A2D]
06 68,0 [C2D15E0A] [99FE8BB9]
07 88,2 [146FB16E] [0DE967EC]
08 95,3 [C1128E4F] [DFC65E95]
09 63,2 [DAA3CCDC] [EA8EB19F]
10 61,1 [42728FF6] [67336F43]
11 71,3 [A22D45F6] [530BBDD8]
12 81,0 [FA2CFB0C] [CFBB9EA3]
13 79,9 [45B83894] [2BF3D3C2]
14 62,2 [B3CA3BF3] [CE154158]
15 98,0 [0B8ACE1E] [E7B2D203]
16 75,5 [0C2EC8CA] [4671E1E8]
17 73,4 [7850ED0A] [AA7F1AD7]
18 99,7 [C456AC7B] [1988BD5A]
19 84,7 [59067669] [EAE58571]
20 81,6 [32579BC9] [8B83507A]

Yehudi Menuhin & Stephane Grappelli - Menuhin & Grappelli Play Berlin, Kern, Porter And Rodgers & Hart (1988) {2011, Reissue}

All thanks go to shatterhand

>>> My Blog <<<

Download from icerbox.com: