Subcategories

VA - Metal: A Headbanger's Companion (6CDs) (2007) [Lossless]

Posted By: mook45
VA - Metal: A Headbanger's Companion (6CDs) (2007) [Lossless]

VA - Metal: A Headbanger's Companion (6CDs) (2007) [Lossless]
EAC | FLAC IMG,CUE+LOG = 2.96GB | 600 dpi Scans
Metal | Label: Earache - MOSH351CD | FSe/FSo/FF


VA - Metal: A Headbanger's Companion (6CDs) (2007) [Lossless]


Disc 1: Death Metal:

1. Deicide - Homage For Satan
2. Morbid Angel - Maze Of Torment
3. Napalm Death - Suffer The Children
4. At The Gates - Blinded By Fear
5. Carcass - Incarnated Solvent Abuse
6. Decapitated - Spheres Of Madness
7. Entombed - Left Hand Path
8. Bolt Thrower - World Eater
9. Hate Eternal - Behold Judas
10. Akercocke - The Penance
11. Severe Torture - Endless Strain Of Cadavers
12. Vader - Dark Age
13. Blood Red Throne - Mephitication
14. Anata - Downward Spiral Into Madness
15. Nocturnus - Droid Sector
16. Carnage - Infestation Of Evil
17. Massacre - Corpsegrinder

Exact Audio Copy V1.0 beta 1 from 15. November 2010

EAC extraction logfile from 3. March 2011, 22:39

Various / Metal - A Headbanger's Companion (CD1 - Death Metal)

Used drive : HP DVD Writer 1040r Adapter: 1 ID: 0

Read mode : Secure
Utilize accurate stream : Yes
Defeat audio cache : Yes
Make use of C2 pointers : No

Read offset correction : 6
Overread into Lead-In and Lead-Out : No
Fill up missing offset samples with silence : Yes
Delete leading and trailing silent blocks : No
Null samples used in CRC calculations : No
Used interface : Native Win32 interface for Win NT & 2000

Used output format : User Defined Encoder
Selected bitrate : 1024 kBit/s
Quality : High
Add ID3 tag : No
Command line compressor : C:\Program Files\Exact Audio Copy\FLAC\FLAC.EXE
Additional command line options : -6 -V -T "ARTIST=%a" -T "TITLE=%t" -T "ALBUM=%g" -T "DATE=%y" -T "TRACKNUMBER=%n" -T "GENRE=%m" -T "COMMENT=%e" %j–picture="%i"%j %s -o %d


TOC of the extracted CD

Track | Start | Length | Start sector | End sector
––––––––––––––––––––––––––––-
1 | 0:00.00 | 4:01.15 | 0 | 18089
2 | 4:01.15 | 4:24.30 | 18090 | 37919
3 | 8:25.45 | 4:21.71 | 37920 | 57565
4 | 12:47.41 | 3:13.24 | 57566 | 72064
5 | 16:00.65 | 4:43.53 | 72065 | 93342
6 | 20:44.43 | 5:13.09 | 93343 | 116826
7 | 25:57.52 | 6:39.17 | 116827 | 146768
8 | 32:36.69 | 4:55.03 | 146769 | 168896
9 | 37:31.72 | 4:22.47 | 168897 | 188593
10 | 41:54.44 | 4:31.13 | 188594 | 208931
11 | 46:25.57 | 4:07.06 | 208932 | 227462
12 | 50:32.63 | 4:41.31 | 227463 | 248568
13 | 55:14.19 | 4:39.25 | 248569 | 269518
14 | 59:53.44 | 5:29.57 | 269519 | 294250
15 | 65:23.26 | 4:21.74 | 294251 | 313899
16 | 69:45.25 | 4:58.09 | 313900 | 336258
17 | 74:43.34 | 3:20.55 | 336259 | 351313


Range status and errors

Selected range

Filename C:\Users\Mike3\Desktop\To Do\Metal ~ A Headbanger's Companion\Disc 1 - Death Metal\Various - Metal - A Headbanger's Companion (CD1 - Death Metal).wav

Peak level 99.3 %
Extraction speed 0.1 X
Range quality 100.0 %
Test CRC 377CE815
Copy CRC 377CE815
Copy OK

No errors occurred


AccurateRip summary

Track 1 cannot be verified as accurate (confidence 2) [2576DAC7], AccurateRip returned [A087CF10]
Track 2 cannot be verified as accurate (confidence 2) [C3D0CA9F], AccurateRip returned [14C6D661]
Track 3 cannot be verified as accurate (confidence 2) [442A9082], AccurateRip returned [F499C76F]
Track 4 cannot be verified as accurate (confidence 2) [35787762], AccurateRip returned [F1DF04C3]
Track 5 cannot be verified as accurate (confidence 2) [46EFC123], AccurateRip returned [79F70B5E]
Track 6 cannot be verified as accurate (confidence 2) [8C541F64], AccurateRip returned [7CC3D87A]
Track 7 cannot be verified as accurate (confidence 2) [09FEF510], AccurateRip returned [D661B9D5]
Track 8 cannot be verified as accurate (confidence 2) [8B00460A], AccurateRip returned [DCBEDDA2]
Track 9 cannot be verified as accurate (confidence 2) [CCCB4F21], AccurateRip returned [359BEFC6]
Track 10 cannot be verified as accurate (confidence 2) [A75D49D2], AccurateRip returned [6829197B]
Track 11 cannot be verified as accurate (confidence 2) [1D0D0AC9], AccurateRip returned [BF6250FB]
Track 12 cannot be verified as accurate (confidence 2) [F02EDA2E], AccurateRip returned [2417E668]
Track 13 cannot be verified as accurate (confidence 2) [FBEB45D1], AccurateRip returned [9F879E8F]
Track 14 cannot be verified as accurate (confidence 2) [DA444206], AccurateRip returned [7D7577A5]
Track 15 cannot be verified as accurate (confidence 2) [7711DE08], AccurateRip returned [B8BF0B7F]
Track 16 cannot be verified as accurate (confidence 2) [086A39D2], AccurateRip returned [0DA81500]
Track 17 cannot be verified as accurate (confidence 2) [25EC42FA], AccurateRip returned [EC3539C5]

No tracks could be verified as accurate
You may have a different pressing from the one(s) in the database

End of status report

==== Log checksum CD013A83417B6AE9A64829DD405393A2E642E3D57ECBDA34857ACE1575F9A13B ====


VA - Metal: A Headbanger's Companion (6CDs) (2007) [Lossless]


Disc 2: Grindcore:

1. Napalm Death - Scum
2. Brutal Truth- Walking Corpse
3. The Berzerker - Reality
4. Terrorizer - Dead Shall Rise
5. Bolt Thrower - Through The Eye Of Terror
6. Mistress- In Disgust We Trust
7. Napalm Death- You Suffer
8. Anal C*** - Pepe The Gay Waiter
9. Mistress - Happily Ever Disaster
10. December Wolves - Desperately Seeking Satan
11. Watchmaker - Conference Call Immolation
12. Cadaver Inc - Primal
13. The Berzerker- Mono Grind
14. Brutal Truth - Collateral Damage
15. Nox - Satan Ex-Machina
16. Anal C*** - No We Don't Want To Do A Split 7 Inch With Your Stupid Band
17. Carcass - Pyosisified (Rotten To The Gore)
18. Unseen Terror - Charred Remains
19. Hellbastard - Justly Executed
20. Filthy Christians - Zombie Holocaust

Exact Audio Copy V1.0 beta 1 from 15. November 2010

EAC extraction logfile from 4. March 2011, 0:57

Various Artists / Metal - A Headbanger's Companion (CD2 - Grindcore)

Used drive : HP DVD Writer 1040r Adapter: 1 ID: 0

Read mode : Secure
Utilize accurate stream : Yes
Defeat audio cache : Yes
Make use of C2 pointers : No

Read offset correction : 6
Overread into Lead-In and Lead-Out : No
Fill up missing offset samples with silence : Yes
Delete leading and trailing silent blocks : No
Null samples used in CRC calculations : No
Used interface : Native Win32 interface for Win NT & 2000

Used output format : User Defined Encoder
Selected bitrate : 1024 kBit/s
Quality : High
Add ID3 tag : No
Command line compressor : C:\Program Files\Exact Audio Copy\FLAC\FLAC.EXE
Additional command line options : -6 -V -T "ARTIST=%a" -T "TITLE=%t" -T "ALBUM=%g" -T "DATE=%y" -T "TRACKNUMBER=%n" -T "GENRE=%m" -T "COMMENT=%e" %j–picture="%i"%j %s -o %d


TOC of the extracted CD

Track | Start | Length | Start sector | End sector
––––––––––––––––––––––––––––-
1 | 0:00.00 | 2:37.50 | 0 | 11824
2 | 2:37.50 | 1:39.60 | 11825 | 19309
3 | 4:17.35 | 1:21.32 | 19310 | 25416
4 | 5:38.67 | 3:05.00 | 25417 | 39291
5 | 8:43.67 | 4:22.09 | 39292 | 58950
6 | 13:06.01 | 4:30.30 | 58951 | 79230
7 | 17:36.31 | 0:06.06 | 79231 | 79686
8 | 17:42.37 | 0:36.72 | 79687 | 82458
9 | 18:19.34 | 3:00.03 | 82459 | 95961
10 | 21:19.37 | 6:06.72 | 95962 | 123483
11 | 27:26.34 | 1:16.70 | 123484 | 129253
12 | 28:43.29 | 2:28.22 | 129254 | 140375
13 | 31:11.51 | 1:03.43 | 140376 | 145143
14 | 32:15.19 | 0:05.67 | 145144 | 145585
15 | 32:21.11 | 2:40.32 | 145586 | 157617
16 | 35:01.43 | 0:28.68 | 157618 | 159785
17 | 35:30.36 | 2:54.64 | 159786 | 172899
18 | 38:25.25 | 1:20.10 | 172900 | 178909
19 | 39:45.35 | 4:12.59 | 178910 | 197868
20 | 43:58.19 | 0:59.44 | 197869 | 202337


Range status and errors

Selected range

Filename C:\Users\Mike3\Desktop\To Do\Metal ~ A Headbanger's Companion\Disc 2 - Grindcore\Various Artists - Metal - A Headbanger's Companion (CD2 - Grindcore).wav

Peak level 99.0 %
Extraction speed 0.0 X
Range quality 100.0 %
Test CRC 7F0E248A
Copy CRC 7F0E248A
Copy OK

No errors occurred


AccurateRip summary

Track 1 accurately ripped (confidence 1) [77B0FF53]
Track 2 accurately ripped (confidence 1) [8C6CC690]
Track 3 accurately ripped (confidence 1) [4F340DB5]
Track 4 accurately ripped (confidence 1) [E056A914]
Track 5 accurately ripped (confidence 1) [CC468734]
Track 6 accurately ripped (confidence 1) [6680EDD2]
Track 7 not present in database
Track 8 accurately ripped (confidence 1) [F672435D]
Track 9 accurately ripped (confidence 1) [FF35903E]
Track 10 accurately ripped (confidence 1) [C9CEDC4D]
Track 11 accurately ripped (confidence 1) [C3B6A8E1]
Track 12 accurately ripped (confidence 1) [1EB0CC01]
Track 13 accurately ripped (confidence 1) [6FE05717]
Track 14 not present in database
Track 15 accurately ripped (confidence 1) [E66F7583]
Track 16 accurately ripped (confidence 1) [FF7895E2]
Track 17 accurately ripped (confidence 1) [7D173CED]
Track 18 accurately ripped (confidence 1) [13690C22]
Track 19 accurately ripped (confidence 1) [C7CFE12D]
Track 20 accurately ripped (confidence 1) [9DAC69E5]

18 track(s) accurately ripped
2 track(s) not present in the AccurateRip database

Some tracks could not be verified as accurate

End of status report

==== Log checksum 3E3FC6FB4FB5EBF15CE4BA6C9E3363976A6AB9AF9DCAFE5241112F58FB6E2CF7 ====


VA - Metal: A Headbanger's Companion (6CDs) (2007) [Lossless]


Disc 3: Metal/Rock


1. Carcass - Keep On Rotting In The Free World
2. The Haunted - Hollow Ground
3. Cathedral - Hopkins (Witchfinder General)
4. Adema - Shoot The Arrows
5. Candiria - Remove Yourself
6. Biomechanical - Regenerated
7. Society 1 - Hate
8. Linea 77 - Charon
9. Urkraft - Liberation
10. Evile- Enter The Grave (Demo)
11. With Passion - Pale Horses Ride
12. Addiction Crew - What About
13. Shortie - Truth
14. Gandalf- L8X Queen
15. Sleep - Dragonaut
16. Confessor- Collapse Into Despair
17. Usurper - Metal Lust
18. Pulkas - Rubber Room
19. Dub War - Nar Say A Ting

Exact Audio Copy V1.0 beta 1 from 15. November 2010

EAC extraction logfile from 4. March 2011, 9:07

Various / Metal - A Headbanger's Companion (CD3 - Metal/Rock)

Used drive : HP DVD Writer 1040r Adapter: 1 ID: 0

Read mode : Secure
Utilize accurate stream : Yes
Defeat audio cache : Yes
Make use of C2 pointers : No

Read offset correction : 6
Overread into Lead-In and Lead-Out : No
Fill up missing offset samples with silence : Yes
Delete leading and trailing silent blocks : No
Null samples used in CRC calculations : No
Used interface : Native Win32 interface for Win NT & 2000

Used output format : User Defined Encoder
Selected bitrate : 1024 kBit/s
Quality : High
Add ID3 tag : No
Command line compressor : C:\Program Files\Exact Audio Copy\FLAC\FLAC.EXE
Additional command line options : -6 -V -T "ARTIST=%a" -T "TITLE=%t" -T "ALBUM=%g" -T "DATE=%y" -T "TRACKNUMBER=%n" -T "GENRE=%m" -T "COMMENT=%e" %j–picture="%i"%j %s -o %d


TOC of the extracted CD

Track | Start | Length | Start sector | End sector
––––––––––––––––––––––––––––-
1 | 0:00.00 | 3:42.64 | 0 | 16713
2 | 3:42.64 | 4:12.32 | 16714 | 35645
3 | 7:55.21 | 5:37.12 | 35646 | 60932
4 | 13:32.33 | 4:27.57 | 60933 | 81014
5 | 18:00.15 | 3:47.43 | 81015 | 98082
6 | 21:47.58 | 3:41.74 | 98083 | 114731
7 | 25:29.57 | 2:51.59 | 114732 | 127615
8 | 28:21.41 | 3:10.05 | 127616 | 141870
9 | 31:31.46 | 3:48.12 | 141871 | 158982
10 | 35:19.58 | 4:21.24 | 158983 | 178581
11 | 39:41.07 | 4:40.13 | 178582 | 199594
12 | 44:21.20 | 2:50.62 | 199595 | 212406
13 | 47:12.07 | 3:08.13 | 212407 | 226519
14 | 50:20.20 | 4:20.50 | 226520 | 246069
15 | 54:40.70 | 5:42.29 | 246070 | 271748
16 | 60:23.24 | 4:51.22 | 271749 | 293595
17 | 65:14.46 | 5:29.30 | 293596 | 318300
18 | 70:44.01 | 3:36.52 | 318301 | 334552
19 | 74:20.53 | 3:57.09 | 334553 | 352336


Range status and errors

Selected range

Filename C:\Users\Mike3\Desktop\To Do\Metal ~ A Headbanger's Companion\Disc 3 - Metal-Rock\Various - Metal - A Headbanger's Companion (CD3 - Metal,Rock).wav

Peak level 100.0 %
Extraction speed 0.1 X
Range quality 100.0 %
Test CRC 4D042C4B
Copy CRC 4D042C4B
Copy OK

No errors occurred


AccurateRip summary

Track 1 accurately ripped (confidence 1) [F93EB8DA]
Track 2 accurately ripped (confidence 1) [5EE8B800]
Track 3 accurately ripped (confidence 1) [E8D9A723]
Track 4 accurately ripped (confidence 1) [7B19CCAA]
Track 5 accurately ripped (confidence 1) [A48C3854]
Track 6 accurately ripped (confidence 1) [63C955CC]
Track 7 accurately ripped (confidence 1) [0F832000]
Track 8 accurately ripped (confidence 1) [1977970F]
Track 9 accurately ripped (confidence 1) [115154F4]
Track 10 accurately ripped (confidence 1) [FCFB7B7F]
Track 11 accurately ripped (confidence 1) [B6BA13B4]
Track 12 accurately ripped (confidence 1) [B7181613]
Track 13 accurately ripped (confidence 1) [9B1E835C]
Track 14 accurately ripped (confidence 1) [4BCFC12D]
Track 15 accurately ripped (confidence 1) [3FE249AB]
Track 16 accurately ripped (confidence 1) [3C5E8296]
Track 17 accurately ripped (confidence 1) [F93452D5]
Track 18 accurately ripped (confidence 1) [7D5F53AE]
Track 19 accurately ripped (confidence 1) [6B7C30BD]

All tracks accurately ripped

End of status report

==== Log checksum 9C666E02C60A793E6E58051C1287E039A2726A5C465736AFC0DC353A05EFF0B2 ====


VA - Metal: A Headbanger's Companion (6CDs) (2007) [Lossless]


Disc 4: Industrial

1. Godflesh - Defiled
2. Mortiis - Parasite God
3. Pitch Shifter - triad
4. Society 1 - Everyone Dies (Rock Stars Don't Count)
5. Ultraviolence - Hardcore Motherf**ker
6. Generated X-ed - Industrial Is Dead
7. Scorn - Silver Rain Fell
8. Signs Ov Chaos - Believe
9. Adrenalin Junkies- Holocaust Blast
10. Ewigkeit- It's Not Reality (Scott Brown Evolution Mix)
11. Morbid Angel vs The Berzerker - Day Of Suffering
12. Old - Glitch (Rob Gee Mix)
13. Misery Loves Co - My Mind Still Speaks
14. Meathook Seed - Famine Sector
15. Ultraviolence - Strangled

Exact Audio Copy V1.0 beta 1 from 15. November 2010

EAC extraction logfile from 4. March 2011, 12:25

Various / Metal - A Headbanger's Companion (CD4 - Industrial)

Used drive : HP DVD Writer 1040r Adapter: 1 ID: 0

Read mode : Secure
Utilize accurate stream : Yes
Defeat audio cache : Yes
Make use of C2 pointers : No

Read offset correction : 6
Overread into Lead-In and Lead-Out : No
Fill up missing offset samples with silence : Yes
Delete leading and trailing silent blocks : No
Null samples used in CRC calculations : No
Used interface : Native Win32 interface for Win NT & 2000

Used output format : User Defined Encoder
Selected bitrate : 1024 kBit/s
Quality : High
Add ID3 tag : No
Command line compressor : C:\Program Files\Exact Audio Copy\FLAC\FLAC.EXE
Additional command line options : -6 -V -T "ARTIST=%a" -T "TITLE=%t" -T "ALBUM=%g" -T "DATE=%y" -T "TRACKNUMBER=%n" -T "GENRE=%m" -T "COMMENT=%e" %j–picture="%i"%j %s -o %d


TOC of the extracted CD

Track | Start | Length | Start sector | End sector
––––––––––––––––––––––––––––-
1 | 0:00.00 | 5:31.19 | 0 | 24843
2 | 5:31.19 | 3:42.02 | 24844 | 41495
3 | 9:13.21 | 4:29.71 | 41496 | 61741
4 | 13:43.17 | 3:31.73 | 61742 | 77639
5 | 17:15.15 | 8:59.12 | 77640 | 118076
6 | 26:14.27 | 6:42.73 | 118077 | 148299
7 | 32:57.25 | 7:33.05 | 148300 | 182279
8 | 40:30.30 | 4:32.45 | 182280 | 202724
9 | 45:03.00 | 4:36.26 | 202725 | 223450
10 | 49:39.26 | 6:06.67 | 223451 | 250967
11 | 55:46.18 | 2:38.57 | 250968 | 262874
12 | 58:25.00 | 4:32.26 | 262875 | 283300
13 | 62:57.26 | 4:18.27 | 283301 | 302677
14 | 67:15.53 | 4:07.34 | 302678 | 321236
15 | 71:23.12 | 4:42.16 | 321237 | 342402


Range status and errors

Selected range

Filename C:\Users\Mike3\Desktop\To Do\Metal ~ A Headbanger's Companion\Disc 4 - Industrial\Various - Metal - A Headbanger's Companion (CD4 - Industrial).wav

Peak level 99.7 %
Extraction speed 0.2 X
Range quality 100.0 %
Test CRC F92299AC
Copy CRC F92299AC
Copy OK

No errors occurred


AccurateRip summary

Track 1 not present in database
Track 2 not present in database
Track 3 not present in database
Track 4 not present in database
Track 5 not present in database
Track 6 not present in database
Track 7 not present in database
Track 8 not present in database
Track 9 not present in database
Track 10 not present in database
Track 11 not present in database
Track 12 not present in database
Track 13 not present in database
Track 14 not present in database
Track 15 not present in database

None of the tracks are present in the AccurateRip database

End of status report

==== Log checksum 80FFEFB2136F75C8AB2774ADCDEDA807D6CB48697D97B2D60A0C6B862EA21C1C ====


VA - Metal: A Headbanger's Companion (6CDs) (2007) [Lossless]


Disc 5 Punk/Hardcore:

1. Municipal Waste - Unleash The Bastards
2. The Dillinger Escape Plan - I Love Secret Agents
3. Clutch - Impetus
4. Candiria - Blood
5. Coalesce - A Safe Place
6. Heresy - Nausea
7. Napalm Death - The Kill
8. Extreme Noise Terror - Murder
9. Hellbastard - Death From Above
10. Disgust - Mother Earth
11. December - Umbilical
12. Beecher - Function Function
13. Linea 77 - Touch
14. Fudge Tunnel - Hate Song
15. Iron Monkey - Supagorgonizer
16. Rabies Caste - Got It From Blake
17. Crowpath - Chased, Caught and Charged
18. Janus Stark - Enemy Lines
19. Lawnmower Deth- Do You Wanna Be A Chuffed-Core?
20. Heresy- Visions Of Fear
21. Intense Degree - Skate-Bored

Exact Audio Copy V1.0 beta 1 from 15. November 2010

EAC extraction logfile from 4. March 2011, 13:08

Various / Metal - A Headbanger's Companion (CD5 - Punk/Hardcore)

Used drive : HP DVD Writer 1040r Adapter: 1 ID: 0

Read mode : Secure
Utilize accurate stream : Yes
Defeat audio cache : Yes
Make use of C2 pointers : No

Read offset correction : 6
Overread into Lead-In and Lead-Out : No
Fill up missing offset samples with silence : Yes
Delete leading and trailing silent blocks : No
Null samples used in CRC calculations : No
Used interface : Native Win32 interface for Win NT & 2000

Used output format : User Defined Encoder
Selected bitrate : 1024 kBit/s
Quality : High
Add ID3 tag : No
Command line compressor : C:\Program Files\Exact Audio Copy\FLAC\FLAC.EXE
Additional command line options : -6 -V -T "ARTIST=%a" -T "TITLE=%t" -T "ALBUM=%g" -T "DATE=%y" -T "TRACKNUMBER=%n" -T "GENRE=%m" -T "COMMENT=%e" %j–picture="%i"%j %s -o %d


TOC of the extracted CD

Track | Start | Length | Start sector | End sector
––––––––––––––––––––––––––––-
1 | 0:00.00 | 1:59.19 | 0 | 8943
2 | 1:59.19 | 2:11.73 | 8944 | 18841
3 | 4:11.17 | 3:31.07 | 18842 | 34673
4 | 7:42.24 | 3:17.35 | 34674 | 49483
5 | 10:59.59 | 2:55.05 | 49484 | 62613
6 | 13:54.64 | 4:29.30 | 62614 | 82818
7 | 18:24.19 | 0:21.09 | 82819 | 84402
8 | 18:45.28 | 1:57.14 | 84403 | 93191
9 | 20:42.42 | 2:37.66 | 93192 | 105032
10 | 23:20.33 | 2:41.52 | 105033 | 117159
11 | 26:02.10 | 2:59.49 | 117160 | 130633
12 | 29:01.59 | 2:06.56 | 130634 | 140139
13 | 31:08.40 | 3:13.57 | 140140 | 154671
14 | 34:22.22 | 5:30.20 | 154672 | 179441
15 | 39:52.42 | 4:01.68 | 179442 | 197584
16 | 43:54.35 | 4:32.43 | 197585 | 218027
17 | 48:27.03 | 2:46.20 | 218028 | 230497
18 | 51:13.23 | 3:44.45 | 230498 | 247342
19 | 54:57.68 | 1:32.20 | 247343 | 254262
20 | 56:30.13 | 0:35.55 | 254263 | 256942
21 | 57:05.68 | 1:27.06 | 256943 | 263473


Range status and errors

Selected range

Filename C:\Users\Mike3\Desktop\To Do\Metal ~ A Headbanger's Companion\Disc 5 - Punk-Hardcore\Various - Metal - A Headbanger's Companion (CD5 - Punk,Hardcore).wav

Peak level 100.0 %
Extraction speed 0.0 X
Range quality 100.0 %
Test CRC 56CE911A
Copy CRC 56CE911A
Copy OK

No errors occurred


AccurateRip summary

Track 1 accurately ripped (confidence 1) [1C32211E]
Track 2 accurately ripped (confidence 1) [0038EE6B]
Track 3 accurately ripped (confidence 1) [74912FF4]
Track 4 accurately ripped (confidence 1) [C51EA100]
Track 5 accurately ripped (confidence 1) [91E44631]
Track 6 accurately ripped (confidence 1) [2DF58737]
Track 7 accurately ripped (confidence 1) [3D887AA4]
Track 8 accurately ripped (confidence 1) [F3AD9F66]
Track 9 accurately ripped (confidence 1) [B0881D78]
Track 10 accurately ripped (confidence 1) [B2816722]
Track 11 accurately ripped (confidence 1) [970D0936]
Track 12 accurately ripped (confidence 1) [534784CD]
Track 13 accurately ripped (confidence 1) [7A25683B]
Track 14 accurately ripped (confidence 1) [14F65BD3]
Track 15 accurately ripped (confidence 1) [8AA10E1E]
Track 16 accurately ripped (confidence 1) [24903A3B]
Track 17 accurately ripped (confidence 1) [41FD5814]
Track 18 accurately ripped (confidence 1) [29A00BDF]
Track 19 accurately ripped (confidence 1) [852BC6E2]
Track 20 accurately ripped (confidence 1) [F8C77891]
Track 21 accurately ripped (confidence 1) [C0F5AF3E]

All tracks accurately ripped

End of status report

==== Log checksum 9FB0298E205E719675511A1F8BC1488357DB2A93EB4461F4A2419824962C91C5 ====


VA - Metal: A Headbanger's Companion (6CDs) (2007) [Lossless]


Disc 6: Leftfield

1. Cult Of Luna - Finland
2. Callisto - Blackhole
3. Ewigkeit - It's Not Reality
4. Ephel Duath- Crystalline Whirl
5. Scorn - Days Passed
6. Painkiller - Dr Phibes
7. O.L.D. - Break (you)
8. Godflesh - Tiny Tears
9. Carnival In Coal - Right Click - Save As
10. Blood From The Soul - Guinea Pig
11. Akercocke - Prince Of The North
12. Mortiis - I Am The World
13. Spazztic Blurr - Mexicali
14. Crotchduster - Mammal Sauce

Exact Audio Copy V1.0 beta 1 from 15. November 2010

EAC extraction logfile from 4. March 2011, 14:07

Various / Metal - A Headbanger's Companion (CD6 - Leftfield)

Used drive : HP DVD Writer 1040r Adapter: 1 ID: 0

Read mode : Secure
Utilize accurate stream : Yes
Defeat audio cache : Yes
Make use of C2 pointers : No

Read offset correction : 6
Overread into Lead-In and Lead-Out : No
Fill up missing offset samples with silence : Yes
Delete leading and trailing silent blocks : No
Null samples used in CRC calculations : No
Used interface : Native Win32 interface for Win NT & 2000

Used output format : User Defined Encoder
Selected bitrate : 1024 kBit/s
Quality : High
Add ID3 tag : No
Command line compressor : C:\Program Files\Exact Audio Copy\FLAC\FLAC.EXE
Additional command line options : -6 -V -T "ARTIST=%a" -T "TITLE=%t" -T "ALBUM=%g" -T "DATE=%y" -T "TRACKNUMBER=%n" -T "GENRE=%m" -T "COMMENT=%e" %j–picture="%i"%j %s -o %d


TOC of the extracted CD

Track | Start | Length | Start sector | End sector
––––––––––––––––––––––––––––-
1 | 0:00.00 | 10:49.26 | 0 | 48700
2 | 10:49.26 | 4:49.34 | 48701 | 70409
3 | 15:38.60 | 4:05.60 | 70410 | 88844
4 | 19:44.45 | 4:51.39 | 88845 | 110708
5 | 24:36.09 | 4:30.54 | 110709 | 131012
6 | 29:06.63 | 3:07.34 | 131013 | 145071
7 | 32:14.22 | 5:59.07 | 145072 | 172003
8 | 38:13.29 | 3:23.72 | 172004 | 187300
9 | 41:37.26 | 2:26.52 | 187301 | 198302
10 | 44:04.03 | 2:54.00 | 198303 | 211352
11 | 46:58.03 | 2:06.00 | 211353 | 220802
12 | 49:04.03 | 6:17.56 | 220803 | 249133
13 | 55:21.59 | 6:56.28 | 249134 | 280361
14 | 62:18.12 | 7:25.35 | 280362 | 313771


Range status and errors

Selected range

Filename C:\Users\Mike3\Desktop\To Do\Metal ~ A Headbanger's Companion\Disc 6 - Leftfield\Various - Metal - A Headbanger's Companion (CD6 - Leftfield).wav

Peak level 99.3 %
Extraction speed 0.3 X
Range quality 100.0 %
Test CRC E73F18DF
Copy CRC E73F18DF
Copy OK

No errors occurred


AccurateRip summary

Track 1 accurately ripped (confidence 1) [8282E6AE]
Track 2 accurately ripped (confidence 1) [0D81F5EB]
Track 3 accurately ripped (confidence 1) [4014BA6D]
Track 4 accurately ripped (confidence 1) [662128B1]
Track 5 accurately ripped (confidence 1) [D0149343]
Track 6 accurately ripped (confidence 1) [EDA55AAA]
Track 7 accurately ripped (confidence 1) [CCE30975]
Track 8 accurately ripped (confidence 1) [EB03806E]
Track 9 accurately ripped (confidence 1) [FF0335F4]
Track 10 accurately ripped (confidence 1) [5EC2625E]
Track 11 accurately ripped (confidence 1) [79AC0EFD]
Track 12 accurately ripped (confidence 1) [029AAD5A]
Track 13 accurately ripped (confidence 1) [66ED4651]
Track 14 accurately ripped (confidence 1) [CEB2C6B2]

All tracks accurately ripped

End of status report

==== Log checksum 138C6FA74F8A3617B8ABB7C71619E2CDDC870C9B32E8E4D82CB9E96A02F83421 ====


Download interchangeable files:

Filesonic1 FSo2 FSo3 FSo4

Fileserve1 FSe2 FSe3 FSe4

FileFactory1 FF2 FF3 FF4

No mirrors