Subcategories

Metallica - Lollapalooza Brazil (2017) [HDTV, 1080i]

Posted By: v3122
Metallica - Lollapalooza Brazil (2017) [HDTV, 1080i]

Metallica - Lollapalooza Brazil (2017)
TS: MPEG4 Video 1920x1080, 29.97fps, 11.9 Mb/s | Dolby AC3, 6ch 384kbps
Thrash Metal | 02:17:30 | ~ 13.05 Gb

~ Metallica Live at Autódromo de Interlagos, São Paulo, Brazil on March 25, 2017 ~

Metallica - Lollapalooza Brazil (2017):

Tracklist:

Hardwired
Atlas, Rise!
For Whom the Bell Tolls
The Memory Remains (followed by Kirk's solo, incl.… more )
The Unforgiven
Now That We're Dead
Moth Into Flame
Harvester of Sorrow
Halo on Fire (followed by Rob's solo incl. '… more )
Whiplash
Sad but True
One
Master of Puppets (followed by Kirk's solo, incl. "Leper Messiah")
Fade to Black
Seek & Destroy
Battery
Nothing Else Matters
Enter Sandman

General
ID : 1 (0x1)
Complete name : G:\UP\Mix\Metallica - Lollapalooza Brazil 2017\Metallica - Lollapalooza Brazil 2017.ts
Format : MPEG-TS
File size : 12.4 GiB
Duration : 2h 17mn
Overall bit rate mode : Variable
Overall bit rate : 12.9 Mbps

Video
ID : 1328 (0x530)
Menu ID : 1336 (0x538)
Format : AVC
Format/Info : Advanced Video Codec
Format profile : High@L4.0
Format settings, CABAC : Yes
Format settings, ReFrames : 4 frames
Codec ID : 27
Duration : 2h 17mn
Bit rate : 11.9 Mbps
Width : 1 920 pixels
Height : 1 080 pixels
Display aspect ratio : 16:9
Frame rate : 29.970 fps
Color space : YUV
Chroma subsampling : 4:2:0
Bit depth : 8 bits
Scan type : MBAFF
Bits/(Pixel*Frame) : 0.191
Stream size : 11.4 GiB (92%)

Audio
ID : 1329 (0x531)
Menu ID : 1336 (0x538)
Format : AC-3
Format/Info : Audio Coding 3
Mode extension : CM (complete main)
Format settings, Endianness : Big
Codec ID : 129
Duration : 2h 17mn
Bit rate mode : Constant
Bit rate : 384 Kbps
Channel(s) : 6 channels
Channel positions : Front: L C R, Side: L R, LFE
Sampling rate : 48.0 KHz
Bit depth : 16 bits
Compression mode : Lossy
Delay relative to video : -67ms
Stream size : 378 MiB (3%)
Language : English


Metallica - Lollapalooza Brazil (2017) [HDTV, 1080i]

Metallica - Lollapalooza Brazil (2017) [HDTV, 1080i]

Metallica - Lollapalooza Brazil (2017) [HDTV, 1080i]

Metallica - Lollapalooza Brazil (2017) [HDTV, 1080i]

All thanks go to meloman67

Metallica in my Blog

Download Metallica - Lollapalooza Brazil (2017):