Metallica -The Garage Remains The Same (2000, Live)

Posted By: apocalipsys2014
Metallica -The Garage Remains The Same (2000, Live)

Metallica -The Garage Remains The Same (2000, Live)
Year & Label: 2000, USA Metallica Club | CD#: MCP 001
Flac (image) | MP3 CBR 320 Kbps | Artwork (JPG, 300 dpi) | File-hosts: FileSonic & FileJungle
Thrash Metal | FLAC: 350 MB | Artwork: 5 MB | MP3: 100 MB | 5% WinRAR Recovery

EAC Secure-rip with LOG+CUE+COVERS | Source: torrents
Rare CD, platinum levels of Metallica Club membership only.

This CD was issued in a cardboard sleeve and given exclusive to platinum members of the fanclub with the FanCan 4. There used to be 4 levels of membership (new - silver - gold -platinum). The cover is a remake of Led Zeppelin's LP-cover "The song remains the same" and the picture shows James working on the car with his pants half-down. The artwork on the back and on the CD is also done by James.

The songs were recorded live during the "Garage remains the same" tour in Santiago, Chile at the Pista Atletica Del Estadio Nacional on May 12, 1999.
Metallica Official Homepage
Metallica at Wikipedia
Metallica at MySpace

Musicians:

Vocals, Guitar: James Hetfield
Guitar : Kirk Hammett
Bass : Jason Newsted
Drums : Lars Ulrich

Track List:

01. Breadfan [4:09]
02. Master Of Puppets [8:57]
03. Fuel [5:27]
04. Bleeding Me [8:58]
05. King Nothing [7:30]
06. Fight Fire with Fire [5:54]

Exact Audio Copy V0.99 prebeta 5 from 4. May 2009

EAC extraction logfile from 28. October 2011, 10:15

Metallica / The Garage Remains The Same (MCP 001)

Used drive : PIONEER DVD-RW DVR-215 Adapter: 5 ID: 0

Read mode : Secure
Utilize accurate stream : Yes
Defeat audio cache : Yes
Make use of C2 pointers : No

Read offset correction : 48
Overread into Lead-In and Lead-Out : No
Fill up missing offset samples with silence : Yes
Delete leading and trailing silent blocks : No
Null samples used in CRC calculations : Yes
Used interface : Native Win32 interface for Win NT & 2000

Used output format : User Defined Encoder
Selected bitrate : 1024 kBit/s
Quality : High
Add ID3 tag : No
Command line compressor : C:\Program Files (x86)\Exact Audio Copy\Flac\flac.exe
Additional command line options : -8 -V %s


TOC of the extracted CD

Track | Start | Length | Start sector | End sector
––––––––––––––––––––––––––––-
1 | 0:00.32 | 4:08.60 | 32 | 18691
2 | 4:09.17 | 8:57.10 | 18692 | 58976
3 | 13:06.27 | 5:27.03 | 58977 | 83504
4 | 18:33.30 | 8:57.72 | 83505 | 123851
5 | 27:31.27 | 7:30.28 | 123852 | 157629
6 | 35:01.55 | 5:54.17 | 157630 | 184196


Range status and errors

Selected range

Filename D:\bki71\Metallica\Metallica - The Garage Remains The Same (MCP 001).wav

Peak level 100.0 %
Range quality 99.9 %
Test CRC C3AD539C
Copy CRC C3AD539C
Copy OK

No errors occurred


AccurateRip summary

Track 1 accurately ripped (confidence 1) [63C262CA]
Track 2 accurately ripped (confidence 1) [468099E4]
Track 3 accurately ripped (confidence 1) [17151ED2]
Track 4 accurately ripped (confidence 1) [7DE84B11]
Track 5 accurately ripped (confidence 1) [C91DF13B]
Track 6 accurately ripped (confidence 1) [84FD606D]

All tracks accurately ripped

End of status report

Not my rip, not my scan-job. Thx very much to the original uploader bki71!
5% WinRar Recovery Record for all files.
Try before you might buy. Support the artists you like and buy their stuff whenever you can afford it.
FLAC, image + artwork at FileSonic.com
Part 1 + Part 2 + Mp3 320 kbps

FLAC, image + artwork at FileJungle.com
Part 1 + Part 2 + Mp3 320 kbps