Subcategories
Tags
Language
Tags

Michael Bolton - My Secret Passion: The Arias (1998)

Posted By: popsakov
Michael Bolton - My Secret Passion: The Arias (1998)

Michael Bolton - My Secret Passion: The Arias (1998)
EAC Rip | FLAC (Img) + Cue + Log ~ 215 Mb | MP3 CBR320 ~ 98 Mb
Full Scans ~ 254 Mb | 00:40:39 | RAR 5% Recovery
Classical, Opera | Sony Classical #SK 63077

By the evidence of My Secret Passion, Michael Bolton's secret passion is opera. For several years, he had included arias in his concerts, but he had never recorded them until My Secret Passion. Bolton's bombastic style is relatively well-suited to arias, since he certainly can project his voice quite powerfully. He doesn't have the subtlety to deliver this repertoire completely convincingly, but the Philharmonia Orchestra, under the direction of Steven Mercurio, helps camouflage his weaknesses, as does the guest appearance of soprano Renee Fleming. In other words, My Secret Passion isn't the disaster that Bolton's detractors were expecting, but it isn't a triumph, either. Instead, it's a welcome change of pace from a singer who has become a touch too predictable.

~ Stephen Thomas Erlewine, All Music

***************

Track List:

01. Pourquoi Me Reveiller? (from Werther by Jules Massenet) [2:58]
02. Nessun Dorma! (from Turandot by Giacomo Puccini) [3:14]
03. Una Furtiva Lagrima (from L'elisir d'amore by Gaetano Donizetti) [4:52]
04. M'appari (from Martha by Friedrich von Flotow) [3:08]
05. Che Gelida Manina (from La Boheme by Giacomo Puccini) [4:49]
06. O Soave Fanciulla (from La Boheme by Giacomo Puccini) (Duet With Renee Fleming) [4:26]
07. Vesti La Giubba (from Pagliacci by Ruggero Leoncavallo) [3:14]
08. E Lucevan Le Stelle (from Tosca by Giacomo Puccini) [3:17]
09. Recondita Armonia (from Tosca by Giacomo Puccini) [2:25]
10. E La Solita Storia (from L'arlesiana by Francesco Cilea) [4:43]
11. Celeste Aida (from Aida by Giuseppe Verdi) [3:38]

Exact Audio Copy V1.1 from 23. June 2015

EAC extraction logfile from 11. January 2016, 0:13

Michael Bolton / My Secret Passion. The Arias

Used drive : ATAPI iHAS124 D Adapter: 0 ID: 2

Read mode : Secure
Utilize accurate stream : Yes
Defeat audio cache : Yes
Make use of C2 pointers : No

Read offset correction : 6
Overread into Lead-In and Lead-Out : No
Fill up missing offset samples with silence : Yes
Delete leading and trailing silent blocks : No
Null samples used in CRC calculations : Yes
Used interface : Installed external ASPI interface

Used output format : User Defined Encoder
Selected bitrate : 1024 kBit/s
Quality : High
Add ID3 tag : Yes
Command line compressor : C:\Program Files (x86)\Exact Audio Copy\Flac\flac.exe
Additional command line options : -6 -V -T "ARTIST=%artist%" -T "TITLE=%title%" -T "ALBUM=%albumtitle%" -T "DATE=%year%" -T "TRACKNUMBER=%tracknr%" -T "GENRE=%genre%" -T "COMMENT=%comment%" -T "BAND=%albuminterpret%" -T "COMPOSER=%composer%" %haslyrics%–tag-from-file=LYRICS="%lyricsfile%"%haslyrics% -T "DISCNUMBER=%cdnumber%" -T "TOTALDISCS=%totalcds%" -T "TOTALTRACKS=%numtracks%" %hascover%–picture="%coverfile%"%hascover% %source% -o %dest%


TOC of the extracted CD

Track | Start | Length | Start sector | End sector
––––––––––––––––––––––––––––-
1 | 0:00.00 | 2:57.22 | 0 | 13296
2 | 2:57.22 | 3:13.38 | 13297 | 27809
3 | 6:10.60 | 4:51.45 | 27810 | 49679
4 | 11:02.30 | 3:07.60 | 49680 | 63764
5 | 14:10.15 | 4:48.57 | 63765 | 85421
6 | 18:58.72 | 4:25.40 | 85422 | 105336
7 | 23:24.37 | 3:13.70 | 105337 | 119881
8 | 26:38.32 | 3:17.00 | 119882 | 134656
9 | 29:55.32 | 2:24.33 | 134657 | 145489
10 | 32:19.65 | 4:42.35 | 145490 | 166674
11 | 37:02.25 | 3:37.45 | 166675 | 182994


Range status and errors

Selected range

Filename C:\mm\Michael Bolton\1998 - My Secret Passion. The Arias [SK 63077]\Michael Bolton - My Secret Passion. The Arias.wav

Peak level 99.9 %
Extraction speed 9.0 X
Range quality 100.0 %
Test CRC 5F32BECB
Copy CRC 5F32BECB
Copy OK

No errors occurred


AccurateRip summary

Track 1 accurately ripped (confidence 12) [343174FA] (AR v2)
Track 2 accurately ripped (confidence 12) [A9483089] (AR v2)
Track 3 accurately ripped (confidence 12) [6DABB204] (AR v2)
Track 4 accurately ripped (confidence 12) [78D548D9] (AR v2)
Track 5 accurately ripped (confidence 12) [EC729EDE] (AR v2)
Track 6 accurately ripped (confidence 12) [E03F9459] (AR v2)
Track 7 accurately ripped (confidence 12) [19B382E8] (AR v2)
Track 8 accurately ripped (confidence 12) [56942160] (AR v2)
Track 9 accurately ripped (confidence 12) [9DA223C8] (AR v2)
Track 10 accurately ripped (confidence 12) [9BA97B87] (AR v2)
Track 11 accurately ripped (confidence 11) [57F9A5F4] (AR v2)

All tracks accurately ripped

End of status report

[CUETools log; Date: 05.05.2021 2:40:50; Version: 2.1.6]
[CTDB TOCID: B0eZW9Sc6Pr2rc2kYakgWn91hRk-] found.
Track | CTDB Status
1 | (146/149) Accurately ripped, or (2/149) differs in 4 samples @02:52:41,02:52:48-02:52:52
2 | (146/149) Accurately ripped, or (2/149) differs in 3 samples @00:00:39,00:00:57,02:52:29
3 | (145/149) Accurately ripped, or (2/149) differs in 2 samples @00:00:44,04:46:02
4 | (146/149) Accurately ripped, or (2/149) differs in 1 samples @03:02:49
5 | (146/149) Accurately ripped, or (2/149) differs in 14 samples @02:44:09,03:05:59,04:42:10-04:42:15,04:42:22,04:42:31,04:42:47,04:42:57,04:43:03,04:43:27,04:43:72,04:44:50,04:44:57
6 | (145/149) Accurately ripped, or (2/149) differs in 3 samples @00:00:36,04:20:49,04:21:57
7 | (143/149) Accurately ripped, or (2/149) differs in 1 samples @03:08:28
8 | (144/149) Accurately ripped, or (2/149) differs in 2 samples @03:14:04,03:14:21
9 | (146/149) Accurately ripped
10 | (143/149) Accurately ripped, or (2/149) differs in 365 samples @00:01:11,00:01:45,01:48:03-01:48:19,04:37:47-04:37:50,04:37:56-04:37:60,04:37:72-04:38:01,04:38:08,04:38:21-04:38:24
11 | (148/149) Accurately ripped
[AccurateRip ID: 0010b562-00917517-8709870b] found.
Track [ CRC | V2 ] Status
01 [a5ac3872|343174fa] (018+017/106) Accurately ripped
02 [c2677673|a9483089] (018+017/106) Accurately ripped
03 [dde70fe5|6dabb204] (018+017/106) Accurately ripped
04 [d53c2eee|78d548d9] (018+017/106) Accurately ripped
05 [7eadc8e3|ec729ede] (018+017/106) Accurately ripped
06 [a4926ff3|e03f9459] (018+017/106) Accurately ripped
07 [5c920121|19b382e8] (018+017/106) Accurately ripped
08 [d23abce4|56942160] (018+017/106) Accurately ripped
09 [719bbe4c|9da223c8] (018+017/106) Accurately ripped
10 [f1f91230|9ba97b87] (018+017/106) Accurately ripped
11 [20b699fd|57f9a5f4] (018+016/105) Accurately ripped
Offsetted by -48:
01 [a09d7302] (005/106) Accurately ripped
02 [0df7aae3] (005/106) Accurately ripped
03 [df637725] (005/106) Accurately ripped
04 [f620ae2e] (005/106) Accurately ripped
05 [8ffdf463] (005/106) Accurately ripped
06 [514acb83] (005/106) Accurately ripped
07 [0fc25181] (005/106) Accurately ripped
08 [4cf074b4] (005/106) Accurately ripped
09 [5626b6ac] (005/106) Accurately ripped
10 [bb3b6150] (005/106) Accurately ripped
11 [547b40bd] (005/105) Accurately ripped
Offsetted by 391:
01 [e989e0bd] (019/106) Accurately ripped
02 [d58b75f8] (019/106) Accurately ripped
03 [f721b181] (019/106) Accurately ripped
04 [1ea18d0a] (019/106) Accurately ripped
05 [36fb668b] (019/106) Accurately ripped
06 [959f5b6e] (019/106) Accurately ripped
07 [5e431d13] (019/106) Accurately ripped
08 [3ffd28eb] (019/106) Accurately ripped
09 [069a61be] (019/106) Accurately ripped
10 [6a8ceda6] (019/106) Accurately ripped
11 [a5af6101] (019/105) Accurately ripped
Offsetted by -664:
01 [350a8d3a] (000/106) No match (V2 was not tested)
02 [ad07a12b] (000/106) No match (V2 was not tested)
03 [1d1ff985] (000/106) No match (V2 was not tested)
04 [46ea648e] (000/106) No match (V2 was not tested)
05 [98d822a3] (000/106) No match (V2 was not tested)
06 [79de0d3b] (000/106) No match (V2 was not tested)
07 [b603ae51] (000/106) No match (V2 was not tested)
08 [1e61d64c] (000/106) No match (V2 was not tested)
09 [a0737f7c] (000/106) No match (V2 was not tested)
10 [d20e58c0] (000/106) No match (V2 was not tested)
11 [422c475d] (000/105) No match (V2 was not tested)

Track Peak [ CRC32 ] [W/O NULL] [ LOG ]
– 99,9 [5F32BECB] [C4B5A572] CRC32
01 98,8 [6AECB930] [E6F8C6F0]
02 96,7 [46320FDE] [6FAB3F73]
03 94,4 [63635687] [8C4B5419]
04 98,8 [DAB38F89] [A0B518AA]
05 99,9 [227F07BB] [48041D61]
06 98,4 [8B98DD4A] [87C23866]
07 89,6 [AAAF5364] [19F359DE]
08 97,3 [0B482FF8] [98BF7AEE]
09 96,0 [C2E397A6] [51004051]
10 98,8 [07CEDB64] [340160B7]
11 94,3 [0931153C] [BFE5A401]

Michael Bolton - My Secret Passion: The Arias (1998)


All thanks go to sergych

>>> Michael Bolton in my Blog <<<

DOWNLOAD: