Tags
Language
Tags

Michael Bolton - Soul Provider (1989)

Posted By: popsakov
Michael Bolton - Soul Provider (1989)

Michael Bolton - Soul Provider (1989)
EAC Rip | FLAC (Img) + Cue + Log ~ 309 Mb | MP3 CBR320 ~ 130 Mb
Full Scans | 00:43:16 | RAR 5% Recovery
Pop Rock, Soft Rock, Adult Contemporary | CBS Records #465343 2

Michael Bolton is no fool, and when he broke through to platinum sales with The Hunger, nobody had to tell him to record a follow-up devoted to more of the same. Bolton produced most of the record himself, and he teamed with the cream of the era's romantic rock ballad writers, people like Diane Warren (who gets five co-credits here) and Desmond Child, while the R&B copy this time was Ray Charles' version of "Georgia on My Mind." He also reclaimed "How Am I Supposed to Live Without You" from Laura Branigan. The result was five Top 40 hits and millions of albums sold. Maybe Bolton wasn't the king of the hockey rinks, but his voice was now stoking the romantic fires in bedrooms across America, which is nice work if you can get it.

~ William Ruhlmann, All Music

***************

Michael Bolton - Soul Provider (1989)

Michael Bolton - Soul Provider (1989)

Track List:

01. Soul Provider [0:04:28.10]
02. Georgia On My Mind [0:04:58.60]
03. It's Only My Heart [0:04:33.52]
04. How Am I Supposed To Live Without You [0:04:49.50]
05. How Can We Be Lovers [0:03:56.55]
06. You Wouldn't Know Love [0:03:55.15]
07. When I'm Back On My Feet Again [0:03:49.40]
08. From Now On (Duet With Suzie Benson) [0:04:09.03]
09. Love Cuts Deep [0:03:51.07]
10. Stand Up For Love [0:04:44.35]

Exact Audio Copy V1.3 from 2. September 2016

EAC extraction logfile from 26. June 2017, 21:54

Michael Bolton / Soul Provider

Used drive : PLEXTOR DVDR PX-716A Adapter: 1 ID: 0

Read mode : Secure
Utilize accurate stream : Yes
Defeat audio cache : Yes
Make use of C2 pointers : No

Read offset correction : 30
Overread into Lead-In and Lead-Out : No
Fill up missing offset samples with silence : Yes
Delete leading and trailing silent blocks : No
Null samples used in CRC calculations : Yes
Used interface : Installed external ASPI interface

Used output format : User Defined Encoder
Selected bitrate : 1024 kBit/s
Quality : High
Add ID3 tag : No
Command line compressor : C:\Program Files (x86)\Exact Audio Copy\Flac\flac.exe
Additional command line options : -6 -V -T "ARTIST=%artist%" -T "TITLE=%title%" -T "ALBUM=%albumtitle%" -T "DATE=%year%" -T "TRACKNUMBER=%tracknr%" -T "GENRE=%genre%" -T "COMMENT=%comment%" -T "BAND=%albuminterpret%" -T "ALBUMARTIST=%albuminterpret%" -T "COMPOSER=%composer%" %haslyrics%–tag-from-file=LYRICS="%lyricsfile%"%haslyrics% -T "DISCNUMBER=%cdnumber%" -T "TOTALDISCS=%totalcds%" -T "TOTALTRACKS=%numtracks%" %hascover%–picture="%coverfile%"%hascover% %source% -o %dest%


TOC of the extracted CD

Track | Start | Length | Start sector | End sector
––––––––––––––––––––––––––––-
1 | 0:00.00 | 4:28.10 | 0 | 20109
2 | 4:28.10 | 4:58.60 | 20110 | 42519
3 | 9:26.70 | 4:33.52 | 42520 | 63046
4 | 14:00.47 | 4:49.50 | 63047 | 84771
5 | 18:50.22 | 3:56.55 | 84772 | 102526
6 | 22:47.02 | 3:55.15 | 102527 | 120166
7 | 26:42.17 | 3:49.40 | 120167 | 137381
8 | 30:31.57 | 4:09.03 | 137382 | 156059
9 | 34:40.60 | 3:51.07 | 156060 | 173391
10 | 38:31.67 | 4:44.35 | 173392 | 194726


Range status and errors

Selected range

Filename C:\mm\Michael Bolton\1989 - Soul Provider [CBS 465343 2]\Michael Bolton - Soul Provider.wav

Peak level 97.5 %
Extraction speed 12.0 X
Range quality 100.0 %
Test CRC 5D726941
Copy CRC 5D726941
Copy OK

No errors occurred


AccurateRip summary

Track 1 accurately ripped (confidence 44) [3228536C] (AR v2)
Track 2 accurately ripped (confidence 45) [BD33C5EA] (AR v2)
Track 3 accurately ripped (confidence 44) [5A09FB52] (AR v2)
Track 4 accurately ripped (confidence 45) [F18242D9] (AR v2)
Track 5 accurately ripped (confidence 46) [19FCC05D] (AR v2)
Track 6 accurately ripped (confidence 46) [0F7E2446] (AR v2)
Track 7 accurately ripped (confidence 46) [A81D9C2B] (AR v2)
Track 8 accurately ripped (confidence 45) [235D9F05] (AR v2)
Track 9 accurately ripped (confidence 46) [9D30FE06] (AR v2)
Track 10 accurately ripped (confidence 45) [F6C476C1] (AR v2)

All tracks accurately ripped

End of status report

–– CUETools DB Plugin V2.1.6

[CTDB TOCID: TxkTK6cX5R7kba.myuEd7Bpzbyw-] found
Submit result: TxkTK6cX5R7kba.myuEd7Bpzbyw- has been confirmed
Track | CTDB Status
1 | (80/82) Accurately ripped
2 | (81/82) Accurately ripped
3 | (81/82) Accurately ripped
4 | (81/82) Accurately ripped
5 | (81/82) Accurately ripped
6 | (80/82) Accurately ripped
7 | (80/82) Accurately ripped
8 | (81/82) Accurately ripped
9 | (81/82) Accurately ripped
10 | (80/82) Accurately ripped

foobar2000 1.2.6 / Dynamic Range Meter 1.1.1
log date: 2017-06-27 21:35:26

––––––––––––––––––––––––––––––––––––––––
Analyzed: Michael Bolton / Soul Provider
––––––––––––––––––––––––––––––––––––––––

DR Peak RMS Duration Track
––––––––––––––––––––––––––––––––––––––––
DR13 -0.22 dB -15.32 dB 4:28 01-Soul Provider
DR11 -1.18 dB -16.13 dB 4:59 02-Georgia On My Mind
DR13 -0.40 dB -15.63 dB 4:34 03-It's Only My Heart
DR14 -0.40 dB -17.23 dB 4:50 04-How Am I Supposed To Live Without You
DR10 -0.92 dB -14.22 dB 3:57 05-How Can We Be Lovers
DR12 -0.40 dB -14.10 dB 3:55 06-You Wouldn't Know Love
DR12 -0.51 dB -17.02 dB 3:50 07-When I'm Back On My Feet Again
DR13 -0.40 dB -17.19 dB 4:09 08-From Now On (Duet With Suzie Benson)
DR13 -1.22 dB -16.20 dB 3:51 09-Love Cuts Deep
DR14 -0.65 dB -18.91 dB 4:44 10-Stand Up For Love
––––––––––––––––––––––––––––––––––––––––

Number of tracks: 10
Official DR value: DR12

Samplerate: 44100 Hz
Channels: 2
Bits per sample: 16
Bitrate: 871 kbps
Codec: FLAC
================================================================================

[CUETools log; Date: 27.06.2017 21:35:46; Version: 2.1.5]
[CTDB TOCID: TxkTK6cX5R7kba.myuEd7Bpzbyw-] found.
Track | CTDB Status
1 | (82/84) Accurately ripped
2 | (83/84) Accurately ripped
3 | (83/84) Accurately ripped
4 | (83/84) Accurately ripped
5 | (83/84) Accurately ripped
6 | (82/84) Accurately ripped
7 | (82/84) Accurately ripped
8 | (83/84) Accurately ripped
9 | (83/84) Accurately ripped
10 | (82/84) Accurately ripped
[AccurateRip ID: 0010b430-008470f9-750a240a] found.
Track [ CRC | V2 ] Status
01 [6d8e9afc|3228536c] (055+044/099) Accurately ripped
02 [61f5c7ad|bd33c5ea] (054+045/099) Accurately ripped
03 [06f18231|5a09fb52] (055+044/099) Accurately ripped
04 [c3f0ed69|f18242d9] (054+045/099) Accurately ripped
05 [7b47f881|19fcc05d] (054+046/100) Accurately ripped
06 [b4b8fe75|0f7e2446] (054+046/100) Accurately ripped
07 [2235983d|a81d9c2b] (054+046/100) Accurately ripped
08 [dc7b40af|235d9f05] (053+045/098) Accurately ripped
09 [98014f68|9d30fe06] (054+046/100) Accurately ripped
10 [223cd164|f6c476c1] (052+045/097) Accurately ripped

Track Peak [ CRC32 ] [W/O NULL] [ LOG ]
– 97,5 [5D726941] [5EB02917] CRC32
01 97,5 [943687A3] [EC52EB5E]
02 87,3 [12742607] [2C492B4E]
03 95,5 [41EF754A] [D5BFF7D6]
04 95,5 [CFCA5E87] [B60BAC7C]
05 89,9 [82CD7090] [E2F0E7FE]
06 95,5 [9AD979B0] [767FF0CF]
07 94,3 [B7E52A56] [E2C49FE0]
08 95,5 [63EB7A0E] [7A44F38A]
09 86,8 [25B490C3] [0F2CD705]
10 92,7 [2E62DB2C] [1F5F8309]

Michael Bolton - Soul Provider (1989)


All thanks go to sergych

>>> Michael Bolton in my Blog <<<

DOWNLOAD: