Subcategories

Michael Bolton - Time, Love & Tenderness (1991)

Posted By: popsakov
Michael Bolton - Time, Love & Tenderness (1991)

Michael Bolton - Time, Love & Tenderness (1991)
EAC Rip | FLAC (Img) + Cue + Log ~ 315 Mb | MP3 CBR320 ~ 107 Mb
Scans (PNG, 400 dpi) ~ 115 Mb | RAR 5% Recovery
Pop Rock, Soft Rock, Adult Contemporary | Columbia #CK 46771

Time, Love & Tenderness is the seventh studio album by American recording artist Michael Bolton. The album was released on April 23, 1991 by Columbia Records; it was produced by Walter Afanasieff and Michael Bolton. The album topped the Billboard 200 chart and produced four Top 40 singles: a cover of Percy Sledge's "When a Man Loves a Woman" reached No. 1 on the Billboard Hot 100 chart, "Love Is a Wonderful Thing" reached No. 4, "Time, Love and Tenderness" reached No. 7, and "Missing You Now" reached No. 12. All four singles reached the Top 40 in the UK as well, as did a fifth single released only in the UK, "Steel Bars". This is the only album from Bolton's "hit period" that is out of print, due to legal issues surrounding the song "Love Is a Wonderful Thing." The album has since been released on iTunes and other digital music services, with "Love Is a Wonderful Thing" available as an "album-only" download.
After reaching the top spot, the album enjoyed a steady stay on the charts, eventually selling over 8 million copies in the US. Worldwide, the album has sold approximately 16 million copies and is his best-selling album to date.
~ Wiki


Michael Bolton cloned his approach from Soul Provider on its follow-up, Time, Love & Tenderness, and sold as many records for his trouble. (That's six million copies.) His key collaborator once again was Diane Warren, who applied her goldplated gift for writing contemporary love songs to six tunes, among them the hits "Time, Love & Tenderness" and "Missing You Now" (which featured saxmeister Kenny G). The obligatory R&B carbon copy was Percy Sledge's "When a Man Loves a Woman," which hit number one. The only unusual songs came at the beginning and the end. The album led off with "Love Is a Wonderful Thing" (a Top Ten hit), a song in standard '60s R&B mode that would be the subject of a plagiarism suit from the Isley Brothers, and it concluded with "Steel Bars," co-written by Bolton and…Bob Dylan? That's what it said, and if the song wasn't one of Dylan's best, it at least indicated that Bolton might have possibilities that had so far gone unnoticed.
~ William Ruhlmann, All Music

Michael Bolton - Time, Love & Tenderness (1991)


***************

Michael Bolton - Time, Love & Tenderness (1991)

Track List:

01. Love Is A Wonderful Thing [0:04:43.40]
02. Time, Love And Tenderness [0:05:31.22]
03. Michael Bolton & Kenny G / Missing You Now [0:04:33.30]
04. Forever Isn't Long Enough [0:04:32.43]
05. Now That I Found You [0:04:32.47]
06. When A Man Loves A Woman [0:03:52.08]
07. Michael Bolton & Patti LaBelle / We're Not Makin' Love Anymore [0:04:41.25]
08. New Love [0:04:32.25]
09. Save Me [0:04:21.65]
10. Steel Bars [0:03:28.70]

Exact Audio Copy V1.1 from 23. June 2015

EAC extraction logfile from 16. June 2016, 23:06

Michael Bolton / Time, Love & Tenderness

Used drive : HL-DT-STDVDRAM GH24NSC0 Adapter: 1 ID: 0

Read mode : Secure
Utilize accurate stream : Yes
Defeat audio cache : Yes
Make use of C2 pointers : No

Read offset correction : 6
Overread into Lead-In and Lead-Out : No
Fill up missing offset samples with silence : Yes
Delete leading and trailing silent blocks : No
Null samples used in CRC calculations : Yes
Used interface : Native Win32 interface for Win NT & 2000

Used output format : Internal WAV Routines
Sample format : 44.100 Hz; 16 Bit; Stereo


TOC of the extracted CD

Track | Start | Length | Start sector | End sector
––––––––––––––––––––––––––––-
1 | 0:00.00 | 4:43.40 | 0 | 21264
2 | 4:43.40 | 5:31.22 | 21265 | 46111
3 | 10:14.62 | 4:33.30 | 46112 | 66616
4 | 14:48.17 | 4:32.43 | 66617 | 87059
5 | 19:20.60 | 4:32.47 | 87060 | 107506
6 | 23:53.32 | 3:52.08 | 107507 | 124914
7 | 27:45.40 | 4:41.25 | 124915 | 146014
8 | 32:26.65 | 4:32.25 | 146015 | 166439
9 | 36:59.15 | 4:21.65 | 166440 | 186079
10 | 41:21.05 | 3:28.70 | 186080 | 201749


Range status and errors

Selected range

Filename C:\Music CD\Michael Bolton - Time, Love & Tenderness.wav

Peak level 97.7 %
Extraction speed 6.8 X
Range quality 100.0 %
Test CRC FDB7DAE4
Copy CRC FDB7DAE4
Copy OK

No errors occurred


AccurateRip summary

Track 1 accurately ripped (confidence 9) [66027C0B] (AR v2)
Track 2 accurately ripped (confidence 9) [5D04AF03] (AR v2)
Track 3 accurately ripped (confidence 9) [02C47273] (AR v2)
Track 4 accurately ripped (confidence 9) [FD45A799] (AR v2)
Track 5 accurately ripped (confidence 9) [79886491] (AR v2)
Track 6 accurately ripped (confidence 8) [C17CA73A] (AR v2)
Track 7 accurately ripped (confidence 9) [61BE3632] (AR v2)
Track 8 accurately ripped (confidence 9) [1CFD4D7C] (AR v2)
Track 9 accurately ripped (confidence 9) [0864A54E] (AR v2)
Track 10 accurately ripped (confidence 9) [1BCBFFAC] (AR v2)

All tracks accurately ripped

End of status report

–– CUETools DB Plugin V2.1.6

[CTDB TOCID: qM_fhFxsa9N61UjFIQFaKre.Cwc-] found
Submit result: qM_fhFxsa9N61UjFIQFaKre.Cwc- has been confirmed
Track | CTDB Status
1 | (184/186) Accurately ripped
2 | (185/186) Accurately ripped
3 | (184/186) Accurately ripped
4 | (185/186) Accurately ripped
5 | (184/186) Accurately ripped
6 | (185/186) Accurately ripped
7 | (185/186) Accurately ripped
8 | (185/186) Accurately ripped
9 | (185/186) Accurately ripped
10 | (186/186) Accurately ripped


==== Log checksum B609B7F16AFBB17373BDB7C61C18116B307E0AFD5E58DA3E6A7B1CB937619097 ====

foobar2000 1.2.6 / Dynamic Range Meter 1.1.1
log date: 2016-10-23 23:07:22

––––––––––––––––––––––––––––––––––––––––
Analyzed: Michael Bolton & Kenny G / Time, Love & Tenderness (1)
Michael Bolton & Patti LaBelle / Time, Love & Tenderness (2)
––––––––––––––––––––––––––––––––––––––––

DR Peak RMS Duration Track
––––––––––––––––––––––––––––––––––––––––
DR12 -0.20 dB -15.55 dB 4:33 03-Missing You Now
DR12 -0.20 dB -15.73 dB 4:41 07-We're Not Makin' Love Anymore
––––––––––––––––––––––––––––––––––––––––

Number of tracks: 2
Official DR value: DR12

Samplerate: 44100 Hz
Channels: 2
Bits per sample: 16
Bitrate: 930 kbps
Codec: FLAC
================================================================================

––––––––––––––––––––––––––––––––––––––––
Analyzed: Michael Bolton / Time, Love & Tenderness
––––––––––––––––––––––––––––––––––––––––

DR Peak RMS Duration Track
––––––––––––––––––––––––––––––––––––––––
DR12 -0.20 dB -13.30 dB 4:44 01-Love Is A Wonderful Thing
DR10 -0.34 dB -12.17 dB 5:31 02-Time, Love And Tenderness
DR12 -0.20 dB -13.95 dB 4:33 04-Forever Isn't Long Enough
DR12 -0.37 dB -16.03 dB 4:33 05-Now That I Found You
DR12 -0.20 dB -14.61 dB 3:52 06-When A Man Loves A Woman
DR12 -0.20 dB -15.22 dB 4:32 08-New Love
DR11 -0.20 dB -14.66 dB 4:22 09-Save Me
DR10 -0.20 dB -12.71 dB 3:29 10-Steel Bars
––––––––––––––––––––––––––––––––––––––––

Number of tracks: 8
Official DR value: DR11

Samplerate: 44100 Hz
Channels: 2
Bits per sample: 16
Bitrate: 930 kbps
Codec: FLAC
================================================================================

[CUETools log; Date: 23.10.2016 23:07:33; Version: 2.1.5]
[CTDB TOCID: qM_fhFxsa9N61UjFIQFaKre.Cwc-] found.
Track | CTDB Status
1 | (212/214) Accurately ripped
2 | (213/214) Accurately ripped
3 | (212/214) Accurately ripped
4 | (213/214) Accurately ripped
5 | (212/214) Accurately ripped
6 | (213/214) Accurately ripped
7 | (213/214) Accurately ripped
8 | (213/214) Accurately ripped
9 | (213/214) Accurately ripped
10 | (214/214) Accurately ripped
[AccurateRip ID: 00119ae1-008b9734-880a820a] found.
Track [ CRC | V2 ] Status
01 [2136472c|66027c0b] (017+009/284) Accurately ripped
02 [fb491d61|5d04af03] (016+009/285) Accurately ripped
03 [fdaa5c99|02c47273] (017+009/287) Accurately ripped
04 [177cb4cb|fd45a799] (017+009/288) Accurately ripped
05 [bbee60b5|79886491] (017+009/287) Accurately ripped
06 [4e9f3008|c17ca73a] (017+008/285) Accurately ripped
07 [d88554fe|61be3632] (017+009/286) Accurately ripped
08 [08691224|1cfd4d7c] (017+009/286) Accurately ripped
09 [4cdcb432|0864a54e] (017+009/284) Accurately ripped
10 [9a01c1b5|1bcbffac] (017+009/287) Accurately ripped
Offsetted by -1606:
01 [5cc60217] (003/284) Accurately ripped
02 [bf6a1fae] (003/285) Accurately ripped
03 [03936966] (003/287) Accurately ripped
04 [6366f186] (003/288) Accurately ripped
05 [8ea8f093] (003/287) Accurately ripped
06 [c81a89fc] (003/285) Accurately ripped
07 [74860bfe] (003/286) Accurately ripped
08 [ad67b8e5] (003/286) Accurately ripped
09 [8bd48657] (003/284) Accurately ripped
10 [3ee23aab] (003/287) Accurately ripped
Offsetted by -1590:
01 [2ecef2af] (003/284) Accurately ripped
02 [ec446882] (003/285) Accurately ripped
03 [ab8930ba] (003/287) Accurately ripped
04 [c053f1de] (003/288) Accurately ripped
05 [79c04443] (003/287) Accurately ripped
06 [42454e1c] (003/285) Accurately ripped
07 [248b23fe] (003/286) Accurately ripped
08 [e5c578c8] (002/286) Accurately ripped
09 [d2a07065] (003/284) Accurately ripped
10 [a67493d6] (003/287) Accurately ripped
Offsetted by -1513:
01 [eb71b304] (002/284) Accurately ripped
02 [f1e6b8f0] (002/285) Accurately ripped
03 [01a9744a] (002/287) Accurately ripped
04 [97b0473b] (002/288) Accurately ripped
05 [65208702] (002/287) Accurately ripped
06 [be331df6] (002/285) Accurately ripped
07 [c3a3a77e] (002/286) Accurately ripped
08 [438cf1eb] (002/286) Accurately ripped
09 [220044c9] (002/284) Accurately ripped
10 [75e828f9] (002/287) Accurately ripped
Offsetted by -1414:
01 [7aa44146] (004/284) Accurately ripped
02 [e81ec8f1] (004/285) Accurately ripped
03 [221e7fb6] (004/287) Accurately ripped
04 [621b11c8] (004/288) Accurately ripped
05 [93c0dcd3] (004/287) Accurately ripped
06 [821bbb7c] (004/285) Accurately ripped
07 [b4c32bfe] (004/286) Accurately ripped
08 [45eadf80] (004/286) Accurately ripped
09 [8ebde478] (004/284) Accurately ripped
10 [a6ece4ef] (004/287) Accurately ripped
Offsetted by -1389:
01 [156b9945] (002/284) Accurately ripped
02 [d02a27df] (002/285) Accurately ripped
03 [92cbf754] (002/287) Accurately ripped
04 [220353a1] (002/288) Accurately ripped
05 [83154f96] (002/287) Accurately ripped
06 [b0fe8dee] (002/285) Accurately ripped
07 [d7cb217e] (002/286) Accurately ripped
08 [6dd52aae] (002/286) Accurately ripped
09 [b4de5fdc] (002/284) Accurately ripped
10 [48534e23] (002/287) Accurately ripped
Offsetted by -1369:
01 [2538b269] (002/284) Accurately ripped
02 [657cc999] (002/285) Accurately ripped
03 [11704332] (002/287) Accurately ripped
04 [ba8c4ebd] (002/288) Accurately ripped
05 [a8f27832] (002/287) Accurately ripped
06 [09b40316] (002/285) Accurately ripped
07 [f3d17f7e] (002/286) Accurately ripped
08 [c841b48f] (002/286) Accurately ripped
09 [85a6fb2a] (002/284) Accurately ripped
10 [d575184c] (002/287) Accurately ripped
Offsetted by -1245:
01 [ff19904d] (003/284) Accurately ripped
02 [6cef427f] (003/285) Accurately ripped
03 [45d8e89d] (003/287) Accurately ripped
04 [7e4f208c] (003/288) Accurately ripped
05 [c6e740c6] (003/287) Accurately ripped
06 [fc7f730e] (003/285) Accurately ripped
07 [07f8f97e] (003/286) Accurately ripped
08 [1eb52408] (003/286) Accurately ripped
09 [02c32ff0] (003/284) Accurately ripped
10 [e014d0b9] (003/287) Accurately ripped
Offsetted by -1204:
01 [1ddc9c59] (004/284) Accurately ripped
02 [9da7d8ca] (004/285) Accurately ripped
03 [bfe26fac] (004/287) Accurately ripped
04 [dddc5f02] (004/288) Accurately ripped
05 [a1530739] (004/287) Accurately ripped
06 [a58d09a0] (004/285) Accurately ripped
07 [db0606fe] (004/286) Accurately ripped
08 [75589715] (004/286) Accurately ripped
09 [789948be] (004/284) Accurately ripped
10 [3384ed40] (004/287) Accurately ripped
Offsetted by -226:
01 [8dd5310c] (002/284) Accurately ripped
02 [4935e884] (002/285) Accurately ripped
03 [4ea2b0d4] (002/287) Accurately ripped
04 [c8dfdf7d] (002/288) Accurately ripped
05 [c344e29f] (002/287) Accurately ripped
06 [b1031dc4] (002/285) Accurately ripped
07 [023d61fe] (002/286) Accurately ripped
08 [ed3648bf] (002/286) Accurately ripped
09 [e04ac119] (002/284) Accurately ripped
10 [5bac42c7] (002/287) Accurately ripped
Offsetted by -115:
01 [2acceb4d] (005/284) Accurately ripped
02 [e34b504a] (005/285) Accurately ripped
03 [42e0cd01] (005/287) Accurately ripped
04 [792683e1] (005/288) Accurately ripped
05 [a236b734] (005/287) Accurately ripped
06 [108bce62] (005/285) Accurately ripped
07 [3760b87e] (005/286) Accurately ripped
08 [39ca77a3] (005/286) Accurately ripped
09 [e1c4afe0] (005/284) Accurately ripped
10 [34fac07a] (005/287) Accurately ripped
Offsetted by -96:
01 [a3e7c83e] (025/284) Accurately ripped
02 [f6e82955] (025/285) Accurately ripped
03 [0bf974d2] (025/287) Accurately ripped
04 [0fd50ae8] (024/288) Accurately ripped
05 [39626a95] (024/287) Accurately ripped
06 [719e9748] (025/285) Accurately ripped
07 [b866c4fe] (024/286) Accurately ripped
08 [1af9dae9] (024/286) Accurately ripped
09 [c6fbba25] (024/284) Accurately ripped
10 [ca0fdffd] (024/287) Accurately ripped
Offsetted by -54:
01 [7ab7c3da] (047/284) Accurately ripped
02 [a728478b] (048/285) Accurately ripped
03 [9096d9e2] (048/287) Accurately ripped
04 [5c6700e6] (047/288) Accurately ripped
05 [a27fa643] (048/287) Accurately ripped
06 [124eda1c] (047/285) Accurately ripped
07 [267423fe] (048/286) Accurately ripped
08 [aebb35a1] (048/286) Accurately ripped
09 [5ba604aa] (047/284) Accurately ripped
10 [075e5e1c] (047/287) Accurately ripped
Offsetted by 52:
01 [8564857d] (004/284) Accurately ripped
02 [f909f2c4] (004/285) Accurately ripped
03 [a6e96948] (004/287) Accurately ripped
04 [ce5af714] (004/288) Accurately ripped
05 [b7fa30b1] (004/287) Accurately ripped
06 [9baa2d70] (004/285) Accurately ripped
07 [5495e2fe] (004/286) Accurately ripped
08 [32373b8a] (004/286) Accurately ripped
09 [ffb02614] (004/284) Accurately ripped
10 [3b8d8705] (004/287) Accurately ripped
Offsetted by 57:
01 [e7bcc1cd] (006/284) Accurately ripped
02 [26f9cdc8] (006/285) Accurately ripped
03 [33a3e1d3] (006/287) Accurately ripped
04 [f9dc24b5] (006/288) Accurately ripped
05 [81717ad8] (006/287) Accurately ripped
06 [71d78aba] (006/285) Accurately ripped
07 [5b977a7e] (006/286) Accurately ripped
08 [bced35cd] (006/286) Accurately ripped
09 [a9190b32] (006/284) Accurately ripped
10 [653d23b2] (006/287) Accurately ripped
Offsetted by 106:
01 [51a410dd] (005/284) Accurately ripped
02 [601adb74] (005/285) Accurately ripped
03 [ae9422b9] (005/287) Accurately ripped
04 [9e99adc3] (006/288) Accurately ripped
05 [d168eb23] (006/287) Accurately ripped
06 [d7fa835c] (005/285) Accurately ripped
07 [06a713fe] (006/286) Accurately ripped
08 [8b8114cc] (006/286) Accurately ripped
09 [d664cb3a] (006/284) Accurately ripped
10 [0636f4d1] (006/287) Accurately ripped
Offsetted by 110:
01 [9dec7612] (008/284) Accurately ripped
02 [eb2a2447] (009/285) Accurately ripped
03 [aa1dd5f3] (009/287) Accurately ripped
04 [c0ff9fcd] (009/288) Accurately ripped
05 [0c2ec00f] (009/287) Accurately ripped
06 [b6853464] (009/285) Accurately ripped
07 [72a859fe] (009/286) Accurately ripped
08 [e8cd422c] (009/286) Accurately ripped
09 [b89d72f8] (009/284) Accurately ripped
10 [29a5403b] (008/287) Accurately ripped
Offsetted by -1506:
01 [a38668cc] (000/284) No match (V2 was not tested)
02 [653ebfb1] (000/285) No match (V2 was not tested)
03 [d20f86fa] (000/287) No match (V2 was not tested)
04 [c5a50aae] (000/288) No match (V2 was not tested)
05 [4bfabb9f] (000/287) No match (V2 was not tested)
06 [83a5d3c4] (000/285) No match (V2 was not tested)
07 [00a5e1fe] (000/286) No match (V2 was not tested)
08 [cf85ac40] (000/286) No match (V2 was not tested)
09 [304dce2b] (000/284) No match (V2 was not tested)
10 [9de478d8] (000/287) No match (V2 was not tested)
Offsetted by -1490:
01 [275e5d48] (000/284) No match (V2 was not tested)
02 [91edf321] (000/285) No match (V2 was not tested)
03 [8231423d] (000/287) No match (V2 was not tested)
04 [329a1103] (000/288) No match (V2 was not tested)
05 [37120f4f] (000/287) No match (V2 was not tested)
06 [fdd097e4] (000/285) No match (V2 was not tested)
07 [b0aaf9fe] (000/286) No match (V2 was not tested)
08 [2ae86caa] (000/286) No match (V2 was not tested)
09 [ef996439] (000/284) No match (V2 was not tested)
10 [f847bf9c] (000/287) No match (V2 was not tested)
Offsetted by -1397:
01 [ea0438e7] (000/284) No match (V2 was not tested)
02 [b9068eb1] (000/285) No match (V2 was not tested)
03 [87210631] (000/287) No match (V2 was not tested)
04 [e49953dc] (000/288) No match (V2 was not tested)
05 [0d89a5be] (000/287) No match (V2 was not tested)
06 [f3e92bde] (000/285) No match (V2 was not tested)
07 [ffc8957e] (000/286) No match (V2 was not tested)
08 [c2f1fab5] (000/286) No match (V2 was not tested)
09 [9e62d898] (000/284) No match (V2 was not tested)
10 [13089a60] (000/287) No match (V2 was not tested)
Offsetted by -273:
01 [c8f2f40d] (000/284) No match (V2 was not tested)
02 [69c6f514] (000/285) No match (V2 was not tested)
03 [cbfe815b] (000/287) No match (V2 was not tested)
04 [141b7d65] (000/288) No match (V2 was not tested)
05 [90b05cca] (000/287) No match (V2 was not tested)
06 [3a257da6] (000/285) No match (V2 was not tested)
07 [8d2e6b7e] (000/286) No match (V2 was not tested)
08 [e9245836] (000/286) No match (V2 was not tested)
09 [d05d85ab] (000/284) No match (V2 was not tested)
10 [aee18e9c] (000/287) No match (V2 was not tested)
Offsetted by -46:
01 [7fceef94] (000/284) No match (V2 was not tested)
02 [bce4d8ed] (000/285) No match (V2 was not tested)
03 [7d902f36] (000/287) No match (V2 was not tested)
04 [9cdee38e] (000/288) No match (V2 was not tested)
05 [180b501b] (000/287) No match (V2 was not tested)
06 [cf643c2c] (000/285) No match (V2 was not tested)
07 [fe76affe] (000/286) No match (V2 was not tested)
08 [a0f088da] (000/286) No match (V2 was not tested)
09 [33a83ae6] (000/284) No match (V2 was not tested)
10 [4246f007] (000/287) No match (V2 was not tested)

Track Peak [ CRC32 ] [W/O NULL] [ LOG ]
– 97,7 [FDB7DAE4] [D1BF86E3] CRC32
01 97,7 [902F1487] [6C87CA17]
02 96,1 [9356062C] [0255A5BA]
03 97,7 [0F73C5CF] [5A717570]
04 97,7 [41BA9641] [288E38FA]
05 95,8 [1A81BE8F] [29B9E6BB]
06 97,7 [31C8E83B] [54AC679F]
07 97,7 [E345C20D] [1D87878A]
08 97,7 [8875CEC9] [28A98B0D]
09 97,7 [20066131] [551DD396]
10 97,7 [F81D58D7] [CE4B58EE]

Michael Bolton - Time, Love & Tenderness (1991)

Michael Bolton - Time, Love & Tenderness (1991)

All thanks go to edenika

> Visit my blog <

Download: