Subcategories

Michael Jackson: Japanese Mini LP Collection (1979-2001)

Posted By: v3122
Michael Jackson: Japanese Mini LP Collection (1979-2001)

Michael Jackson: Japanese Mini LP Collection (1979-2001)
EAC | Flac(Image) + Cue + Log & MP3 CBR 320Kbps
6CD | Epic | ~ 2988 or 1027 Mb | Scans(jpg) -> 405 Mb
Power Pop / Hip Hop / Funk / Soul

Michael Joseph Jackson (August 29, 1958 – June 25, 2009) was an American singer, songwriter and dancer. Dubbed the "King of Pop", he was one of the most popular entertainers in the world, and was the best-selling music artist at the time of his death. Jackson's contributions to music, dance, and fashion along with his publicized personal life made him a global figure in popular culture for over four decades.

The eighth child of the Jackson family, Michael made his professional debut in 1964 with his elder brothers Jackie, Tito, Jermaine, and Marlon as a member of the Jackson 5. He began his solo career in 1971 while at Motown Records. In the early 1980s, Jackson became a dominant figure in popular music. His music videos, including those of "Beat It", "Billie Jean", and "Thriller" from his 1982 album Thriller, are credited with breaking racial barriers and transforming the medium into an art form and promotional tool. The popularity of these videos helped bring the television channel MTV to fame. Jackson's 1987 album Bad spawned the U.S. Billboard Hot 100 number-one singles "I Just Can't Stop Loving You", "Bad", "The Way You Make Me Feel", "Man in the Mirror", and "Dirty Diana", becoming the first album to have five number-one singles in the nation. He continued to innovate with videos such as "Black or White" and "Scream" throughout the 1990s, and forged a reputation as a touring solo artist. Through stage and video performances, Jackson popularized a number of complicated dance techniques, such as the robot and the moonwalk, to which he gave the name. His distinctive sound and style has influenced numerous artists of various music genres.

Thriller is the best-selling album of all time, with estimated sales of 65 million copies worldwide. Jackson's other albums, including Off the Wall (1979), Bad (1987), Dangerous (1991), and HIStory (1995), also rank among the world's best-selling albums. He is one of the few artists to have been inducted into the Rock and Roll Hall of Fame twice, and was also inducted into the Songwriters Hall of Fame and the Dance Hall of Fame as the only dancer from pop and rock music. His other achievements include multiple Guinness World Records including the Most Successful Entertainer of All Time, 13 Grammy Awards, the Grammy Legend Award, the Grammy Lifetime Achievement Award, 26 American Music Awards—more than any other artist—including the "Artist of the Century" and "Artist of the 1980s", 13 number-one singles in the United States during his solo career—more than any other male artist in the Hot 100 era—and estimated sales of over 350 million records worldwide. Jackson won hundreds of awards, making him the most awarded recording artist in the history of popular music. He became the first artist in history to have a top ten single in the Billboard Hot 100 in five different decades when "Love Never Felt So Good" reached number nine on May 21, 2014. Jackson traveled the world attending events honoring his humanitarianism, and, in 2000, the Guinness World Records recognized him for supporting 39 charities, more than any other entertainer.

Aspects of Jackson's personal life, including his changing appearance, personal relationships, and behavior, generated controversy. In 1993, he was accused of child sexual abuse, but the civil case was settled out of court for an undisclosed amount and no formal charges were brought. In 2005, he was tried and acquitted of further child sexual abuse allegations and several other charges after the jury found him not guilty on all counts. While preparing for his comeback concert series, This Is It, Jackson died of acute propofol and benzodiazepine intoxication on June 25, 2009, after suffering from cardiac arrest. The Los Angeles County Coroner ruled his death a homicide, and his personal physician, Conrad Murray, was convicted of involuntary manslaughter. Jackson's death triggered a global outpouring of grief, and a live broadcast of his public memorial service was viewed around the world. Forbes ranks Jackson the top-earning dead celebrity, with earnings of $825 million in 2016, the highest yearly amount ever recorded by the publication.[17] Jackson is also remembered for his generous philanthropy and his pioneering efforts in charitable fundraising within the entertainment industry…

~ wiki
Michael Jackson: Japanese Mini LP Collection (1979-2001)


Michael Jackson: Japanese Mini LP Collection (1979-2001):

Michael Jackson: Japanese Mini LP Collection (1979-2001)

CD01: Michael Jackson - Off The Wall (1979)
EAC | Flac(Image) + Cue + Log & MP3 CBR 320Kbps
Epic, EICP 1194 | ~ 399 or 143 Mb | Scans(jpg) -> 92 Mb
Power Pop / Hip Hop / Funk / Soul

Michael Jackson had recorded solo prior to the release of Off the Wall in 1979, but this was his breakthrough, the album that established him as an artist of astonishing talent and a bright star in his own right. This was a visionary album, a record that found a way to break disco wide open into a new world where the beat was undeniable, but not the primary focus – it was part of a colorful tapestry of lush ballads and strings, smooth soul and pop, soft rock, and alluring funk. Its roots hearken back to the Jacksons' huge mid-'70s hit "Dancing Machine," but this is an enormously fresh record, one that remains vibrant and giddily exciting years after its release. This is certainly due to Jackson's emergence as a blindingly gifted vocalist, equally skilled with overwrought ballads as "She's Out of My Life" as driving dancefloor shakers as "Working Day and Night" and "Get on the Floor," where his asides are as gripping as his delivery on the verses. It's also due to the brilliant songwriting, an intoxicating blend of strong melodies, rhythmic hooks, and indelible construction. Most of all, its success is due to the sound constructed by Jackson and producer Quincy Jones, a dazzling array of disco beats, funk guitars, clean mainstream pop, and unashamed (and therefore affecting) schmaltz that is utterly thrilling in its utter joy. This is highly professional, highly crafted music, and its details are evident, but the overall effect is nothing but pure pleasure. Jackson and Jones expanded this approach on the blockbuster Thriller, often with equally stunning results, but they never bettered it.

by Stephen Thomas Erlewine, allmusic
Tracklist:

01. Don't Stop 'Til You Get Enough
02. Rock With You
03. Workin' Day And Night
04. Get On The Floor
05. Off The Wall
06. Girlfriend
07. She's Out Of My Life
08. I Can't Help It
09. It's The Falling In Love
10. Burn This Disco Out
11. Voice-over Intro Quincy Jones Interview # 1 / Quincy Jones Interview # 1
12. Voice-over Intro "Don't Stop 'Til You Get Enough (Original Demo From 1978)"
13. Don't Stop 'Til You Get Enough (Original Demo From 1978)
14. Quincy Jones Interview # 2
15. Voice-over Intro "Workin' Day And Night (Original Demo From 1978)"
16. Workin' Day And Night (Original Demo From 1978)
17. Quincy Jones Interview # 3
18. Voice-over Intro Rod Temperton Interview / Rod Temperton Interview
19. Voice-over Intro Quincy Jones Interview # 4 / Quincy Jones Interview # 4

Exact Audio Copy V0.99 prebeta 4 from 23. January 2008

Отчёт EAC об извлечении, выполненном 2. июля 2010, 22:04

Michael Jackson / Off The Wall

Дисковод: Optiarc DVD RW AD-5170A Adapter: 0 ID: 0

Режим чтения : Достоверность
Использование точного потока : Да
Отключение кэша аудио : Да
Использование указателей C2 : Нет

Коррекция смещения при чтении : 48
Способность читать области Lead-in и Lead-out : Нет
Заполнение пропущенных сэмплов тишиной : Да
Удаление блоков с тишиной в начале и конце : Нет
При вычислениях CRC использовались нулевые сэмплы : Да
Интерфейс : Установленный внешний ASPI-интерфейс

Выходной формат : Внутренние WAV-операции
Формат сэмплов : 44.100 Гц; 16 бит; стерео


TOC извлечённого CD

Трек | Старт | Длительность | Начальный сектор | Конечный сектор
––––––––––––––––––––––––––––––––––-
1 | 0:00.00 | 6:04.67 | 0 | 27366
2 | 6:04.67 | 3:40.10 | 27367 | 43876
3 | 9:45.02 | 5:13.70 | 43877 | 67421
4 | 14:58.72 | 4:38.73 | 67422 | 88344
5 | 19:37.70 | 4:05.50 | 88345 | 106769
6 | 23:43.45 | 3:05.07 | 106770 | 120651
7 | 26:48.52 | 3:38.10 | 120652 | 137011
8 | 30:26.62 | 4:28.60 | 137012 | 157171
9 | 34:55.47 | 3:48.43 | 157172 | 174314
10 | 38:44.15 | 3:44.17 | 174315 | 191131
11 | 42:28.32 | 0:37.43 | 191132 | 193949
12 | 43:06.00 | 0:13.10 | 193950 | 194934
13 | 43:19.10 | 4:48.20 | 194935 | 216554
14 | 48:07.30 | 0:30.02 | 216555 | 218806
15 | 48:37.32 | 0:10.05 | 218807 | 219561
16 | 48:47.37 | 4:19.48 | 219562 | 239034
17 | 53:07.10 | 0:48.72 | 239035 | 242706
18 | 53:56.07 | 4:57.35 | 242707 | 265016
19 | 58:53.42 | 1:32.70 | 265017 | 271986


Характеристики диапазона извлечения и сообщения об ошибках

Выбранный диапазон

Имя файла D:\Michael Jackson - 6 CD (Japan Mini LP)\1979 - Off The Wall\Michael Jackson - Off The Wall.wav

Пиковый уровень 98.8 %
Качество диапазона 99.9 %
CRC копии EC02D358
Копирование… OK

Ошибок не произошло


AccurateRip: сводка

Трек 1 точное извлечение (доверие 2) [2F6C4B90]
Трек 2 точное извлечение (доверие 3) [4EFF2AC8]
Трек 3 точное извлечение (доверие 3) [7ECCA335]
Трек 4 точное извлечение (доверие 3) [1E7DC64C]
Трек 5 точное извлечение (доверие 3) [5CEDA95E]
Трек 6 точное извлечение (доверие 3) [32C1B146]
Трек 7 точное извлечение (доверие 3) [69E64084]
Трек 8 точное извлечение (доверие 3) [43FFD7AE]
Трек 9 точное извлечение (доверие 3) [33F5B5F6]
Трек 10 точное извлечение (доверие 3) [06B4109A]
Трек 11 точное извлечение (доверие 3) [BA0BF5D8]
Трек 12 точное извлечение (доверие 3) [E7BF02F4]
Трек 13 точное извлечение (доверие 3) [8C7863D3]
Трек 14 точное извлечение (доверие 3) [D8A20C4C]
Трек 15 точное извлечение (доверие 3) [4EE46A1E]
Трек 16 точное извлечение (доверие 3) [F573A184]
Трек 17 точное извлечение (доверие 3) [29ECAD70]
Трек 18 точное извлечение (доверие 3) [E223E84E]
Трек 19 точное извлечение (доверие 3) [E2C72B08]

Все треки извлечены точно

Конец отчёта


[CUETools log; Date: 13.08.2017 16:43:27; Version: 2.1.4]
[CTDB TOCID: r.BGmuaJwNPU3HDR96QzSR9Z75k-] found.
Track | CTDB Status
1 | (84/85) Accurately ripped
2 | (84/85) Accurately ripped
3 | (85/85) Accurately ripped
4 | (83/85) Accurately ripped
5 | (84/85) Accurately ripped
6 | (85/85) Accurately ripped
7 | (85/85) Accurately ripped
8 | (84/85) Accurately ripped
9 | (85/85) Accurately ripped
10 | (85/85) Accurately ripped
11 | (84/85) Accurately ripped
12 | (85/85) Accurately ripped
13 | (83/85) Accurately ripped
14 | (83/85) Accurately ripped
15 | (84/85) Accurately ripped
16 | (82/85) Accurately ripped
17 | (84/85) Accurately ripped
18 | (85/85) Accurately ripped
19 | (85/85) Accurately ripped
[AccurateRip ID: 003078ab-0285fb27-2e0e2a13] found.
Track [ CRC | V2 ] Status
01 [2f6c4b90|6ee602d7] (11+25/44) Accurately ripped
02 [4eff2ac8|db949e2e] (13+25/46) Accurately ripped
03 [7ecca335|37a810a3] (13+25/46) Accurately ripped
04 [1e7dc64c|e6d23279] (13+25/46) Accurately ripped
05 [5ceda95e|7cd76ca3] (13+24/45) Accurately ripped
06 [32c1b146|335e8e5d] (13+25/46) Accurately ripped
07 [69e64084|af772c3a] (13+25/46) Accurately ripped
08 [43ffd7ae|287d9174] (13+25/46) Accurately ripped
09 [33f5b5f6|ba8b1804] (13+24/45) Accurately ripped
10 [06b4109a|7902fe98] (13+25/46) Accurately ripped
11 [ba0bf5d8|56862002] (13+22/39) Accurately ripped
12 [e7bf02f4|8ae4f6e2] (12+22/38) Accurately ripped
13 [8c7863d3|5d996b45] (12+22/38) Accurately ripped
14 [d8a20c4c|e0f307bd] (12+22/38) Accurately ripped
15 [4ee46a1e|93e4884a] (12+22/38) Accurately ripped
16 [f573a184|129916f9] (12+20/36) Accurately ripped
17 [29ecad70|06c83e6c] (12+21/37) Accurately ripped
18 [e223e84e|0569b55c] (12+21/37) Accurately ripped
19 [e2c72b08|dd0942cd] (12+20/36) Accurately ripped
Offsetted by -152:
01 [a51f184a] (02/44) Accurately ripped
02 [3bd04b8c] (02/46) Accurately ripped
03 [287bdef3] (02/46) Accurately ripped
04 [80668834] (02/46) Accurately ripped
05 [05e427a2] (02/45) Accurately ripped
06 [2efe9a24] (02/46) Accurately ripped
07 [25b7cd62] (02/46) Accurately ripped
08 [d5a8f1a2] (02/46) Accurately ripped
09 [dbc98eba] (02/45) Accurately ripped
10 [56641c36] (02/46) Accurately ripped
11 [f241e3f9] (00/39) No match (V2 was not tested)
12 [0913e20b] (00/38) No match (V2 was not tested)
13 [1bc0f47f] (00/38) No match (V2 was not tested)
14 [47929243] (00/38) No match (V2 was not tested)
15 [649b5a40] (00/38) No match (V2 was not tested)
16 [77c03481] (00/36) No match (V2 was not tested)
17 [297fc4bc] (00/37) No match (V2 was not tested)
18 [8b593351] (00/37) No match (V2 was not tested)
19 [79b71e77] (00/36) No match (V2 was not tested)

Track Peak [ CRC32 ] [W/O NULL] [ LOG ]
– 98,8 [EC02D358] [DE2FD877] CRC32
01 98,8 [13EEB602] [AAF2DD31]
02 98,8 [712C793D] [9AEA7992]
03 98,8 [9EB28BA1] [FC466990]
04 98,8 [A58ADFD8] [99234EAF]
05 98,8 [496FB6B6] [1D7BDA0C]
06 98,8 [5BD06346] [DB777203]
07 93,4 [22B080CC] [3D9A3F88]
08 98,8 [5DBE4A4B] [46F87450]
09 98,8 [6850AF15] [F3FFF17C]
10 98,8 [8FD7F79C] [7841D6A1]
11 98,5 [222F8843] [721AA5F0]
12 60,1 [59EF2A3D] [97B6665C]
13 98,8 [7802F475] [4EF1E646]
14 98,5 [D1C64587] [59413F05]
15 61,7 [520BA167] [26665BB9]
16 98,8 [BA703281] [CFD7FC29]
17 98,4 [0B64490E] [3B79F737]
18 75,7 [B903A26E] [B9F07328]
19 98,5 [98344CAE] [96811F45]


* * * * *

Michael Jackson: Japanese Mini LP Collection (1979-2001)

CD02: Michael Jackson - Thriller (1982)
EAC | Flac(Image) + Cue + Log & MP3 CBR 320Kbps
Epic, EICP 1195 | ~ 467 or 171 Mb | Scans(jpg) -> 117 Mb
Power Pop / Hip Hop / Funk / Soul

Off the Wall was a massive success, spawning four Top Ten hits (two of them number ones), but nothing could have prepared Michael Jackson for Thriller. Nobody could have prepared anybody for the success of Thriller, since the magnitude of its success was simply unimaginable – an album that sold 40 million copies in its initial chart run, with seven of its nine tracks reaching the Top Ten (for the record, the terrific "Baby Be Mine" and the pretty good ballad "The Lady in My Life" are not like the others). This was a record that had something for everybody, building on the basic blueprint of Off the Wall by adding harder funk, hard rock, softer ballads, and smoother soul – expanding the approach to have something for every audience. That alone would have given the album a good shot at a huge audience, but it also arrived precisely when MTV was reaching its ascendancy, and Jackson helped the network by being not just its first superstar, but first black star as much as the network helped him. This all would have made it a success (and its success, in turn, served as a new standard for success), but it stayed on the charts, turning out singles, for nearly two years because it was really, really good. True, it wasn't as tight as Off the Wall – and the ridiculous, late-night house-of-horrors title track is the prime culprit, arriving in the middle of the record and sucking out its momentum – but those one or two cuts don't detract from a phenomenal set of music. It's calculated, to be sure, but the chutzpah of those calculations (before this, nobody would even have thought to bring in metal virtuoso Eddie Van Halen to play on a disco cut) is outdone by their success. This is where a song as gentle and lovely as "Human Nature" coexists comfortably with the tough, scared "Beat It," the sweet schmaltz of the Paul McCartney duet "The Girl Is Mine," and the frizzy funk of "P.Y.T. (Pretty Young Thing)." And, although this is an undeniably fun record, the paranoia is already creeping in, manifesting itself in the record's two best songs: "Billie Jean," where a woman claims Michael is the father of her child, and the delirious "Wanna Be Startin' Something," the freshest funk on the album, but the most claustrophobic, scariest track Jackson ever recorded. These give the record its anchor and are part of the reason why the record is more than just a phenomenon. The other reason, of course, is that much of this is just simply great music.

by Stephen Thomas Erlewine, allmusic
Tracklist:

01. Wanna Be Startin' Somethin'
02. Baby Be Mine
03. The Girl Is Mine
04. Thriller
05. Beat It
06. Billie Jean
07. Human Nature
08. P.Y.T. (Pretty Young Thing)
09. The Lady In My Life
10. Quincy Jones Interview #1
11. Someone In The Dark
12. Quincy Jones Interview #2
13. Billie Jean (home demo from 1981)
14. Interview with Quincy Jones #3
15. Interview with Rod Temperton
16. Interview with Quincy Jones #4
17. Voice-Over Session from Thriller
18. Interview with Rod Temperton #2
19. Interview with Quincy Jones #5
20. Carousel
21. Interview with Quincy Jones #6

Exact Audio Copy V0.99 prebeta 4 from 23. January 2008

Отчёт EAC об извлечении, выполненном 2. июля 2010, 23:06

Michael Jackson / Thriller

Дисковод: Optiarc DVD RW AD-5170A Adapter: 0 ID: 0

Режим чтения : Достоверность
Использование точного потока : Да
Отключение кэша аудио : Да
Использование указателей C2 : Нет

Коррекция смещения при чтении : 48
Способность читать области Lead-in и Lead-out : Нет
Заполнение пропущенных сэмплов тишиной : Да
Удаление блоков с тишиной в начале и конце : Нет
При вычислениях CRC использовались нулевые сэмплы : Да
Интерфейс : Установленный внешний ASPI-интерфейс

Выходной формат : Внутренние WAV-операции
Формат сэмплов : 44.100 Гц; 16 бит; стерео


TOC извлечённого CD

Трек | Старт | Длительность | Начальный сектор | Конечный сектор
––––––––––––––––––––––––––––––––––-
1 | 0:00.00 | 6:02.60 | 0 | 27209
2 | 6:02.60 | 4:20.10 | 27210 | 46719
3 | 10:22.70 | 3:41.60 | 46720 | 63354
4 | 14:04.55 | 5:57.70 | 63355 | 90199
5 | 20:02.50 | 4:17.60 | 90200 | 109534
6 | 24:20.35 | 4:53.52 | 109535 | 131561
7 | 29:14.12 | 4:05.60 | 131562 | 149996
8 | 33:19.72 | 3:58.30 | 149997 | 167876
9 | 37:18.27 | 4:58.68 | 167877 | 190294
10 | 42:17.20 | 2:18.02 | 190295 | 200646
11 | 44:35.22 | 4:48.43 | 200647 | 222289
12 | 49:23.65 | 2:04.07 | 222290 | 231596
13 | 51:27.72 | 2:20.03 | 231597 | 242099
14 | 53:48.00 | 3:10.40 | 242100 | 256389
15 | 56:58.40 | 4:02.67 | 256390 | 274606
16 | 61:01.32 | 1:32.45 | 274607 | 281551
17 | 62:34.02 | 2:52.45 | 281552 | 294496
18 | 65:26.47 | 1:56.05 | 294497 | 303201
19 | 67:22.52 | 2:01.48 | 303202 | 312324
20 | 69:24.25 | 1:49.40 | 312325 | 320539
21 | 71:13.65 | 1:18.45 | 320540 | 326434


Характеристики диапазона извлечения и сообщения об ошибках

Выбранный диапазон

Имя файла D:\Michael Jackson - 6 CD (Japan Mini LP)\1982 - Thriller\Michael Jackson - Thriller.wav

Пиковый уровень 98.8 %
Качество диапазона 100.0 %
CRC копии 2398A37C
Копирование… OK

Ошибок не произошло


AccurateRip: сводка

Трек 1 точное извлечение (доверие 3) [6485B37D]
Трек 2 точное извлечение (доверие 3) [73808E1D]
Трек 3 точное извлечение (доверие 3) [AC2BB84A]
Трек 4 точное извлечение (доверие 3) [30D8AB0F]
Трек 5 точное извлечение (доверие 3) [1DF405A9]
Трек 6 точное извлечение (доверие 4) [43DAF312]
Трек 7 точное извлечение (доверие 3) [94ABFDAF]
Трек 8 точное извлечение (доверие 3) [59A3EC51]
Трек 9 точное извлечение (доверие 3) [BBBEEB58]
Трек 10 точное извлечение (доверие 2) [34893535]
Трек 11 точное извлечение (доверие 2) [12442F21]
Трек 12 точное извлечение (доверие 2) [9E74FC05]
Трек 13 точное извлечение (доверие 2) [0FD17CE2]
Трек 14 точное извлечение (доверие 2) [6686E2B1]
Трек 15 точное извлечение (доверие 2) [4266BB66]
Трек 16 точное извлечение (доверие 2) [A06BF8E1]
Трек 17 точное извлечение (доверие 2) [B42EC7B1]
Трек 18 точное извлечение (доверие 2) [4AE573C4]
Трек 19 точное извлечение (доверие 1) [A4DF00D8]
Трек 20 точное извлечение (доверие 1) [A6E97714]
Трек 21 точное извлечение (доверие 2) [195D19A2]

Все треки извлечены точно

Конец отчёта


[CUETools log; Date: 13.08.2017 16:44:02; Version: 2.1.4]
[CTDB TOCID: yt3LN0427eZ6wWItY6ttd5YrC_s-] found.
Track | CTDB Status
1 | (122/122) Accurately ripped
2 | (121/122) Accurately ripped
3 | (121/122) Accurately ripped
4 | (121/122) Accurately ripped
5 | (122/122) Accurately ripped
6 | (121/122) Accurately ripped
7 | (121/122) Accurately ripped
8 | (121/122) Accurately ripped
9 | (121/122) Accurately ripped
10 | (122/122) Accurately ripped
11 | (121/122) Accurately ripped
12 | (121/122) Accurately ripped
13 | (121/122) Accurately ripped
14 | (121/122) Accurately ripped
15 | (121/122) Accurately ripped
16 | (121/122) Accurately ripped
17 | (120/122) Accurately ripped
18 | (121/122) Accurately ripped
19 | (120/122) Accurately ripped
20 | (119/122) Accurately ripped
21 | (121/122) Accurately ripped
[AccurateRip ID: 0040bdf5-03bb657e-30110015] found.
Track [ CRC | V2 ] Status
01 [6485b37d|76b561ec] (12+43/79) Accurately ripped
02 [73808e1d|cd8fbda0] (12+43/78) Accurately ripped
03 [ac2bb84a|d079ea84] (12+43/79) Accurately ripped
04 [30d8ab0f|a9930fde] (12+44/79) Accurately ripped
05 [1df405a9|77651b4e] (12+43/78) Accurately ripped
06 [43daf312|26d91695] (13+43/79) Accurately ripped
07 [94abfdaf|460380bd] (12+43/78) Accurately ripped
08 [59a3ec51|a33f8a85] (12+43/79) Accurately ripped
09 [bbbeeb58|a137704a] (12+43/78) Accurately ripped
10 [34893535|60e04f22] (11+38/69) Accurately ripped
11 [12442f21|6f879143] (11+38/70) Accurately ripped
12 [9e74fc05|34b0fe1e] (11+38/68) Accurately ripped
13 [0fd17ce2|5fe571ea] (11+38/70) Accurately ripped
14 [6686e2b1|63cc24d0] (11+38/69) Accurately ripped
15 [4266bb66|831b8094] (11+37/68) Accurately ripped
16 [a06bf8e1|6823df7c] (11+38/67) Accurately ripped
17 [b42ec7b1|d92fa390] (11+38/69) Accurately ripped
18 [4ae573c4|1c68a171] (10+37/67) Accurately ripped
19 [a4df00d8|d07a86d1] (09+38/67) Accurately ripped
20 [a6e97714|f3d1bca4] (10+38/69) Accurately ripped
21 [195d19a2|0d8863f4] (11+37/68) Accurately ripped
Offsetted by 100:
01 [e6fa8fa0] (07/79) Accurately ripped
02 [74f65012] (06/78) Accurately ripped
03 [414e824e] (07/79) Accurately ripped
04 [674ceb07] (07/79) Accurately ripped
05 [4ae4220b] (07/78) Accurately ripped
06 [266bc488] (07/79) Accurately ripped
07 [64c24373] (07/78) Accurately ripped
08 [7fd76bc7] (07/79) Accurately ripped
09 [3c2760ca] (06/78) Accurately ripped
10 [f1d457c2] (05/69) Accurately ripped
11 [48313054] (06/70) Accurately ripped
12 [fbb1f073] (05/68) Accurately ripped
13 [71cfefc9] (06/70) Accurately ripped
14 [af9880d8] (05/69) Accurately ripped
15 [c30a75b4] (05/68) Accurately ripped
16 [4e48c07d] (03/67) Accurately ripped
17 [91e5bc94] (05/69) Accurately ripped
18 [fd70c758] (05/67) Accurately ripped
19 [92ce3ca3] (05/67) Accurately ripped
20 [0f21d92b] (06/69) Accurately ripped
21 [d044f84f] (05/68) Accurately ripped

Track Peak [ CRC32 ] [W/O NULL] [ LOG ]
– 98,8 [2398A37C] [C496A6FD] CRC32
01 98,8 [985763F5] [092D7C75]
02 98,8 [62C73A80] [9C4093B9]
03 98,8 [0C644D6F] [004AB1AE]
04 98,8 [339058A4] [82F1AEBA]
05 98,8 [D48B4B5E] [635ECC57]
06 98,8 [EC59A7A6] [3B5F7FCD]
07 98,8 [1A6E852F] [E63F1C0B]
08 98,8 [469DB270] [273B7A18]
09 98,8 [C077AB2B] [351918C0]
10 98,8 [086C8A15] [ABD7753A]
11 98,6 [BFA3D63B] [B60A842F]
12 98,6 [170550EF] [FE32EECE]
13 98,8 [77314976] [A273D2FD]
14 98,7 [50E80F1C] [19D50575]
15 93,9 [8F0A4C74] [C5CF5DD0]
16 98,5 [454D857C] [A76CB7A4]
17 80,5 [8B0D5D97] [5A6090B2]
18 88,4 [17273DA7] [8408F70D]
19 98,5 [8CD3DD04] [415752E9]
20 98,8 [CDCA39C6] [53005B02]
21 98,5 [BE30A946] [372EFC5B]


* * * * *

Michael Jackson: Japanese Mini LP Collection (1979-2001)

CD03: Michael Jackson - Dangerous (1991)
EAC | Flac(Image) + Cue + Log & MP3 CBR 320Kbps
Epic, EICP 1197 | ~ 542 or 182 Mb | Scans(jpg) -> 104 Mb
Power Pop / Hip Hop / Funk / Soul

Despite the success of Bad, it was hard not to view it as a bit of a letdown, since it presented a cleaner, colder, calculated version of Thriller – something that delivered what it should on the surface, but wound up offering less in the long run. So, it was time for a change-up, something even a superstar as huge as Michael Jackson realized, so he left Quincy Jones behind, hired Guy mastermind Teddy Riley as the main producer, and worked with a variety of other producers, arrangers, and writers, most notably Bruce Swedien and Bill Bottrell. The end result of this is a much sharper, harder, riskier album than Bad, one that has its eyes on the street, even if its heart gets middle-class soft on "Heal the World." The shift in direction and change of collaborators has liberated Jackson, and he's written a set of songs that is considerably stronger than Bad, often approaching the consistency of Off the Wall and Thriller. If it is hardly as effervescent or joyous as either of those records, chalk it up to his suffocating stardom, which results in a set of songs without much real emotional center, either in their substance or performance. But, there's a lot to be said for professional craftsmanship at its peak, and Dangerous has plenty of that, not just on such fine singles as "In the Closet," "Remember the Time," or the blistering "Jam," but on album tracks like "Why You Wanna Trip on Me." No, it's not perfect – it has a terrible cover, a couple of slow spots, and suffers from CD-era ailments of the early '90s, such as its overly long running time and its deadening Q Sound production, which sounds like somebody forgot to take the Surround Sound button off. Even so, Dangerous captures Jackson at a near-peak, delivering an album that would have ruled the pop charts surely and smoothly if it had arrived just a year earlier. But it didn't – it arrived along with grunge, which changed the rules of the game nearly as much as Thriller itself. Consequently, it's the rare multi-platinum, number one album that qualifies as a nearly forgotten, underappreciated record.

by Stephen Thomas Erlewine, allmusic
Tracklist:

01. Jam
02. Why You Wanna Trip On Me
03. In The Closet
04. She Drives Me Wild
05. Remember The Time
06. Can't Let Her Get Away
07. Heal The World
08. Black Or White
09. Who Is It
10. Give In To Me
11. Will You Be There
12. Keep The Faith
13. Gone Too Soon
14. Dangerous

Exact Audio Copy V0.99 prebeta 4 from 23. January 2008

Отчёт EAC об извлечении, выполненном 23. июня 2010, 19:53

Michael Jackson / Dangerous

Дисковод: Optiarc DVD RW AD-5170A Adapter: 0 ID: 0

Режим чтения : Достоверность
Использование точного потока : Да
Отключение кэша аудио : Да
Использование указателей C2 : Нет

Коррекция смещения при чтении : 48
Способность читать области Lead-in и Lead-out : Нет
Заполнение пропущенных сэмплов тишиной : Да
Удаление блоков с тишиной в начале и конце : Нет
При вычислениях CRC использовались нулевые сэмплы : Да
Интерфейс : Установленный внешний ASPI-интерфейс

Выходной формат : Внутренние WAV-операции
Формат сэмплов : 44.100 Гц; 16 бит; стерео


TOC извлечённого CD

Трек | Старт | Длительность | Начальный сектор | Конечный сектор
––––––––––––––––––––––––––––––––––-
1 | 0:00.00 | 5:38.62 | 0 | 25411
2 | 5:38.62 | 5:24.10 | 25412 | 49721
3 | 11:02.72 | 6:31.50 | 49722 | 79096
4 | 17:34.47 | 3:41.45 | 79097 | 95716
5 | 21:16.17 | 4:00.23 | 95717 | 113739
6 | 25:16.40 | 4:58.67 | 113740 | 136156
7 | 30:15.32 | 6:24.65 | 136157 | 165021
8 | 36:40.22 | 4:16.05 | 165022 | 184226
9 | 40:56.27 | 6:34.40 | 184227 | 213816
10 | 47:30.67 | 5:29.20 | 213817 | 238511
11 | 53:00.12 | 7:40.40 | 238512 | 273051
12 | 60:40.52 | 5:57.25 | 273052 | 299851
13 | 66:38.02 | 3:22.30 | 299852 | 315031
14 | 70:00.32 | 6:59.43 | 315032 | 346499


Характеристики диапазона извлечения и сообщения об ошибках

Выбранный диапазон

Имя файла D:\Michael Jackson - 6 CD (Japan Mini LP)\MJJ - Dangerous - 1991 (Japan)\Michael Jackson - Dangerous.wav

Пиковый уровень 98.8 %
Качество диапазона 99.9 %
CRC копии BF8A6DF3
Копирование… OK

Ошибок не произошло


AccurateRip: сводка

Трек 1 точное извлечение (доверие 4) [D245119A]
Трек 2 точное извлечение (доверие 4) [8FE6C7A4]
Трек 3 точное извлечение (доверие 4) [ACDE3AE3]
Трек 4 точное извлечение (доверие 4) [BC987C2D]
Трек 5 точное извлечение (доверие 4) [ECEEEFBF]
Трек 6 точное извлечение (доверие 4) [EDCFB59A]
Трек 7 точное извлечение (доверие 4) [8BF8B383]
Трек 8 точное извлечение (доверие 4) [8F9B15A0]
Трек 9 точное извлечение (доверие 4) [2563453B]
Трек 10 точное извлечение (доверие 4) [81F200D1]
Трек 11 точное извлечение (доверие 4) [8662C15C]
Трек 12 точное извлечение (доверие 4) [7E9D1047]
Трек 13 точное извлечение (доверие 5) [81C07D26]
Трек 14 точное извлечение (доверие 4) [12F7F175]

Все треки извлечены точно

Конец отчёта


[CUETools log; Date: 13.08.2017 16:44:36; Version: 2.1.4]
[CTDB TOCID: q1XhD.Ho_6L7hjs62rZmOqt.XLU-] found.
Track | CTDB Status
1 | (81/85) Accurately ripped, or (1/85) differs in 639 samples @05:37:01-05:37:02,05:37:36-05:37:44,05:37:71-05:37:73,05:38:04-05:38:05,05:38:22-05:38:23,05:38:29,05:38:55
2 | (80/85) Accurately ripped, or (1/85) differs in 5 samples @05:23:71
3 | (80/85) Accurately ripped, or (1/85) differs in 94 samples @06:30:05-06:30:06,06:30:56,06:30:70-06:30:73
4 | (81/85) Accurately ripped
5 | (81/85) Accurately ripped
6 | (81/85) Accurately ripped
7 | (81/85) Accurately ripped
8 | (81/85) Accurately ripped
9 | (82/85) Accurately ripped
10 | (79/85) Accurately ripped
11 | (81/85) Accurately ripped
12 | (81/85) Accurately ripped
13 | (80/85) Accurately ripped
14 | (76/85) Accurately ripped
[AccurateRip ID: 0026b1b3-019e5314-aa120c0e] found.
Track [ CRC | V2 ] Status
01 [d245119a|9665c4ab] (12+17/43) Accurately ripped
02 [8fe6c7a4|18107f8f] (12+17/43) Accurately ripped
03 [acde3ae3|8e8b75ff] (12+17/43) Accurately ripped
04 [bc987c2d|cbcb0232] (12+17/43) Accurately ripped
05 [eceeefbf|b9cf8186] (12+17/42) Accurately ripped
06 [edcfb59a|d4c0c69f] (12+17/43) Accurately ripped
07 [8bf8b383|bb692de0] (12+17/43) Accurately ripped
08 [8f9b15a0|798c4e94] (12+17/43) Accurately ripped
09 [2563453b|da4bd95b] (12+17/43) Accurately ripped
10 [81f200d1|f64ce0c3] (12+17/43) Accurately ripped
11 [8662c15c|8a1acf2f] (12+17/42) Accurately ripped
12 [7e9d1047|2f0b8a84] (12+17/42) Accurately ripped
13 [81c07d26|814d466c] (13+17/43) Accurately ripped
14 [12f7f175|4b8948c5] (12+17/42) Accurately ripped
Offsetted by 250:
01 [a0660a1e] (05/43) Accurately ripped
02 [e20192c1] (05/43) Accurately ripped
03 [15c4fdbf] (05/43) Accurately ripped
04 [5e92e530] (05/43) Accurately ripped
05 [a3929c74] (04/42) Accurately ripped
06 [29fa3047] (05/43) Accurately ripped
07 [c45cb366] (05/43) Accurately ripped
08 [a6067ac3] (05/43) Accurately ripped
09 [f1d14a27] (05/43) Accurately ripped
10 [03376881] (05/43) Accurately ripped
11 [9a8904de] (04/42) Accurately ripped
12 [7938b10d] (04/42) Accurately ripped
13 [a484e826] (04/43) Accurately ripped
14 [76b2acad] (05/42) Accurately ripped

Track Peak [ CRC32 ] [W/O NULL] [ LOG ]
– 98,8 [BF8A6DF3] [AB2B401A] CRC32
01 98,8 [4B1B6714] [F5627BD7]
02 98,8 [190AB120] [84CDCE56]
03 98,8 [F3378F6C] [23ED118B]
04 98,8 [315B342A] [E321FD13]
05 98,8 [0D467854] [BB5414BF]
06 98,8 [C4B166CB] [6B46FEE5]
07 98,8 [ECDB4FE6] [8E43B565]
08 98,8 [120CACDD] [540767F1]
09 98,8 [63176F61] [16577454]
10 98,8 [95D73F9F] [31633A83]
11 98,8 [2A690518] [06E84E79]
12 98,8 [D207C279] [8F8E459D]
13 98,8 [9C0F4E0B] [CD65595D]
14 98,8 [A66DA007] [D542C7E1]


* * * * *

Michael Jackson: Japanese Mini LP Collection (1979-2001)

CD04-05: Michael Jackson - History Past, Present And Future Book I (1995)
EAC | Flac(Image) + Cue + Log & MP3 CBR 320Kbps
Epic, EICP 1198-9 | ~ 1032 or 349 Mb | Covers(jpg) -> 12 Mb
Power Pop / Hip Hop / Funk / Soul

Michael Jackson's double-disc HIStory: Past, Present, and Future, Book I is a monumental achievement of ego. Titled "HIStory Begins," the first disc is a collection of his post-Motown hits, featuring some of the greatest music in pop history, including "Billie Jean," "Don't Stop 'Til You Get Enough," "Beat It," and "Rock with You." It leaves some hits out – including the number ones "Say Say Say" and "Dirty Diana" – yet it's filled with enough prime material to be thoroughly intoxicating. That can't be said for the second disc, called "HIStory Continues" and consisting entirely of new material – which also happens to be the first material he released since being accused of child molestation. "HIStory Continues" is easily the most personal album Jackson has recorded. References to the scandal permeate almost every song, creating a thick atmosphere of paranoia. If Jackson's music had been the equal of Thriller or Bad, the nervous, vindictive lyrics wouldn't have been quite as overbearing. However, "HIStory Continues" reiterates musical ideas Jackson had been exploring since Bad. Jackson certainly tries to stay contemporary, yet he has a tendency to smooth out all of his rougher musical edges with show-biz schmaltz. Occasionally, Jackson produces some well-crafted pop that ranks with his best material: R. Kelly's "You Are Not Alone" is seductive, "Scream" improves on the slamming beats of his earlier single "Jam," and "Stranger in Moscow" is one of his most haunting ballads. Nevertheless, "HIStory Continues" stands as his weakest album since the mid-'70s.

by Stephen Thomas Erlewine, allmusic
Tracklist CD1:

01. Billie Jean
02. The Way You Make Me Feel
03. Black Or White
04. Rock With You
05. She's Out Of My Life
06. Bad
07. I Just Can't Stop Loving You
08. Man In The Mirror
09. Thriller
10. Beat It
11. The Girl Is Mine
12. Remember The Time
13. Don't Stop 'Til You Get Enough
14. Wanna Be Startin' Somethin'
15. Heal The World

Exact Audio Copy V0.99 prebeta 4 from 23. January 2008

Отчёт EAC об извлечении, выполненном 3. июля 2010, 0:19

Michael Jackson / HIStory: Past, Present And Future, Book I

Дисковод: Optiarc DVD RW AD-5170A Adapter: 0 ID: 0

Режим чтения : Достоверность
Использование точного потока : Да
Отключение кэша аудио : Да
Использование указателей C2 : Нет

Коррекция смещения при чтении : 48
Способность читать области Lead-in и Lead-out : Нет
Заполнение пропущенных сэмплов тишиной : Да
Удаление блоков с тишиной в начале и конце : Нет
При вычислениях CRC использовались нулевые сэмплы : Да
Интерфейс : Установленный внешний ASPI-интерфейс

Выходной формат : Внутренние WAV-операции
Формат сэмплов : 44.100 Гц; 16 бит; стерео


TOC извлечённого CD

Трек | Старт | Длительность | Начальный сектор | Конечный сектор
––––––––––––––––––––––––––––––––––-
1 | 0:00.00 | 4:53.43 | 0 | 22017
2 | 4:53.43 | 4:57.31 | 22018 | 44323
3 | 9:50.74 | 4:16.10 | 44324 | 63533
4 | 14:07.09 | 3:40.44 | 63534 | 80077
5 | 17:47.53 | 3:38.22 | 80078 | 96449
6 | 21:26.00 | 4:07.13 | 96450 | 114987
7 | 25:33.13 | 4:12.16 | 114988 | 133903
8 | 29:45.29 | 5:19.40 | 133904 | 157868
9 | 35:04.69 | 5:57.56 | 157869 | 184699
10 | 41:02.50 | 4:18.72 | 184700 | 204121
11 | 45:21.47 | 3:42.01 | 204122 | 220772
12 | 49:03.48 | 3:59.67 | 220773 | 238764
13 | 53:03.40 | 6:05.03 | 238765 | 266142
14 | 59:08.43 | 6:04.02 | 266143 | 293444
15 | 65:12.45 | 6:26.19 | 293445 | 322413


Характеристики диапазона извлечения и сообщения об ошибках

Выбранный диапазон

Имя файла D:\Michael Jackson - 6 CD (Japan Mini LP)\1991 - History Past, Present And Future Book I (2 CD)\CD 1\Michael Jackson - HIStory Past, Present And Future, Book I.wav

Пиковый уровень 100.0 %
Качество диапазона 100.0 %
CRC копии 3F6A3B8A
Копирование… OK

Ошибок не произошло


AccurateRip: сводка

Трек 1 точное извлечение (доверие 3) [C3F69E4A]
Трек 2 точное извлечение (доверие 3) [16F83BEC]
Трек 3 точное извлечение (доверие 3) [B94122BB]
Трек 4 точное извлечение (доверие 3) [0E670FA5]
Трек 5 точное извлечение (доверие 3) [C132CB2A]
Трек 6 точное извлечение (доверие 3) [88EEECAD]
Трек 7 точное извлечение (доверие 3) [7769A06E]
Трек 8 точное извлечение (доверие 3) [6C9D0AF3]
Трек 9 точное извлечение (доверие 3) [39ED1FE1]
Трек 10 точное извлечение (доверие 3) [7758E40E]
Трек 11 точное извлечение (доверие 3) [9A0BBAB7]
Трек 12 точное извлечение (доверие 3) [FCE93499]
Трек 13 точное извлечение (доверие 3) [4E850112]
Трек 14 точное извлечение (доверие 3) [A22C7051]
Трек 15 точное извлечение (доверие 3) [32D168B5]

Все треки извлечены точно

Конец отчёта


[CUETools log; Date: 13.08.2017 16:45:11; Version: 2.1.4]
[CTDB TOCID: zmkvsErWcmlr9hVchz1G1mBj4hU-] found.
Track | CTDB Status
1 | (48/48) Accurately ripped
2 | (48/48) Accurately ripped
3 | (48/48) Accurately ripped
4 | (47/48) Accurately ripped, or (1/48) differs in 16 samples @03:38:67-03:38:68
5 | (47/48) Accurately ripped, or (1/48) differs in 1993 samples @03:36:39-03:36:40,03:36:53-03:36:56,03:36:62-03:36:65,03:37:08
6 | (47/48) Accurately ripped, or (1/48) differs in 99 samples @04:05:18-04:05:19
7 | (47/48) Accurately ripped, or (1/48) differs in 3633 samples @04:10:23-04:10:25,04:10:35-04:10:37,04:10:49-04:10:51,04:10:60-04:10:62,04:10:69-04:10:72,04:11:05-04:11:07,04:11:22-04:11:24,04:11:32-04:11:35,04:11:40-04:11:42,04:11:48-04:11:50
8 | (48/48) Accurately ripped
9 | (48/48) Accurately ripped
10 | (48/48) Accurately ripped
11 | (48/48) Accurately ripped
12 | (48/48) Accurately ripped
13 | (48/48) Accurately ripped
14 | (48/48) Accurately ripped
15 | (47/48) Accurately ripped
[AccurateRip ID: 00254907-01a8ca5c-e910ca0f] found.
Track [ CRC | V2 ] Status
01 [c3f69e4a|bd8d8a02] (04+11/15) Accurately ripped
02 [16f83bec|1cb390b0] (04+11/15) Accurately ripped
03 [b94122bb|5e65de64] (04+11/15) Accurately ripped
04 [0e670fa5|189b0108] (04+11/15) Accurately ripped
05 [c132cb2a|0d41699b] (04+11/15) Accurately ripped
06 [88eeecad|8f23720c] (04+11/15) Accurately ripped
07 [7769a06e|eed16f96] (04+11/15) Accurately ripped
08 [6c9d0af3|a9a3f524] (04+11/15) Accurately ripped
09 [39ed1fe1|ff0df8da] (04+11/15) Accurately ripped
10 [7758e40e|829aaccb] (04+11/15) Accurately ripped
11 [9a0bbab7|d19621fc] (04+11/15) Accurately ripped
12 [fce93499|1c6d9778] (04+11/15) Accurately ripped
13 [4e850112|85479784] (04+11/15) Accurately ripped
14 [a22c7051|74d9f9a2] (04+11/15) Accurately ripped
15 [32d168b5|6f5f9e1c] (04+11/15) Accurately ripped

Track Peak [ CRC32 ] [W/O NULL] [ LOG ]
– 100,0 [3F6A3B8A] [25755A97] CRC32
01 100,0 [5AAA8E85] [1601FAD7]
02 100,0 [EDF16005] [772F2279]
03 100,0 [25785E02] [80F36F0C]
04 100,0 [F14B602F] [F2A2895F]
05 100,0 [E5495A62] [C3003AD0]
06 100,0 [B893B0EC] [B65ED0F0]
07 100,0 [CF2FB6A0] [BEC5CE9C]
08 100,0 [16E801BC] [231A313C]
09 100,0 [47891912] [7D4643F9]
10 100,0 [3A0DFE73] [BF6DA123]
11 100,0 [657A7BF6] [44F60CB6]
12 100,0 [C908BC95] [F2789824]
13 100,0 [721FFC2C] [899FF763]
14 100,0 [6F568E5F] [D955698F]
15 100,0 [416429AB] [BB94CC55]


Tracklist CD2:

01. Scream
02. They Don't Care About Us0
03. Stranger In Moscow
04. This Time Around
05. Earth Song
06. D.S.
07. Money
08. Come Together
09. You Are Not Alone
10. Childhood (Theme from "Free Willy 2")
11. Tabloid Junkie
12. 2 Bad
13. HIStory
14. Little Susie
15. Smile

Exact Audio Copy V0.99 prebeta 4 from 23. January 2008

Отчёт EAC об извлечении, выполненном 3. июля 2010, 0:39

Michael Jackson / HIStory: Past, Present And Future, Book I [Disc 2]

Дисковод: Optiarc DVD RW AD-5170A Adapter: 0 ID: 0

Режим чтения : Достоверность
Использование точного потока : Да
Отключение кэша аудио : Да
Использование указателей C2 : Нет

Коррекция смещения при чтении : 48
Способность читать области Lead-in и Lead-out : Нет
Заполнение пропущенных сэмплов тишиной : Да
Удаление блоков с тишиной в начале и конце : Нет
При вычислениях CRC использовались нулевые сэмплы : Да
Интерфейс : Установленный внешний ASPI-интерфейс

Выходной формат : Внутренние WAV-операции
Формат сэмплов : 44.100 Гц; 16 бит; стерео


TOC извлечённого CD

Трек | Старт | Длительность | Начальный сектор | Конечный сектор
––––––––––––––––––––––––––––––––––-
1 | 0:00.00 | 4:38.01 | 0 | 20850
2 | 4:38.01 | 4:44.19 | 20851 | 42169
3 | 9:22.20 | 5:44.27 | 42170 | 67996
4 | 15:06.47 | 4:20.71 | 67997 | 87567
5 | 19:27.43 | 6:46.14 | 87568 | 118031
6 | 26:13.57 | 4:49.43 | 118032 | 139749
7 | 31:03.25 | 4:41.68 | 139750 | 160892
8 | 35:45.18 | 4:02.47 | 160893 | 179089
9 | 39:47.65 | 5:45.31 | 179090 | 204995
10 | 45:33.21 | 4:27.74 | 204996 | 225094
11 | 50:01.20 | 4:32.32 | 225095 | 245526
12 | 54:33.52 | 4:49.51 | 245527 | 267252
13 | 59:23.28 | 6:37.32 | 267253 | 297059
14 | 66:00.60 | 6:13.62 | 297060 | 325096
15 | 72:14.47 | 4:56.71 | 325097 | 347367


Характеристики диапазона извлечения и сообщения об ошибках

Выбранный диапазон

Имя файла D:\Michael Jackson - 6 Album (Japan Mini LP)\1991 - History Past, Present And Future Book I (2 CD)\CD 2\Michael Jackson - HIStory Past, Present And Future, Book I [Disc 2].wav

Пиковый уровень 100.0 %
Качество диапазона 100.0 %
CRC копии B22561F5
Копирование… OK

Ошибок не произошло


AccurateRip: сводка

Трек 1 точное извлечение (доверие 3) [C36F7FC6]
Трек 2 точное извлечение (доверие 3) [987303F8]
Трек 3 точное извлечение (доверие 3) [1C5A477F]
Трек 4 точное извлечение (доверие 3) [BB651550]
Трек 5 точное извлечение (доверие 3) [578AEEC6]
Трек 6 точное извлечение (доверие 3) [B7057EA3]
Трек 7 точное извлечение (доверие 3) [E3597243]
Трек 8 точное извлечение (доверие 3) [F0999D99]
Трек 9 точное извлечение (доверие 3) [3686E7D3]
Трек 10 точное извлечение (доверие 3) [E9CD4482]
Трек 11 точное извлечение (доверие 3) [5D170378]
Трек 12 точное извлечение (доверие 3) [A4351731]
Трек 13 точное извлечение (доверие 3) [06B3CCB3]
Трек 14 точное извлечение (доверие 3) [84D43DD9]
Трек 15 точное извлечение (доверие 3) [3532FC17]

Все треки извлечены точно

Конец отчёта


[CUETools log; Date: 13.08.2017 16:45:43; Version: 2.1.4]
[CTDB TOCID: 5oCrE2.iCbp7kzIddYrjKj4KrYY-] found.
Track | CTDB Status
1 | (54/54) Accurately ripped
2 | (53/54) Accurately ripped, or (1/54) differs in 49 samples @02:14:36,04:43:61
3 | (53/54) Accurately ripped, or (1/54) differs in 1061 samples @05:43:11-05:43:14,05:43:21-05:43:22,05:43:29-05:43:30,05:43:38,05:43:74-05:44:06,05:44:11-05:44:13,05:44:18-05:44:19,05:44:26
4 | (53/54) Accurately ripped, or (1/54) differs in 1720 samples @04:19:57-04:19:59,04:19:72-04:19:73,04:20:05-04:20:06,04:20:18-04:20:19,04:20:34-04:20:35,04:20:42-04:20:44,04:20:50-04:20:51,04:20:56
5 | (54/54) Accurately ripped
6 | (54/54) Accurately ripped
7 | (54/54) Accurately ripped
8 | (54/54) Accurately ripped
9 | (54/54) Accurately ripped
10 | (54/54) Accurately ripped
11 | (54/54) Accurately ripped
12 | (54/54) Accurately ripped
13 | (54/54) Accurately ripped
14 | (53/54) Accurately ripped, or (1/54) differs in 104 samples @06:13:46-06:13:47,06:13:57-06:13:58
15 | (51/54) Accurately ripped, or (1/54) differs in 158 samples @04:55:43-04:55:44,04:55:68
[AccurateRip ID: 0029a32b-01d91266-e612170f] found.
Track [ CRC | V2 ] Status
01 [c36f7fc6|3c485b7f] (04+12/16) Accurately ripped
02 [987303f8|fa7c2f25] (04+12/16) Accurately ripped
03 [1c5a477f|cd81d6e4] (04+12/16) Accurately ripped
04 [bb651550|fd1d4af0] (04+12/16) Accurately ripped
05 [578aeec6|15cb74fa] (04+12/16) Accurately ripped
06 [b7057ea3|12f901e7] (04+12/16) Accurately ripped
07 [e3597243|67cb64e7] (04+12/16) Accurately ripped
08 [f0999d99|5b8c27b1] (04+12/16) Accurately ripped
09 [3686e7d3|2800e2b4] (04+12/16) Accurately ripped
10 [e9cd4482|a99efbde] (04+12/16) Accurately ripped
11 [5d170378|d27f195a] (04+12/16) Accurately ripped
12 [a4351731|88a5264d] (04+12/16) Accurately ripped
13 [06b3ccb3|2aed3d89] (04+12/16) Accurately ripped
14 [84d43dd9|c64f17f6] (04+12/16) Accurately ripped
15 [3532fc17|949de163] (04+12/16) Accurately ripped

Track Peak [ CRC32 ] [W/O NULL] [ LOG ]
– 100,0 [B22561F5] [5D7711EE] CRC32
01 100,0 [944F013B] [75213D8E]
02 100,0 [606A1A58] [DE5066BC]
03 100,0 [7BF4B4D9] [9092756A]
04 100,0 [92B78E3E] [0502D368]
05 100,0 [550DF506] [CCAFA259]
06 100,0 [42CF80B5] [AF50D0B2]
07 100,0 [D7AEA496] [BC835F0A]
08 100,0 [BF656583] [76E32483]
09 100,0 [9BCD1BE0] [1A5D7A00]
10 100,0 [F5D67FD5] [8FED747D]
11 100,0 [FD308864] [CF7D3F75]
12 100,0 [FB9D8A55] [E9DB66F6]
13 100,0 [49C42A3D] [FC6D4D1E]
14 95,1 [02F47F84] [691E36AC]
15 94,4 [11651D40] [02832B7B]


* * * * *

Michael Jackson: Japanese Mini LP Collection (1979-2001)

CD06: Michael Jackson - Invincible (2001)
EAC | Flac(Image) + Cue + Log & MP3 CBR 320Kbps
Epic, EICP 1359 | ~ 548 or 182 Mb | Scans(jpg) -> 80 Mb
Power Pop / Hip Hop / Funk / Soul

Let's get the clichéd bad joke out of the way to begin with: at the time Michael Jackson released Invincible in the fall of 2001, he hardly seemed "invincible" – it was more wishful thinking than anything else, since he hadn't really had a genuine hit in ten years, and even that paled in comparison to his total domination of the '80s. That lack of commercial success, combined with a fading reputation as a trailblazer, a truly ugly public scandal, and swirling rumors about his diminishing finances, along with a huge wait between albums (by teaming his Dangerous follow-up with a hits collection, it wound up being overlooked, despite a gaudy publicity push), resulted in Jackson being deep down in the hole, needing to surge back out with a record that not only proved his talents, but his staying power. So, faced with a make-or-break record, what did Jackson do to save his career? What he did since Dangerous, take a turn toward the street and craft a hard-driving, hard-polished urban soul album, heavy on the dance numbers and sweetened by lugubrious ballads. It's a proven formula for commercial success, but it not only didn't push his music forward, it made his reach seem rather timid when compared to the wildly rich, all-encompassing musical vision of Thriller and Bad. Here, he's reined in by a desire to prove himself, so he keeps his focus sharp and narrow, essentially creating a sparkly, post-hip-hop update of Off the Wall. It's not as good as that sounds, because the infectious joy and layered craft of that masterpiece have been replaced with a dogged, near-maniacal desire to craft something hip enough for the clubs and melodic enough for mainstream radio, thereby confirming his self-proclaimed status as the King of Pop (a really terrible title, btw). Since he was exceptionally talented and smart enough to surround himself with first-rate collaborators, this does pay off on occasion, even when it feels a little too calculated or when it feels a little padded. Ultimately, the record runs too long, losing steam halfway through, as it turns to a series of rants about "Privacy" or a deadly stretch of uncomfortably treacly, sub-"Man in the Mirror" songs about "The Lost Children," or when he says that he can't change the world by himself on "Cry." Fortunately, Jackson was clever enough to front-load this record, loading the first seven songs with really good, edgy dance numbers – even the opening "Unbreakable" isn't sunk by the creepy resurrection of Biggie Smalls – and lovely ballads, highlighted by "Break of Dawn" and "Butterflies" with its Bacharach-styled horns. Even if these are too self-conscious and a little mechanical (which they are), they still have a spark and sound better than anything Jackson had done since Dangerous. That's not enough to make Invincible the comeback Jackson needed – he really would have had to have an album that sounded free instead of constrained for that to work – but it does offer a reminder that he could really craft good pop. If only he had been fueled, not constrained, by his obsessions, this could have been really interesting.

by Stephen Thomas Erlewine, allmusic
Tracklist:

01. Unbreakable
02. Heartbreaker
03. Invincible
04. Break Of Dawn
05. Heaven Can Wait
06. You Rock My World
07. Butterflies
08. Speechless
09. 2000 Watts
10. You Are My Life
11. Privacy
12. Don't Walk Away
13. Cry
14. The Lost Children
15. Whatever Happens
16. Threatened

Exact Audio Copy V0.99 prebeta 4 from 23. January 2008

Отчёт EAC об извлечении, выполненном 2. июля 2010, 23:41

Michael Jackson / Invincible

Дисковод: Optiarc DVD RW AD-5170A Adapter: 0 ID: 0

Режим чтения : Достоверность
Использование точного потока : Да
Отключение кэша аудио : Да
Использование указателей C2 : Нет

Коррекция смещения при чтении : 48
Способность читать области Lead-in и Lead-out : Нет
Заполнение пропущенных сэмплов тишиной : Да
Удаление блоков с тишиной в начале и конце : Нет
При вычислениях CRC использовались нулевые сэмплы : Да
Интерфейс : Установленный внешний ASPI-интерфейс

Выходной формат : Внутренние WAV-операции
Формат сэмплов : 44.100 Гц; 16 бит; стерео


TOC извлечённого CD

Трек | Старт | Длительность | Начальный сектор | Конечный сектор
––––––––––––––––––––––––––––––––––-
1 | 0:00.00 | 6:26.57 | 0 | 29006
2 | 6:26.57 | 5:10.03 | 29007 | 52259
3 | 11:36.60 | 4:45.60 | 52260 | 73694
4 | 16:22.45 | 5:32.67 | 73695 | 98661
5 | 21:55.37 | 4:49.68 | 98662 | 120404
6 | 26:45.30 | 5:39.00 | 120405 | 145829
7 | 32:24.30 | 4:40.10 | 145830 | 166839
8 | 37:04.40 | 3:18.50 | 166840 | 181739
9 | 40:23.15 | 4:24.70 | 181740 | 201609
10 | 44:48.10 | 4:33.37 | 201610 | 222121
11 | 49:21.47 | 5:05.20 | 222122 | 245016
12 | 54:26.67 | 4:24.38 | 245017 | 264854
13 | 58:51.30 | 5:00.57 | 264855 | 287411
14 | 63:52.12 | 4:00.68 | 287412 | 305479
15 | 67:53.05 | 4:56.30 | 305480 | 327709
16 | 72:49.35 | 4:19.10 | 327710 | 347144


Характеристики диапазона извлечения и сообщения об ошибках

Выбранный диапазон

Имя файла D:\Michael Jackson - 6 CD (Japan Mini LP)\2001 - Invisibile\Michael Jackson - Invincible.wav

Пиковый уровень 98.8 %
Качество диапазона 100.0 %
CRC копии B713D992
Копирование… OK

Ошибок не произошло


AccurateRip: сводка

Трек 1 точное извлечение (доверие 3) [FE1725C7]
Трек 2 точное извлечение (доверие 3) [F59D9BCA]
Трек 3 точное извлечение (доверие 3) [9067455C]
Трек 4 точное извлечение (доверие 3) [8D09509A]
Трек 5 точное извлечение (доверие 3) [1B046B0F]
Трек 6 точное извлечение (доверие 3) [CE6D2DBE]
Трек 7 точное извлечение (доверие 3) [8E128D6B]
Трек 8 точное извлечение (доверие 3) [81020796]
Трек 9 точное извлечение (доверие 3) [83A5008E]
Трек 10 точное извлечение (доверие 3) [468C66B2]
Трек 11 точное извлечение (доверие 3) [C0BA2481]
Трек 12 точное извлечение (доверие 3) [E68EA7BC]
Трек 13 точное извлечение (доверие 3) [09C35ABE]
Трек 14 точное извлечение (доверие 3) [AB73F822]
Трек 15 точное извлечение (доверие 3) [61210590]
Трек 16 точное извлечение (доверие 3) [BBC76E71]

Все треки извлечены точно

Конец отчёта


[CUETools log; Date: 13.08.2017 16:46:12; Version: 2.1.4]
[CTDB TOCID: rEkj5jVeWrwpY4n7H3QGOcTNfuU-] found.
Track | CTDB Status
1 | (82/82) Accurately ripped
2 | (81/82) Accurately ripped
3 | (81/82) Accurately ripped
4 | (80/82) Accurately ripped
5 | (81/82) Accurately ripped
6 | (81/82) Accurately ripped
7 | (82/82) Accurately ripped
8 | (82/82) Accurately ripped
9 | (82/82) Accurately ripped
10 | (82/82) Accurately ripped
11 | (82/82) Accurately ripped
12 | (82/82) Accurately ripped
13 | (81/82) Accurately ripped
14 | (82/82) Accurately ripped
15 | (82/82) Accurately ripped
16 | (78/82) Accurately ripped
[AccurateRip ID: 002ed75e-022a0c2b-00121410] found.
Track [ CRC | V2 ] Status
01 [fe1725c7|608cbf1d] (10+21/48) Accurately ripped
02 [f59d9bca|b53afe4c] (10+21/48) Accurately ripped
03 [9067455c|5501fc03] (10+21/48) Accurately ripped
04 [8d09509a|fa6c73ff] (10+21/47) Accurately ripped
05 [1b046b0f|7217458a] (10+21/47) Accurately ripped
06 [ce6d2dbe|deb1d9ff] (10+20/47) Accurately ripped
07 [8e128d6b|2c573358] (10+21/47) Accurately ripped
08 [81020796|dba158a8] (10+21/47) Accurately ripped
09 [83a5008e|05240060] (10+20/46) Accurately ripped
10 [468c66b2|9526b4e6] (10+21/47) Accurately ripped
11 [c0ba2481|f19de86f] (10+21/47) Accurately ripped
12 [e68ea7bc|5d17a236] (10+21/47) Accurately ripped
13 [09c35abe|81c24ccd] (10+21/47) Accurately ripped
14 [ab73f822|69f4874e] (10+21/47) Accurately ripped
15 [61210590|67d03c58] (10+20/45) Accurately ripped
16 [bbc76e71|8ccd9f7b] (10+19/43) Accurately ripped
Offsetted by -17:
01 [97063c1f] (08/48) Accurately ripped
02 [f18cb5b7] (08/48) Accurately ripped
03 [ce3c6bf8] (08/48) Accurately ripped
04 [fea0e7c1] (08/47) Accurately ripped
05 [6482bb38] (08/47) Accurately ripped
06 [42122a74] (08/47) Accurately ripped
07 [cb27b9b2] (08/47) Accurately ripped
08 [cf070a0a] (08/47) Accurately ripped
09 [1ee3e85f] (08/46) Accurately ripped
10 [5a20f408] (08/47) Accurately ripped
11 [ce78cc99] (08/47) Accurately ripped
12 [cf114eaf] (08/47) Accurately ripped
13 [73c72675] (08/47) Accurately ripped
14 [fb8449cd] (08/47) Accurately ripped
15 [2e07429f] (08/45) Accurately ripped
16 [091d968b] (07/43) Accurately ripped

Track Peak [ CRC32 ] [W/O NULL] [ LOG ]
– 98,8 [B713D992] [01948348] CRC32
01 98,8 [D0933542] [768A95C5]
02 98,8 [1E24EDC7] [0A88855D]
03 98,8 [A2E07F48] [C7450355]
04 98,8 [DDB528D9] [BE92983B]
05 98,8 [9368FD65] [05A1B225]
06 98,8 [BAC5B65D] [3AE5A453]
07 98,8 [3DDAFD4F] [1FE24C53]
08 98,8 [D7804D77] [36683815]
09 98,8 [AD887E3D] [EE0A7E89]
10 98,8 [0D253AC3] [F59D36A4]
11 98,8 [3E63155C] [1BB145A3]
12 98,8 [51CBEF79] [D233B0F1]
13 98,8 [8D87EC3B] [DE5C9BE8]
14 98,8 [359932C2] [537BA93B]
15 98,8 [BAC5E2D0] [C2EED244]
16 98,8 [01A8E088] [6A358598]


* * *

All thanks go to Pupo11

Michael Jackson in my Blog

Download Michael Jackson: Japanese Mini LP Collection (1979-2001):