Subcategories

Michael Jackson - The Essential Michael Jackson (2005)

Posted By: popsakov
Michael Jackson - The Essential Michael Jackson (2005)

Michael Jackson - The Essential Michael Jackson (2005)
2CD | EAC Rip | FLAC (Img) + Cue + Log ~ 1,11 Gb | MP3 CBR320 ~ 373 Mb
Full Scans ~ 54 Mb | 01:17:55 + 01:17:22 | RAR 5% Recovery
R&B / Funk / Soul / New Jack Swing / Disco / Dance Pop / Pop Rock
Epic / Legacy / Sony BMG Music / MJJ Productions #5204222000

The Essential Michael Jackson is a greatest hits compilation album by American singer Michael Jackson. It was released on July 19, 2005, by Sony Music's catalog division Legacy Recordings as part of The Essential series. The two-disc compilation features thirty-eight hit songs by Michael Jackson, from his days at Motown Records with The Jackson 5 in the late 1960s to his 2001 hit "You Rock My World". As of 2013, the album was certified 3× platinum in the US.

Michael Jackson - The Essential Michael Jackson (2005)

There are several Michael Jackson greatest-hits compilations out there, each one its own take on what should be the definitive portrait of the gloved one's career. The Ultimate Collection, The Essential Collection (different from the one here), and Number Ones have all surfaced in 2003 and 2004, and HIStory a few years prior. Each one of these collections, while commendable in its attempt to thoroughly document Jackson's accomplishments, has fallen woefully short in one aspect or another. This has finally been rectified with this installment of Sony's outstanding Essential collection. Starting with his campaign with his brothers in the Jackson 5, this two-disc set tours through every important single and every important fan favorite short of including his duet with Paul McCartney on "Say Say Say" (the Beatle does, however, make an appearance here on "The Girl Is Mine"). From Off the Wall to Dangerous, it's all here in one concise package, making it the ideal reference point from which exploration into his deeper catalog can begin. While die-hard fans will already have every single song contained herein and may be weary to purchase another greatest-hits compilation short of a greatest-hits compilation including his backing vocals on Rockwell's "Somebody's Watching Me," this may be the only one fans and casual listeners will ever have to purchase to get their fill of the King of Pop's magic.

~ Rob Theakston, All Music

***************

Michael Jackson - The Essential Michael Jackson (2005)

Track List CD1:

01. I Want You Back (The Jackson 5) [0:02:58.57]
02. ABC (The Jackson 5) [0:02:57.10]
03. The Love You Save (The Jackson 5) [0:03:05.08]
04. Got to Be There [0:03:25.02]
05. Rockin' Robin [0:02:32.62]
06. Ben [0:02:46.18]
07. Blame It on the Boogie (The Jacksons) [0:03:30.40]
08. Shake Your Body (Down to the Ground) (The Jacksons) [0:03:45.54]
09. Don't Stop 'Til You Get Enough [0:03:56.35]
10. Off the Wall [0:03:46.00]
11. Rock with You [0:03:23.06]
12. She's Out of my Life [0:03:37.20]
13. Can You Feel It [0:03:50.23]
14. The Girl Is Mine (Michael Jackson & Paul McCartney) [0:03:41.68]
15. Billie Jean [0:04:52.72]
16. Beat It [0:04:18.03]
17. Wanna Be Startin' Somethin' [0:04:17.30]
18. Human Nature [0:03:45.73]
19. P.Y.T. (Pretty Young Thing) [0:03:58.55]
20. I Just Can't Stop Loving You (Michael Jackson & Siedah Garrett) [0:04:11.66]
21. Thriller [0:05:14.40]

Exact Audio Copy V1.0 beta 3 from 29. August 2011

EAC extraction logfile from 5. October 2015, 7:41

Michael Jackson / The Essential Michael Jackson (CD1)

Used drive : ATAPI iHAS124 D Adapter: 0 ID: 2

Read mode : Secure
Utilize accurate stream : Yes
Defeat audio cache : Yes
Make use of C2 pointers : No

Read offset correction : 6
Overread into Lead-In and Lead-Out : No
Fill up missing offset samples with silence : Yes
Delete leading and trailing silent blocks : No
Null samples used in CRC calculations : Yes
Used interface : Installed external ASPI interface

Used output format : User Defined Encoder
Selected bitrate : 1024 kBit/s
Quality : High
Add ID3 tag : No
Command line compressor : C:\Program Files (x86)\Exact Audio Copy\Flac\flac.exe
Additional command line options : -6 -V -T "ARTIST=%artist%" -T "TITLE=%title%" -T "ALBUM=%albumtitle%" -T "DATE=%year%" -T "TRACKNUMBER=%tracknr%" -T "GENRE=%genre%" -T "COMMENT=%comment%" -T "BAND=%albuminterpret%" -T "COMPOSER=%composer%" %haslyrics%–tag-from-file=LYRICS="%lyricsfile%"%haslyrics% -T "DISCNUMBER=%cdnumber%" -T "TOTALDISCS=%totalcds%" -T "TOTALTRACKS=%numtracks%" %hascover%–picture="%coverfile%"%hascover% %source% -o %dest%


TOC of the extracted CD

Track | Start | Length | Start sector | End sector
––––––––––––––––––––––––––––-
1 | 0:00.00 | 2:58.57 | 0 | 13406
2 | 2:58.57 | 2:57.10 | 13407 | 26691
3 | 5:55.67 | 3:05.08 | 26692 | 40574
4 | 9:01.00 | 3:25.02 | 40575 | 55951
5 | 12:26.02 | 2:32.62 | 55952 | 67413
6 | 14:58.64 | 2:46.18 | 67414 | 79881
7 | 17:45.07 | 3:30.40 | 79882 | 95671
8 | 21:15.47 | 3:45.54 | 95672 | 112600
9 | 25:01.26 | 3:56.35 | 112601 | 130335
10 | 28:57.61 | 3:46.00 | 130336 | 147285
11 | 32:43.61 | 3:23.06 | 147286 | 162516
12 | 36:06.67 | 3:37.20 | 162517 | 178811
13 | 39:44.12 | 3:50.23 | 178812 | 196084
14 | 43:34.35 | 3:41.68 | 196085 | 212727
15 | 47:16.28 | 4:52.72 | 212728 | 234699
16 | 52:09.25 | 4:18.03 | 234700 | 254052
17 | 56:27.28 | 4:17.30 | 254053 | 273357
18 | 60:44.58 | 3:45.73 | 273358 | 290305
19 | 64:30.56 | 3:58.55 | 290306 | 308210
20 | 68:29.36 | 4:11.66 | 308211 | 327101
21 | 72:41.27 | 5:14.40 | 327102 | 350691


Range status and errors

Selected range

Filename C:\mm\Michael Jackson\2005 - The Essential Michael Jackson [5204222000]\Michael Jackson - The Essential Michael Jackson (CD1).wav

Peak level 100.0 %
Extraction speed 9.9 X
Range quality 99.9 %
Test CRC A6D69D13
Copy CRC A6D69D13
Copy OK

No errors occurred


AccurateRip summary

Track 1 accurately ripped (confidence 63) [315A61B4] (AR v2)
Track 2 accurately ripped (confidence 64) [069734B7] (AR v2)
Track 3 accurately ripped (confidence 62) [75A56BC8] (AR v2)
Track 4 accurately ripped (confidence 63) [39B347B6] (AR v2)
Track 5 accurately ripped (confidence 64) [18537530] (AR v2)
Track 6 accurately ripped (confidence 65) [8D26B270] (AR v2)
Track 7 accurately ripped (confidence 63) [40F8BB9F] (AR v2)
Track 8 accurately ripped (confidence 63) [8EB54687] (AR v2)
Track 9 accurately ripped (confidence 62) [D0C93CD9] (AR v2)
Track 10 accurately ripped (confidence 64) [57787852] (AR v2)
Track 11 accurately ripped (confidence 62) [AC97428E] (AR v2)
Track 12 accurately ripped (confidence 62) [13E5F33A] (AR v2)
Track 13 accurately ripped (confidence 63) [FC0F54C6] (AR v2)
Track 14 accurately ripped (confidence 61) [F63E9DED] (AR v2)
Track 15 accurately ripped (confidence 62) [43919D12] (AR v2)
Track 16 accurately ripped (confidence 63) [0CB68A83] (AR v2)
Track 17 accurately ripped (confidence 62) [E9D60CC1] (AR v2)
Track 18 accurately ripped (confidence 60) [DB7F546B] (AR v2)
Track 19 accurately ripped (confidence 59) [CCEB1FDB] (AR v2)
Track 20 accurately ripped (confidence 61) [C9CF44AE] (AR v2)
Track 21 accurately ripped (confidence 60) [69CBDE8C] (AR v2)

All tracks accurately ripped

End of status report

[CUETools log; Date: 30.07.2016 1:58:51; Version: 2.1.5]
[CTDB TOCID: NJuAaO0sg_gDBLGPXdoZjuXm_iM-] found.
Track | CTDB Status
1 | (529/541) Accurately ripped
2 | (534/541) Accurately ripped
3 | (533/541) Accurately ripped
4 | (534/541) Accurately ripped
5 | (537/541) Accurately ripped
6 | (536/541) Accurately ripped
7 | (537/541) Accurately ripped
8 | (535/541) Accurately ripped
9 | (536/541) Accurately ripped
10 | (536/541) Accurately ripped
11 | (530/541) Accurately ripped
12 | (537/541) Accurately ripped
13 | (536/541) Accurately ripped
14 | (537/541) Accurately ripped
15 | (536/541) Accurately ripped
16 | (536/541) Accurately ripped
17 | (533/541) Accurately ripped
18 | (530/541) Accurately ripped
19 | (531/541) Accurately ripped
20 | (531/541) Accurately ripped
21 | (528/541) Accurately ripped
[AccurateRip ID: 00364bed-0351ae6b-39124315] found.
Track [ CRC | V2 ] Status
01 [572c9493|315a61b4] (087+077/605) Accurately ripped
02 [a307ee44|069734b7] (086+078/610) Accurately ripped
03 [e9e9acd0|75a56bc8] (086+076/601) Accurately ripped
04 [08358b89|39b347b6] (086+077/600) Accurately ripped
05 [ae74576d|18537530] (086+078/607) Accurately ripped
06 [ac5fffbc|8d26b270] (085+079/606) Accurately ripped
07 [3847ba86|40f8bb9f] (088+077/610) Accurately ripped
08 [9f57b51e|8eb54687] (087+076/605) Accurately ripped
09 [6b180655|d0c93cd9] (087+076/608) Accurately ripped
10 [d9212f09|57787852] (086+078/605) Accurately ripped
11 [2bb92ea9|ac97428e] (085+076/601) Accurately ripped
12 [2c554c80|13e5f33a] (084+076/596) Accurately ripped
13 [3d8851f7|fc0f54c6] (086+077/607) Accurately ripped
14 [acc68091|f63e9ded] (084+075/602) Accurately ripped
15 [7406253e|43919d12] (083+076/606) Accurately ripped
16 [431cd47b|0cb68a83] (083+077/612) Accurately ripped
17 [c9acd4ef|e9d60cc1] (084+076/597) Accurately ripped
18 [17590161|db7f546b] (082+074/591) Accurately ripped
19 [8383fde4|cceb1fdb] (083+073/590) Accurately ripped
20 [9b0d9172|c9cf44ae] (083+075/590) Accurately ripped
21 [634ce092|69cbde8c] (077+074/576) Accurately ripped
Offsetted by -709:
01 [8e7819b3] (005/605) Accurately ripped
02 [d2e256bc] (005/610) Accurately ripped
03 [21efc255] (005/601) Accurately ripped
04 [7e1bc06e] (005/600) Accurately ripped
05 [011a22a4] (005/607) Accurately ripped
06 [d0f76560] (005/606) Accurately ripped
07 [4de29513] (005/610) Accurately ripped
08 [0c214c60] (005/605) Accurately ripped
09 [b97ebecd] (004/608) Accurately ripped
10 [6b98f8ae] (005/605) Accurately ripped
11 [d82be15e] (005/601) Accurately ripped
12 [af2bd61c] (005/596) Accurately ripped
13 [26d2861c] (005/607) Accurately ripped
14 [15f1ebf0] (005/602) Accurately ripped
15 [7e60c69f] (005/606) Accurately ripped
16 [d8a81c13] (005/612) Accurately ripped
17 [a19496f1] (005/597) Accurately ripped
18 [cb81fcb4] (005/591) Accurately ripped
19 [3f6b4a80] (005/590) Accurately ripped
20 [05a41032] (005/590) Accurately ripped
21 [b532dec4] (005/576) Accurately ripped
Offsetted by -664:
01 [53f736a8] (006/605) Accurately ripped
02 [4be00305] (006/610) Accurately ripped
03 [74f5c497] (006/601) Accurately ripped
04 [4ffdfabb] (006/600) Accurately ripped
05 [86afc26d] (006/607) Accurately ripped
06 [d5173cda] (006/606) Accurately ripped
07 [fd128b62] (006/610) Accurately ripped
08 [5c5dd4c0] (006/605) Accurately ripped
09 [5fc66416] (006/608) Accurately ripped
10 [8e0eda64] (006/605) Accurately ripped
11 [6846f576] (006/601) Accurately ripped
12 [7c1521ee] (006/596) Accurately ripped
13 [4eb935d3] (006/607) Accurately ripped
14 [22cb6d68] (006/602) Accurately ripped
15 [8b6f8a05] (006/606) Accurately ripped
16 [231af926] (006/612) Accurately ripped
17 [8db4f65a] (006/597) Accurately ripped
18 [ac4e80d7] (006/591) Accurately ripped
19 [c6f54b19] (006/590) Accurately ripped
20 [0680138b] (006/590) Accurately ripped
21 [9c33cc25] (006/576) Accurately ripped
Offsetted by -646:
01 [d119bf38] (003/605) Accurately ripped
02 [4b9bf1c4] (003/610) Accurately ripped
03 [ae1577a1] (003/601) Accurately ripped
04 [d8a7cb63] (003/600) Accurately ripped
05 [ae51b4d4] (003/607) Accurately ripped
06 [e656ab9c] (003/606) Accurately ripped
07 [8951c4f4] (003/610) Accurately ripped
08 [f30e1ef1] (003/605) Accurately ripped
09 [aabf0203] (003/608) Accurately ripped
10 [45b171ae] (003/605) Accurately ripped
11 [3bde37b5] (003/601) Accurately ripped
12 [d61a0444] (003/596) Accurately ripped
13 [0ad9978b] (003/607) Accurately ripped
14 [9322399e] (003/602) Accurately ripped
15 [991cae46] (004/606) Accurately ripped
16 [294bd699] (004/612) Accurately ripped
17 [7fa393b5] (004/597) Accurately ripped
18 [813d70a0] (003/591) Accurately ripped
19 [2d002dde] (004/590) Accurately ripped
20 [0904634f] (004/590) Accurately ripped
21 [5aa7e1bc] (003/576) Accurately ripped
Offsetted by -18:
01 [3123213a] (002/605) Accurately ripped
02 [b61b2216] (002/610) Accurately ripped
03 [95572eb6] (002/601) Accurately ripped
04 [dcd1c4c8] (002/600) Accurately ripped
05 [2d342df1] (002/607) Accurately ripped
06 [d4ecd16d] (002/606) Accurately ripped
07 [43afe5b9] (002/610) Accurately ripped
08 [c44b4459] (002/605) Accurately ripped
09 [2ccd802b] (002/608) Accurately ripped
10 [4eb137cd] (002/605) Accurately ripped
11 [ef28e375] (002/601) Accurately ripped
12 [6a6f9df8] (002/596) Accurately ripped
13 [e446ec4c] (002/607) Accurately ripped
14 [2dbeb446] (002/602) Accurately ripped
15 [ed574d9c] (002/606) Accurately ripped
16 [a60f98e9] (002/612) Accurately ripped
17 [8a5de188] (002/597) Accurately ripped
18 [18117d97] (002/591) Accurately ripped
19 [ca292590] (002/590) Accurately ripped
20 [1a13c673] (002/590) Accurately ripped
21 [98bd939f] (002/576) Accurately ripped
Offsetted by -12:
01 [b1d1a86e] (021/605) Accurately ripped
02 [d3b65397] (021/610) Accurately ripped
03 [45b54b99] (020/601) Accurately ripped
04 [d10d42ad] (021/600) Accurately ripped
05 [40a7b767] (021/607) Accurately ripped
06 [d58f7282] (021/606) Accurately ripped
07 [75c5bd6d] (021/610) Accurately ripped
08 [7d4930d1] (021/605) Accurately ripped
09 [bb7fcbf9] (021/608) Accurately ripped
10 [8920423b] (021/605) Accurately ripped
11 [1e1f0b56] (021/601) Accurately ripped
12 [86c8d827] (021/596) Accurately ripped
13 [064b303e] (020/607) Accurately ripped
14 [c7f7fd47] (021/602) Accurately ripped
15 [06149606] (021/606) Accurately ripped
16 [7eee265b] (021/612) Accurately ripped
17 [f94f4aff] (021/597) Accurately ripped
18 [1cbd4f05] (021/591) Accurately ripped
19 [80709366] (021/590) Accurately ripped
20 [7b8fe067] (021/590) Accurately ripped
21 [1cdab879] (020/576) Accurately ripped
Offsetted by 36:
01 [04aee48d] (155/605) Accurately ripped
02 [7d88e6f8] (157/610) Accurately ripped
03 [f37200f9] (155/601) Accurately ripped
04 [8afac030] (154/600) Accurately ripped
05 [a7e55ef8] (157/607) Accurately ripped
06 [ed269c49] (156/606) Accurately ripped
07 [c57769cb] (159/610) Accurately ripped
08 [5d186e0f] (156/605) Accurately ripped
09 [521c9f5d] (158/608) Accurately ripped
10 [7bd0e5bc] (155/605) Accurately ripped
11 [3d860b95] (157/601) Accurately ripped
12 [7ba210c7] (151/596) Accurately ripped
13 [15cc777e] (157/607) Accurately ripped
14 [354ef2dc] (154/602) Accurately ripped
15 [326ad449] (157/606) Accurately ripped
16 [390bfb4c] (158/612) Accurately ripped
17 [4e9372dc] (152/597) Accurately ripped
18 [31edbbb3] (150/591) Accurately ripped
19 [c0e35161] (151/590) Accurately ripped
20 [c5737c13] (149/590) Accurately ripped
21 [2fe57a6a] (153/576) Accurately ripped
Offsetted by -838:
01 [ac1b5c9b] (000/605) No match
02 [5387550f] (000/610) No match
03 [eb3cde81] (000/601) No match
04 [f9a084ca] (000/600) No match
05 [343a1774] (000/607) No match
06 [8619e660] (000/606) No match
07 [7eaf2405] (000/610) No match
08 [14d06961] (000/605) No match
09 [cf8629fe] (000/608) No match
10 [63c15da7] (000/605) No match
11 [12596281] (000/601) No match (V2 was not tested)
12 [c6cb52a2] (000/596) No match
13 [22dac729] (000/607) No match
14 [442106f1] (000/602) No match
15 [100be51c] (000/606) No match
16 [de0f3d65] (000/612) No match
17 [646ddbe2] (000/597) No match
18 [bba4425a] (000/591) No match
19 [53baa3ea] (000/590) No match
20 [c4b1ecc2] (000/590) No match
21 [1eb57213] (000/576) No match
Offsetted by -649:
01 [752dd98a] (002/605) Accurately ripped
02 [e8257d4d] (002/610) Accurately ripped
03 [c790a53e] (002/601) Accurately ripped
04 [e57b580c] (002/600) Accurately ripped
05 [4d0a058a] (002/607) Accurately ripped
06 [8fa37343] (002/606) Accurately ripped
07 [c2469ea0] (002/610) Accurately ripped
08 [0784cca1] (002/605) Accurately ripped
09 [e62dad79] (002/608) Accurately ripped
10 [d6f5744d] (002/605) Accurately ripped
11 [1a16ea52] (002/601) Accurately ripped
12 [7a74e71e] (002/596) Accurately ripped
13 [4dde5ec8] (002/607) Accurately ripped
14 [29becdbf] (002/602) Accurately ripped
15 [e3ccd4c8] (002/606) Accurately ripped
16 [359b25e4] (002/612) Accurately ripped
17 [efcd54d9] (002/597) Accurately ripped
18 [c63075bd] (002/591) Accurately ripped
19 [0b849bf5] (002/590) Accurately ripped
20 [7e54426f] (002/590) Accurately ripped
21 [3fb09d2c] (000/576) No match (V2 was not tested)
Offsetted by -631:
01 [93d68ae6] (000/605) No match (V2 was not tested)
02 [eaa096e8] (000/610) No match (V2 was not tested)
03 [d0867939] (000/601) No match (V2 was not tested)
04 [5b9431c8] (000/600) No match (V2 was not tested)
05 [d015ceae] (000/607) No match (V2 was not tested)
06 [4045c4e9] (000/606) No match (V2 was not tested)
07 [dab09921] (000/610) No match (V2 was not tested)
08 [bc576dec] (000/605) No match (V2 was not tested)
09 [e0a390ec] (000/608) No match (V2 was not tested)
10 [d3992f3d] (000/605) No match (V2 was not tested)
11 [5f93dd29] (000/601) No match (V2 was not tested)
12 [3f2ffb2c] (000/596) No match (V2 was not tested)
13 [f807b25d] (000/607) No match (V2 was not tested)
14 [81646085] (000/602) No match (V2 was not tested)
15 [a6ba3d6d] (000/606) No match (V2 was not tested)
16 [f47b4486] (000/612) No match (V2 was not tested)
17 [e994bad0] (000/597) No match (V2 was not tested)
18 [d45ccd68] (000/591) No match (V2 was not tested)
19 [eea1fdfd] (000/590) No match (V2 was not tested)
20 [030dfe2e] (000/590) No match (V2 was not tested)
21 [3e25c8bd] (000/576) No match (V2 was not tested)
Offsetted by -622:
01 [e0c31940] (002/605) Accurately ripped
02 [fa600d4c] (002/610) Accurately ripped
03 [47a3a3f6] (000/601) No match (V2 was not tested)
04 [198d6d9f] (000/600) No match (V2 was not tested)
05 [f1deaa8b] (002/607) Accurately ripped
06 [bb952825] (000/606) No match (V2 was not tested)
07 [de3ac520] (000/610) No match (V2 was not tested)
08 [4c09bbcf] (000/605) No match (V2 was not tested)
09 [f7968e84] (002/608) Accurately ripped
10 [faa15f0c] (000/605) No match (V2 was not tested)
11 [bd47900a] (000/601) No match (V2 was not tested)
12 [5018ed51] (000/596) No match (V2 was not tested)
13 [469d9829] (000/607) No match (V2 was not tested)
14 [08923e00] (000/602) No match (V2 was not tested)
15 [752c5383] (002/606) Accurately ripped
16 [72d57211] (002/612) Accurately ripped
17 [88664858] (000/597) No match (V2 was not tested)
18 [a08bb046] (000/591) No match (V2 was not tested)
19 [f4451546] (000/590) No match (V2 was not tested)
20 [0dba5d0e] (000/590) No match (V2 was not tested)
21 [b54b53dd] (002/576) Accurately ripped
Offsetted by -51:
01 [20fabbfa] (000/605) No match (V2 was not tested)
02 [30ee4e7b] (002/610) Accurately ripped
03 [1f933e08] (000/601) No match (V2 was not tested)
04 [b6820eff] (000/600) No match (V2 was not tested)
05 [eba073e3] (000/607) No match (V2 was not tested)
06 [fa143c7d] (002/606) Accurately ripped
07 [4660d490] (002/610) Accurately ripped
08 [705d7bda] (002/605) Accurately ripped
09 [4a2779cd] (002/608) Accurately ripped
10 [f1525668] (002/605) Accurately ripped
11 [b1714b21] (002/601) Accurately ripped
12 [a902f8be] (002/596) Accurately ripped
13 [2d0e6e9a] (002/607) Accurately ripped
14 [d9893020] (003/602) Accurately ripped
15 [9b42a527] (002/606) Accurately ripped
16 [cacaa169] (002/612) Accurately ripped
17 [86639607] (002/597) Accurately ripped
18 [556a9d44] (002/591) Accurately ripped
19 [a98472b2] (002/590) Accurately ripped
20 [6f4f3450] (002/590) Accurately ripped
21 [bf4be4f4] (000/576) No match (V2 was not tested)
Offsetted by -36:
01 [ff5f1679] (000/605) No match (V2 was not tested)
02 [c80bf0c7] (000/610) No match (V2 was not tested)
03 [fe626cac] (000/601) No match (V2 was not tested)
04 [aa6b72a8] (000/600) No match (V2 was not tested)
05 [de44db69] (000/607) No match (V2 was not tested)
06 [a795b7bf] (000/606) No match (V2 was not tested)
07 [57658cbd] (000/610) No match (V2 was not tested)
08 [f7b15784] (000/605) No match (V2 was not tested)
09 [2a497db1] (000/608) No match (V2 was not tested)
10 [3332a051] (000/605) No match (V2 was not tested)
11 [ba6248e0] (000/601) No match (V2 was not tested)
12 [0f728a31] (000/596) No match (V2 was not tested)
13 [00fa3d29] (000/607) No match (V2 was not tested)
14 [262b23d5] (000/602) No match (V2 was not tested)
15 [ad85ac27] (000/606) No match (V2 was not tested)
16 [bad8a402] (000/612) No match (V2 was not tested)
17 [cfca01cb] (000/597) No match (V2 was not tested)
18 [4576cb87] (000/591) No match (V2 was not tested)
19 [9d1ae539] (000/590) No match (V2 was not tested)
20 [90b1f657] (000/590) No match (V2 was not tested)
21 [29eb1a07] (000/576) No match (V2 was not tested)
Offsetted by -30:
01 [a8695f27] (000/605) No match
02 [15dde489] (000/610) No match (V2 was not tested)
03 [659a2bde] (000/601) No match (V2 was not tested)
04 [1e398df6] (000/600) No match (V2 was not tested)
05 [79a7f1dd] (000/607) No match (V2 was not tested)
06 [b0275f94] (000/606) No match (V2 was not tested)
07 [10cefed2] (000/610) No match (V2 was not tested)
08 [0eddd7d4] (000/605) No match (V2 was not tested)
09 [98036c3f] (000/608) No match (V2 was not tested)
10 [9a7d4b02] (000/605) No match (V2 was not tested)
11 [ea66c024] (000/601) No match (V2 was not tested)
12 [5f9a29a2] (000/596) No match (V2 was not tested)
13 [4ffd0ae7] (000/607) No match (V2 was not tested)
14 [ee7a1a97] (000/602) No match (V2 was not tested)
15 [23ff7595] (000/606) No match (V2 was not tested)
16 [07e2eaa6] (000/612) No match (V2 was not tested)
17 [6812cbc0] (000/597) No match (V2 was not tested)
18 [0fdcf996] (000/591) No match (V2 was not tested)
19 [9fa4b78d] (000/590) No match (V2 was not tested)
20 [77e9175c] (000/590) No match (V2 was not tested)
21 [b834a31c] (000/576) No match (V2 was not tested)
Offsetted by 42:
01 [04e9206f] (000/605) No match (V2 was not tested)
02 [3db04941] (000/610) No match (V2 was not tested)
03 [61e9f551] (000/601) No match (V2 was not tested)
04 [4644dbda] (000/600) No match (V2 was not tested)
05 [ef471a8b] (000/607) No match (V2 was not tested)
06 [9496b833] (000/606) No match (V2 was not tested)
07 [6bf7849a] (000/610) No match (V2 was not tested)
08 [9c57e335] (000/605) No match (V2 was not tested)
09 [55ba7638] (000/608) No match (V2 was not tested)
10 [b68163f0] (000/605) No match (V2 was not tested)
11 [1652d24d] (000/601) No match (V2 was not tested)
12 [00a07ca4] (000/596) No match (V2 was not tested)
13 [d909bc91] (000/607) No match (V2 was not tested)
14 [fe85c523] (000/602) No match (V2 was not tested)
15 [5ba610dd] (000/606) No match (V2 was not tested)
16 [7a0a5bdb] (000/612) No match (V2 was not tested)
17 [45c8d271] (000/597) No match (V2 was not tested)
18 [2912bb71] (000/591) No match (V2 was not tested)
19 [5fe87474] (000/590) No match (V2 was not tested)
20 [84838b7c] (000/590) No match (V2 was not tested)
21 [c17372ad] (000/576) No match (V2 was not tested)
Offsetted by 646:
01 [d97dd5dd] (000/605) No match (V2 was not tested)
02 [c198cc70] (000/610) No match (V2 was not tested)
03 [97eae9d1] (000/601) No match (V2 was not tested)
04 [94244e57] (000/600) No match (V2 was not tested)
05 [9a82ca50] (000/607) No match (V2 was not tested)
06 [96d02d03] (000/606) No match (V2 was not tested)
07 [43aa0f85] (000/610) No match (V2 was not tested)
08 [352be903] (000/605) No match (V2 was not tested)
09 [d7ba1a8b] (000/608) No match (V2 was not tested)
10 [89dba0e1] (000/605) No match (V2 was not tested)
11 [1f236d26] (000/601) No match (V2 was not tested)
12 [f9c1600a] (000/596) No match (V2 was not tested)
13 [418f1a80] (000/607) No match (V2 was not tested)
14 [02f68dc1] (000/602) No match (V2 was not tested)
15 [b4f9be9d] (000/606) No match (V2 was not tested)
16 [8804a3a4] (000/612) No match (V2 was not tested)
17 [a1a8c56b] (000/597) No match (V2 was not tested)
18 [454d3f29] (000/591) No match (V2 was not tested)
19 [9795793e] (000/590) No match (V2 was not tested)
20 [93a890cc] (000/590) No match (V2 was not tested)
21 [883cca37] (000/576) No match (V2 was not tested)

Track Peak [ CRC32 ] [W/O NULL] [ LOG ]
– 100,0 [A6D69D13] [687A3FA3] CRC32
01 88,1 [3400D49F] [1878F36E]
02 98,9 [6768E908] [B49D9851]
03 100,0 [80BDB288] [3BF1A785]
04 93,3 [5251BE63] [9FFBAE58]
05 100,0 [3B621CF8] [473754A3]
06 88,1 [D7BDECC2] [021D700B]
07 100,0 [7F5CAA49] [569A88E6]
08 88,2 [837750A4] [50F9EC7B]
09 88,1 [2B787E27] [03B5CF0F]
10 100,0 [8D0190AC] [441FE85B]
11 98,9 [9EB86717] [1AEC1C87]
12 92,6 [75406FBC] [8C8A232A]
13 100,0 [FB7F3876] [1E3B5AF1]
14 98,9 [CE69131C] [B460D88A]
15 91,2 [7475AB70] [B525D30C]
16 98,9 [E856ECD6] [88E30F79]
17 100,0 [42BD76F5] [813E7113]
18 93,3 [EFBACBC5] [9C7CC943]
19 93,3 [70D3BD34] [25D2EC7A]
20 88,1 [6158FA19] [53C40F26]
21 94,3 [62D4DC44] [F8F6867F]

Michael Jackson - The Essential Michael Jackson (2005)

Track List CD2:

01. Bad [0:04:06.52]
02. The Way You Make Me Feel [0:04:26.26]
03. Man In The Mirror [0:05:18.72]
04. Dirty Diana [0:04:40.57]
05. Another Part Of Me [0:03:46.46]
06. Smooth Criminal [0:04:17.18]
07. Leave Me Alone [0:04:39.66]
08. Black Or White [0:03:21.40]
09. Remember The Time [0:03:59.67]
10. In The Closet [0:04:48.61]
11. Who Is It [0:03:59.42]
12. Heal The World [0:06:24.70]
13. Will You Be There [0:03:40.24]
14. You Are Not Alone [0:04:55.74]
15. Earth Song [0:05:02.08]
16. They Don't Care About Us [0:04:44.29]
17. You Rock My World [0:05:08.25]

Exact Audio Copy V1.0 beta 3 from 29. August 2011

EAC extraction logfile from 5. October 2015, 8:13

Michael Jackson / The Essential Michael Jackson (CD2)

Used drive : ATAPI iHAS124 D Adapter: 0 ID: 2

Read mode : Secure
Utilize accurate stream : Yes
Defeat audio cache : Yes
Make use of C2 pointers : No

Read offset correction : 6
Overread into Lead-In and Lead-Out : No
Fill up missing offset samples with silence : Yes
Delete leading and trailing silent blocks : No
Null samples used in CRC calculations : Yes
Used interface : Installed external ASPI interface

Used output format : User Defined Encoder
Selected bitrate : 1024 kBit/s
Quality : High
Add ID3 tag : No
Command line compressor : C:\Program Files (x86)\Exact Audio Copy\Flac\flac.exe
Additional command line options : -6 -V -T "ARTIST=%artist%" -T "TITLE=%title%" -T "ALBUM=%albumtitle%" -T "DATE=%year%" -T "TRACKNUMBER=%tracknr%" -T "GENRE=%genre%" -T "COMMENT=%comment%" -T "BAND=%albuminterpret%" -T "COMPOSER=%composer%" %haslyrics%–tag-from-file=LYRICS="%lyricsfile%"%haslyrics% -T "DISCNUMBER=%cdnumber%" -T "TOTALDISCS=%totalcds%" -T "TOTALTRACKS=%numtracks%" %hascover%–picture="%coverfile%"%hascover% %source% -o %dest%


TOC of the extracted CD

Track | Start | Length | Start sector | End sector
––––––––––––––––––––––––––––-
1 | 0:00.00 | 4:06.52 | 0 | 18501
2 | 4:06.52 | 4:26.26 | 18502 | 38477
3 | 8:33.03 | 5:18.72 | 38478 | 62399
4 | 13:52.00 | 4:40.57 | 62400 | 83456
5 | 18:32.57 | 3:46.46 | 83457 | 100452
6 | 22:19.28 | 4:17.18 | 100453 | 119745
7 | 26:36.46 | 4:39.66 | 119746 | 140736
8 | 31:16.37 | 3:21.40 | 140737 | 155851
9 | 34:38.02 | 3:59.67 | 155852 | 173843
10 | 38:37.69 | 4:48.61 | 173844 | 195504
11 | 43:26.55 | 3:59.42 | 195505 | 213471
12 | 47:26.22 | 6:24.70 | 213472 | 242341
13 | 53:51.17 | 3:40.24 | 242342 | 258865
14 | 57:31.41 | 4:55.74 | 258866 | 281064
15 | 62:27.40 | 5:02.08 | 281065 | 303722
16 | 67:29.48 | 4:44.29 | 303723 | 325051
17 | 72:14.02 | 5:08.25 | 325052 | 348176


Range status and errors

Selected range

Filename C:\mm\Michael Jackson\2005 - The Essential Michael Jackson [5204222000]\Michael Jackson - The Essential Michael Jackson (CD2).wav

Peak level 100.0 %
Extraction speed 10.2 X
Range quality 99.9 %
Test CRC F822A86A
Copy CRC F822A86A
Copy OK

No errors occurred


AccurateRip summary

Track 1 accurately ripped (confidence 39) [9A2A7AA0] (AR v2)
Track 2 accurately ripped (confidence 39) [76FAA5A2] (AR v2)
Track 3 accurately ripped (confidence 39) [0F3E063E] (AR v2)
Track 4 accurately ripped (confidence 40) [3FC94497] (AR v2)
Track 5 accurately ripped (confidence 39) [164A619C] (AR v2)
Track 6 accurately ripped (confidence 38) [4A6FE292] (AR v2)
Track 7 accurately ripped (confidence 39) [66F05741] (AR v2)
Track 8 accurately ripped (confidence 39) [0AD6D938] (AR v2)
Track 9 accurately ripped (confidence 40) [1D025782] (AR v2)
Track 10 accurately ripped (confidence 39) [08FB9B87] (AR v2)
Track 11 accurately ripped (confidence 40) [2D4D61B4] (AR v2)
Track 12 accurately ripped (confidence 38) [89018242] (AR v2)
Track 13 accurately ripped (confidence 40) [A8E123E0] (AR v2)
Track 14 accurately ripped (confidence 40) [BCEE2D8D] (AR v2)
Track 15 accurately ripped (confidence 37) [28233ABC] (AR v2)
Track 16 accurately ripped (confidence 39) [DFA502DA] (AR v2)
Track 17 accurately ripped (confidence 36) [425E0A2D] (AR v2)

All tracks accurately ripped

End of status report

[CUETools log; Date: 30.07.2016 2:00:43; Version: 2.1.5]
[CTDB TOCID: TCJzB_hluonpVh.TAoslr_CEon0-] found.
Track | CTDB Status
1 | (504/510) Accurately ripped
2 | (504/510) Accurately ripped
3 | (504/510) Accurately ripped
4 | (506/510) Accurately ripped
5 | (504/510) Accurately ripped
6 | (505/510) Accurately ripped
7 | (505/510) Accurately ripped
8 | (505/510) Accurately ripped
9 | (505/510) Accurately ripped
10 | (504/510) Accurately ripped
11 | (507/510) Accurately ripped
12 | (503/510) Accurately ripped
13 | (507/510) Accurately ripped
14 | (505/510) Accurately ripped
15 | (500/510) Accurately ripped
16 | (503/510) Accurately ripped
17 | (503/510) Accurately ripped
[AccurateRip ID: 002eb7a7-02514d6e-f3122211] found.
Track [ CRC | V2 ] Status
01 [b7f12071|9a2a7aa0] (055+047/582) Accurately ripped
02 [20f50e62|76faa5a2] (055+047/576) Accurately ripped
03 [703c971d|0f3e063e] (054+047/577) Accurately ripped
04 [2b8fbb69|3fc94497] (055+048/583) Accurately ripped
05 [44676f44|164a619c] (055+047/579) Accurately ripped
06 [d256cb6e|4a6fe292] (055+046/586) Accurately ripped
07 [9a7d0c1c|66f05741] (053+047/577) Accurately ripped
08 [4f4dbf48|0ad6d938] (052+047/580) Accurately ripped
09 [9053d624|1d025782] (055+048/581) Accurately ripped
10 [98a3b299|08fb9b87] (053+047/573) Accurately ripped
11 [ad5a006c|2d4d61b4] (054+048/583) Accurately ripped
12 [fb4b6ee6|89018242] (054+046/578) Accurately ripped
13 [8bc7c73a|a8e123e0] (055+048/578) Accurately ripped
14 [fc59f82b|bcee2d8d] (055+048/577) Accurately ripped
15 [a76c6dff|28233abc] (055+045/571) Accurately ripped
16 [157ba3d2|dfa502da] (056+047/570) Accurately ripped
17 [3ed31e5b|425e0a2d] (052+043/548) Accurately ripped
Offsetted by -679:
01 [a84e7a97] (005/582) Accurately ripped
02 [69df93e6] (005/576) Accurately ripped
03 [99e3884a] (005/577) Accurately ripped
04 [71f0f5e9] (006/583) Accurately ripped
05 [3c250a4a] (006/579) Accurately ripped
06 [9bc48bde] (006/586) Accurately ripped
07 [9f10bed4] (006/577) Accurately ripped
08 [570f5b23] (006/580) Accurately ripped
09 [65292e70] (005/581) Accurately ripped
10 [fcef7ae7] (006/573) Accurately ripped
11 [c63070ed] (007/583) Accurately ripped
12 [91c49e5e] (007/578) Accurately ripped
13 [72d7e0e0] (007/578) Accurately ripped
14 [1c8a5941] (007/577) Accurately ripped
15 [55400f8c] (007/571) Accurately ripped
16 [0cd0e798] (006/570) Accurately ripped
17 [ce21f577] (005/548) Accurately ripped
Offsetted by -649:
01 [cdb17783] (003/582) Accurately ripped
02 [d6822e18] (003/576) Accurately ripped
03 [8e6b837e] (003/577) Accurately ripped
04 [43cb9913] (003/583) Accurately ripped
05 [7594d1c0] (003/579) Accurately ripped
06 [8db32d41] (003/586) Accurately ripped
07 [3cc1f2ae] (003/577) Accurately ripped
08 [e4179e2e] (003/580) Accurately ripped
09 [6cae32ca] (003/581) Accurately ripped
10 [44578a0a] (003/573) Accurately ripped
11 [339bda0c] (003/583) Accurately ripped
12 [0e7c96f0] (003/578) Accurately ripped
13 [7bffdd4a] (003/578) Accurately ripped
14 [13fc9ce2] (003/577) Accurately ripped
15 [7041dad0] (002/571) Accurately ripped
16 [0dc7d7d8] (002/570) Accurately ripped
17 [9145607b] (002/548) Accurately ripped
Offsetted by -640:
01 [85bf46d6] (020/582) Accurately ripped
02 [abae0044] (019/576) Accurately ripped
03 [fb4c965f] (019/577) Accurately ripped
04 [669a0dd7] (019/583) Accurately ripped
05 [4c937624] (019/579) Accurately ripped
06 [b5ae6d4e] (019/586) Accurately ripped
07 [8fb1ef75] (019/577) Accurately ripped
08 [ba66bb4e] (019/580) Accurately ripped
09 [1c008f57] (019/581) Accurately ripped
10 [250457c1] (019/573) Accurately ripped
11 [14860a7a] (019/583) Accurately ripped
12 [2d4b2d12] (019/578) Accurately ripped
13 [b5a74299] (019/578) Accurately ripped
14 [47eac5ce] (018/577) Accurately ripped
15 [d8f7b64d] (019/571) Accurately ripped
16 [ecdd9793] (019/570) Accurately ripped
17 [8d168982] (019/548) Accurately ripped
Offsetted by -628:
01 [d442598b] (029/582) Accurately ripped
02 [a0a41dbb] (030/576) Accurately ripped
03 [b76c8692] (030/577) Accurately ripped
04 [8a7d4b5b] (030/583) Accurately ripped
05 [8513181e] (030/579) Accurately ripped
06 [197e5c76] (030/586) Accurately ripped
07 [6eee23e5] (030/577) Accurately ripped
08 [e9bb25fb] (030/580) Accurately ripped
09 [c92922cf] (030/581) Accurately ripped
10 [8e42741f] (030/573) Accurately ripped
11 [56f9a33c] (030/583) Accurately ripped
12 [937ae7ef] (030/578) Accurately ripped
13 [791e1c61] (030/578) Accurately ripped
14 [95b728b4] (030/577) Accurately ripped
15 [75faff1d] (030/571) Accurately ripped
16 [f1c98b21] (030/570) Accurately ripped
17 [721c901b] (027/548) Accurately ripped
Offsetted by -592:
01 [7354f053] (071/582) Accurately ripped
02 [c19cbac7] (072/576) Accurately ripped
03 [c1953314] (073/577) Accurately ripped
04 [cb4509e1] (073/583) Accurately ripped
05 [7280884c] (074/579) Accurately ripped
06 [716e580f] (073/586) Accurately ripped
07 [f49e10aa] (071/577) Accurately ripped
08 [0c93af2f] (071/580) Accurately ripped
09 [13cc7233] (073/581) Accurately ripped
10 [048ac124] (073/573) Accurately ripped
11 [a5d007f5] (074/583) Accurately ripped
12 [e8101c2f] (074/578) Accurately ripped
13 [c477a6f0] (074/578) Accurately ripped
14 [2e9d169b] (074/577) Accurately ripped
15 [36f24465] (073/571) Accurately ripped
16 [af3d7f82] (072/570) Accurately ripped
17 [d98d25f3] (071/548) Accurately ripped
Offsetted by -18:
01 [d7ba80c6] (002/582) Accurately ripped
02 [1b6942d4] (002/576) Accurately ripped
03 [60062e38] (002/577) Accurately ripped
04 [ee029e35] (002/583) Accurately ripped
05 [3766b9fe] (002/579) Accurately ripped
06 [33e9970f] (002/586) Accurately ripped
07 [9fb041e4] (002/577) Accurately ripped
08 [5d63985c] (002/580) Accurately ripped
09 [3060d4db] (002/581) Accurately ripped
10 [6152e2af] (002/573) Accurately ripped
11 [5f9e26ba] (002/583) Accurately ripped
12 [f9dc9e9d] (002/578) Accurately ripped
13 [69ee7cae] (002/578) Accurately ripped
14 [05c65c18] (002/577) Accurately ripped
15 [dd53564c] (002/571) Accurately ripped
16 [61c42400] (002/570) Accurately ripped
17 [d8693c82] (002/548) Accurately ripped
Offsetted by 36:
01 [f015522e] (076/582) Accurately ripped
02 [02babea5] (073/576) Accurately ripped
03 [b29dfc08] (071/577) Accurately ripped
04 [7ab52c91] (076/583) Accurately ripped
05 [b4f6a8ca] (073/579) Accurately ripped
06 [cd81ce50] (076/586) Accurately ripped
07 [b54c00a4] (072/577) Accurately ripped
08 [ba934dc5] (076/580) Accurately ripped
09 [69952581] (073/581) Accurately ripped
10 [a14a67ff] (072/573) Accurately ripped
11 [8d3df050] (075/583) Accurately ripped
12 [3e3ccd67] (075/578) Accurately ripped
13 [a368ae26] (074/578) Accurately ripped
14 [3ba64d23] (073/577) Accurately ripped
15 [8ec2083a] (075/571) Accurately ripped
16 [3db1b307] (073/570) Accurately ripped
17 [1461d3ca] (072/548) Accurately ripped
Offsetted by -664:
01 [8e5153f2] (000/582) No match (V2 was not tested)
02 [f8cc73ff] (000/576) No match (V2 was not tested)
03 [4d061af2] (000/577) No match (V2 was not tested)
04 [83b3e9e5] (000/583) No match (V2 was not tested)
05 [e1c8091d] (000/579) No match (V2 was not tested)
06 [6f1a767d] (000/586) No match (V2 was not tested)
07 [6cc1d8be] (000/577) No match (V2 was not tested)
08 [cfc4e891] (000/580) No match (V2 was not tested)
09 [c6a91dfc] (000/581) No match (V2 was not tested)
10 [7df18244] (000/573) No match (V2 was not tested)
11 [00a7f7e7] (000/583) No match (V2 was not tested)
12 [56ad4105] (000/578) No match (V2 was not tested)
13 [76799d10] (000/578) No match (V2 was not tested)
14 [e71b0010] (000/577) No match (V2 was not tested)
15 [a9bea57e] (000/571) No match (V2 was not tested)
16 [3840b5f8] (000/570) No match (V2 was not tested)
17 [3390ebf7] (000/548) No match (V2 was not tested)
Offsetted by -646:
01 [14a1ec4a] (002/582) Accurately ripped
02 [43b62ce4] (002/576) Accurately ripped
03 [7f9cfaab] (002/577) Accurately ripped
04 [72a89460] (002/583) Accurately ripped
05 [0ac2efdd] (003/579) Accurately ripped
06 [6bbe2904] (003/586) Accurately ripped
07 [cbd72c31] (002/577) Accurately ripped
08 [3dd638f2] (003/580) Accurately ripped
09 [21108eef] (002/581) Accurately ripped
10 [c4f8e243] (002/573) Accurately ripped
11 [c5ffa2ea] (002/583) Accurately ripped
12 [92ad8544] (002/578) Accurately ripped
13 [fdc4fcf1] (002/578) Accurately ripped
14 [289daa86] (000/577) No match (V2 was not tested)
15 [c425c74b] (000/571) No match (V2 was not tested)
16 [6368d75c] (000/570) No match (V2 was not tested)
17 [0d248d52] (000/548) No match (V2 was not tested)
Offsetted by -631:
01 [94da69aa] (000/582) No match (V2 was not tested)
02 [ae36fece] (000/576) No match (V2 was not tested)
03 [0f833bf0] (000/577) No match (V2 was not tested)
04 [0364cd38] (000/583) No match (V2 was not tested)
05 [08e74dc9] (000/579) No match (V2 was not tested)
06 [7156c70e] (000/586) No match (V2 was not tested)
07 [8c19ed93] (000/577) No match (V2 was not tested)
08 [f079c5e1] (000/580) No match (V2 was not tested)
09 [cae33409] (000/581) No match (V2 was not tested)
10 [45833949] (000/573) No match (V2 was not tested)
11 [2535a5b7] (000/583) No match (V2 was not tested)
12 [630833e3] (000/578) No match (V2 was not tested)
13 [bd8fc134] (000/578) No match (V2 was not tested)
14 [357ecc5e] (000/577) No match (V2 was not tested)
15 [805c32d7] (000/571) No match (V2 was not tested)
16 [b114f949] (000/570) No match (V2 was not tested)
17 [611ec4c3] (000/548) No match (V2 was not tested)
Offsetted by -622:
01 [68964fe5] (000/582) No match (V2 was not tested)
02 [f62889d3] (000/576) No match (V2 was not tested)
03 [3a3bd261] (000/577) No match (V2 was not tested)
04 [7cdbea19] (000/583) No match (V2 was not tested)
05 [eb02b651] (000/579) No match (V2 was not tested)
06 [63a0a096] (000/586) No match (V2 was not tested)
07 [85ed92e6] (000/577) No match (V2 was not tested)
08 [4ffea801] (000/580) No match (V2 was not tested)
09 [7e7fd8b8] (000/581) No match (V2 was not tested)
10 [9fb6e9dc] (000/573) No match (V2 was not tested)
11 [71a77047] (000/583) No match (V2 was not tested)
12 [486cbdf0] (000/578) No match (V2 was not tested)
13 [3bb82d68] (000/578) No match (V2 was not tested)
14 [022aeb50] (000/577) No match (V2 was not tested)
15 [54a158ef] (000/571) No match (V2 was not tested)
16 [1982751a] (000/570) No match (V2 was not tested)
17 [a1f91c8b] (000/548) No match (V2 was not tested)
Offsetted by -51:
01 [ad10c0b1] (002/582) Accurately ripped
02 [de919d50] (000/576) No match (V2 was not tested)
03 [3ad897d9] (003/577) Accurately ripped
04 [c6b6b269] (000/583) No match (V2 was not tested)
05 [0d4ebba0] (000/579) No match (V2 was not tested)
06 [aacfa334] (002/586) Accurately ripped
07 [d0eaa6b4] (002/577) Accurately ripped
08 [0fd4e75c] (002/580) Accurately ripped
09 [c07fe197] (003/581) Accurately ripped
10 [69f3b483] (002/573) Accurately ripped
11 [7fe6eeec] (002/583) Accurately ripped
12 [fe5a6cf1] (002/578) Accurately ripped
13 [dbbc9508] (002/578) Accurately ripped
14 [557fe86c] (003/577) Accurately ripped
15 [1b89338d] (002/571) Accurately ripped
16 [463c81f8] (002/570) Accurately ripped
17 [bd1464ac] (002/548) Accurately ripped
Offsetted by -36:
01 [4c034ced] (000/582) No match (V2 was not tested)
02 [27f6798c] (000/576) No match (V2 was not tested)
03 [91586718] (000/577) No match (V2 was not tested)
04 [a6bede7f] (000/583) No match (V2 was not tested)
05 [11924290] (000/579) No match (V2 was not tested)
06 [483fe1e7] (000/586) No match (V2 was not tested)
07 [1659d5f7] (000/577) No match (V2 was not tested)
08 [3e3bfdc8] (000/580) No match (V2 was not tested)
09 [43fd1953] (000/581) No match (V2 was not tested)
10 [bf4aec16] (000/573) No match (V2 was not tested)
11 [cd17cae6] (000/583) No match (V2 was not tested)
12 [b943d15f] (000/578) No match (V2 was not tested)
13 [f83eeba1] (000/578) No match (V2 was not tested)
14 [6e4562f0] (000/577) No match (V2 was not tested)
15 [be813e8d] (000/571) No match (V2 was not tested)
16 [d7d2a42b] (000/570) No match (V2 was not tested)
17 [31a7ca75] (000/548) No match (V2 was not tested)
Offsetted by -12:
01 [b95e1626] (000/582) No match (V2 was not tested)
02 [2cc69292] (000/576) No match (V2 was not tested)
03 [d9df7091] (000/577) No match (V2 was not tested)
04 [bc3f5acc] (000/583) No match (V2 was not tested)
05 [46cc4ed9] (000/579) No match (V2 was not tested)
06 [0ff56cb3] (000/586) No match (V2 was not tested)
07 [7cd4bcd7] (000/577) No match (V2 was not tested)
08 [67629dcc] (000/580) No match (V2 was not tested)
09 [2e2042a9] (000/581) No match (V2 was not tested)
10 [d9637d41] (000/573) No match (V2 was not tested)
11 [354a4eae] (000/583) No match (V2 was not tested)
12 [95ae1c6d] (000/578) No match (V2 was not tested)
13 [e99a9563] (000/578) No match (V2 was not tested)
14 [d09f9550] (000/577) No match (V2 was not tested)
15 [3cae454e] (000/571) No match (V2 was not tested)
16 [28864ceb] (000/570) No match (V2 was not tested)
17 [1dc5b689] (000/548) No match (V2 was not tested)
Offsetted by 646:
01 [05efc07b] (000/582) No match (V2 was not tested)
02 [57fadb56] (000/576) No match (V2 was not tested)
03 [3f0ec60c] (000/577) No match (V2 was not tested)
04 [a7dae2b0] (000/583) No match (V2 was not tested)
05 [fbd3efa2] (000/579) No match (V2 was not tested)
06 [ca2d0b54] (000/586) No match (V2 was not tested)
07 [cc1de837] (000/577) No match (V2 was not tested)
08 [c7bd1fc1] (000/580) No match (V2 was not tested)
09 [945c3c54] (000/581) No match (V2 was not tested)
10 [cc0b445e] (000/573) No match (V2 was not tested)
11 [67ff5c89] (000/583) No match (V2 was not tested)
12 [e8b72b72] (000/578) No match (V2 was not tested)
13 [e25817f2] (000/578) No match (V2 was not tested)
14 [6356e652] (000/577) No match (V2 was not tested)
15 [6af2f574] (000/571) No match (V2 was not tested)
16 [3c81bcd9] (000/570) No match (V2 was not tested)
17 [29512838] (000/548) No match (V2 was not tested)

Track Peak [ CRC32 ] [W/O NULL] [ LOG ]
– 100,0 [F822A86A] [737EB912] CRC32
01 98,9 [1E6B60F3] [8FF7D1EA]
02 96,1 [23B3251D] [8B80A585]
03 100,0 [395ABA25] [E28E363D]
04 88,1 [41911EB4] [0C94C94D]
05 89,2 [3B08ABCC] [06EDE558]
06 93,4 [C1AD818B] [189E89A6]
07 98,9 [2A06DAF9] [A749E4D3]
08 86,6 [26B657EB] [6771FBDA]
09 93,4 [FDB0A761] [92955CD5]
10 100,0 [78045F4B] [0C728FB3]
11 94,4 [09D86E04] [7C5A118D]
12 98,9 [45EEFEEA] [30544D65]
13 94,4 [F402381B] [BF961938]
14 100,0 [7E132300] [D3E92E9D]
15 100,0 [F2EF2043] [673C4032]
16 100,0 [60A786C2] [9960C1A3]
17 83,2 [03626809] [3EC24CC8]

Michael Jackson - The Essential Michael Jackson (2005)


All thanks go to sergych

>>> Michael Jackson in my Blog <<<

DOWNLOAD: