Subcategories

Michael Jackson - The Motown Years ...His Greatest Hits (1988)

Posted By: popsakov
Michael Jackson - The Motown Years ...His Greatest Hits (1988)

Michael Jackson - The Motown Years …His Greatest Hits (1988)
EAC Rip | WV (Img) + Cue + Log ~ 423 Mb | MP3 CBR320 ~ 176 Mb
Scans Included (PNG, 400 dpi) | RAR 5% Recovery
Funk, Soul | Silver Eagle Records #SED-10722

The biggest pop star of the '80s, and one of the most popular artists of all time, with a brilliant, soulful voice and breathtaking dance moves. Dubbed the "King of Pop", he was one of the most popular entertainers in the world, and was the best-selling music artist at the time of his death. Jackson's contributions to music, dance, and fashion along with his publicized personal life made him a global figure in popular culture for over four decades.

***************

Michael Jackson - The Motown Years ...His Greatest Hits (1988)

Michael Jackson - The Motown Years ...His Greatest Hits (1988)

Track List:

01. I Want You Back [0:03:02.45]
02. The Love You Save [0:03:06.47]
03. ABC [0:03:00.58]
04. I'll Be There [0:04:00.57]
05. I Found That Girl [0:03:10.28]
06. Mama's Pearl [0:03:06.57]
07. Sugar Daddy [0:02:33.48]
08. Maybe Tomorrow [0:04:43.45]
09. Never Can Say Goodbye [0:03:01.55]
10. Farewell My Summer Love [0:04:24.35]
11. Ben [0:02:48.42]
12. Little Bitty Pretty One [0:02:48.40]
13. Lookin' Through The Windows [0:03:40.03]
14. Corner of the Sky [0:03:34.35]
15. Love is Here and Now You're Gone [0:02:55.00]
16. I Am Love [0:07:30.65]
17. Get It Together [0:02:50.55]
18. I Was Made To Love Her [0:03:23.00]
19. Lonely Teardrops [0:02:40.60]

Exact Audio Copy V1.3 from 2. September 2016

EAC extraction logfile from 25. February 2017, 14:51

Michael Jackson / The Motown Years

Used drive : HL-DT-STDVDRAM GH24NSC0 Adapter: 1 ID: 0

Read mode : Secure
Utilize accurate stream : Yes
Defeat audio cache : Yes
Make use of C2 pointers : No

Read offset correction : 6
Overread into Lead-In and Lead-Out : No
Fill up missing offset samples with silence : Yes
Delete leading and trailing silent blocks : No
Null samples used in CRC calculations : Yes
Used interface : Native Win32 interface for Win NT & 2000

Used output format : Internal WAV Routines
Sample format : 44.100 Hz; 16 Bit; Stereo


TOC of the extracted CD

Track | Start | Length | Start sector | End sector
––––––––––––––––––––––––––––-
1 | 0:01.00 | 3:02.45 | 75 | 13769
2 | 3:03.45 | 3:06.47 | 13770 | 27766
3 | 6:10.17 | 3:00.58 | 27767 | 41324
4 | 9:11.00 | 4:00.57 | 41325 | 59381
5 | 13:11.57 | 3:10.28 | 59382 | 73659
6 | 16:22.10 | 3:06.57 | 73660 | 87666
7 | 19:28.67 | 2:33.48 | 87667 | 99189
8 | 22:02.40 | 4:43.45 | 99190 | 120459
9 | 26:46.10 | 3:01.55 | 120460 | 134089
10 | 29:47.65 | 4:24.35 | 134090 | 153924
11 | 34:12.25 | 2:48.42 | 153925 | 166566
12 | 37:00.67 | 2:48.40 | 166567 | 179206
13 | 39:49.32 | 3:40.03 | 179207 | 195709
14 | 43:29.35 | 3:34.35 | 195710 | 211794
15 | 47:03.70 | 2:55.00 | 211795 | 224919
16 | 49:58.70 | 7:30.65 | 224920 | 258734
17 | 57:29.60 | 2:50.55 | 258735 | 271539
18 | 60:20.40 | 3:23.00 | 271540 | 286764
19 | 63:43.40 | 2:40.60 | 286765 | 298824


Range status and errors

Selected range

Filename C:\Music CD\Michael Jackson - The Motown Years.wav

Peak level 95.2 %
Extraction speed 2.1 X
Range quality 99.9 %
Test CRC 730F1ECD
Copy CRC 730F1ECD
Copy OK

No errors occurred


AccurateRip summary

Track 1 accurately ripped (confidence 1) [2DC146BD] (AR v2)
Track 2 accurately ripped (confidence 1) [A1B359C4] (AR v2)
Track 3 accurately ripped (confidence 1) [69B5ABE5] (AR v2)
Track 4 accurately ripped (confidence 1) [D9F3DA04] (AR v2)
Track 5 accurately ripped (confidence 1) [0F7DAACD] (AR v2)
Track 6 accurately ripped (confidence 1) [3E0A7319] (AR v2)
Track 7 accurately ripped (confidence 1) [D6BC5238] (AR v2)
Track 8 accurately ripped (confidence 1) [6972F341] (AR v2)
Track 9 accurately ripped (confidence 1) [A52077A5] (AR v2)
Track 10 accurately ripped (confidence 1) [901642A6] (AR v2)
Track 11 accurately ripped (confidence 1) [68AA183A] (AR v2)
Track 12 accurately ripped (confidence 1) [4AA9D8B6] (AR v2)
Track 13 accurately ripped (confidence 1) [7262E5E5] (AR v2)
Track 14 accurately ripped (confidence 1) [201F6541] (AR v2)
Track 15 accurately ripped (confidence 1) [06C2524E] (AR v2)
Track 16 accurately ripped (confidence 1) [0AC2A81E] (AR v2)
Track 17 accurately ripped (confidence 1) [B3AE4507] (AR v2)
Track 18 accurately ripped (confidence 1) [893755C2] (AR v2)
Track 19 accurately ripped (confidence 1) [337BE991] (AR v2)

All tracks accurately ripped

End of status report

–– CUETools DB Plugin V2.1.6

[CTDB TOCID: 0MWAaw05I3Ew2DcjmB9sEvvV3fg-] found
Submit result: 0MWAaw05I3Ew2DcjmB9sEvvV3fg- has been confirmed
Track | CTDB Status
1 | (1/1) Accurately ripped
2 | (1/1) Accurately ripped
3 | (1/1) Accurately ripped
4 | (1/1) Accurately ripped
5 | (1/1) Accurately ripped
6 | (1/1) Accurately ripped
7 | (1/1) Accurately ripped
8 | (1/1) Accurately ripped
9 | (1/1) Accurately ripped
10 | (1/1) Accurately ripped
11 | (1/1) Accurately ripped
12 | (1/1) Accurately ripped
13 | (1/1) Accurately ripped
14 | (1/1) Accurately ripped
15 | (1/1) Accurately ripped
16 | (1/1) Accurately ripped
17 | (1/1) Accurately ripped
18 | (1/1) Accurately ripped
19 | (1/1) Accurately ripped


==== Log checksum 23EE3B0BF8340D978F0677653DBD0A5D8F9641ED5306A738BFA5F46DBAFD9F0A ====

foobar2000 1.3.16 / Dynamic Range Meter 1.1.1
log date: 2017-10-29 13:05:45

––––––––––––––––––––––––––––––––––––––––
Analyzed: Michael Jackson / The Motown Years
––––––––––––––––––––––––––––––––––––––––

DR Peak RMS Duration Track
––––––––––––––––––––––––––––––––––––––––
DR12 -2.09 dB -16.86 dB 3:03 01-I Want You Back
DR12 -3.74 dB -18.32 dB 3:07 02-The Love You Save
DR12 -3.31 dB -17.04 dB 3:01 03-ABC
DR11 -2.79 dB -16.75 dB 4:01 04-I'll Be There
DR11 -3.19 dB -17.02 dB 3:10 05-I Found That Girl
DR13 -2.62 dB -18.00 dB 3:07 06-Mama's Pearl
DR14 -1.77 dB -18.43 dB 2:34 07-Sugar Daddy
DR13 -3.01 dB -19.17 dB 4:44 08-Maybe Tomorrow
DR13 -1.98 dB -17.74 dB 3:02 09-Never Can Say Goodbye
DR12 -4.19 dB -18.53 dB 4:24 10-Farewell My Summer Love
DR11 -3.52 dB -18.12 dB 2:49 11-Ben
DR14 -2.47 dB -18.66 dB 2:49 12-Little Bitty Pretty One
DR13 -1.59 dB -18.47 dB 3:40 13-Lookin' Through The Windows
DR14 -0.42 dB -17.26 dB 3:34 14-Corner of the Sky
DR12 -4.14 dB -18.23 dB 2:55 15-Love is Here and Now You're Gone
DR13 -1.89 dB -18.09 dB 7:31 16-I Am Love
DR15 -1.69 dB -20.12 dB 2:51 17-Get It Together
DR12 -3.27 dB -17.29 dB 3:23 18-I Was Made To Love Her
DR13 -2.53 dB -18.02 dB 2:41 19-Lonely Teardrops
––––––––––––––––––––––––––––––––––––––––

Number of tracks: 19
Official DR value: DR13

Samplerate: 44100 Hz
Channels: 2
Bits per sample: 16
Bitrate: 812 kbps
Codec: WavPack
================================================================================

[CUETools log; Date: 29.10.2017 13:05:59; Version: 2.1.5]
Pregap length 00:01:00.
[CTDB TOCID: 0MWAaw05I3Ew2DcjmB9sEvvV3fg-] found.
Track | CTDB Status
1 | (2/2) Accurately ripped
2 | (2/2) Accurately ripped
3 | (2/2) Accurately ripped
4 | (2/2) Accurately ripped
5 | (2/2) Accurately ripped
6 | (2/2) Accurately ripped
7 | (2/2) Accurately ripped
8 | (2/2) Accurately ripped
9 | (2/2) Accurately ripped
10 | (2/2) Accurately ripped
11 | (2/2) Accurately ripped
12 | (2/2) Accurately ripped
13 | (2/2) Accurately ripped
14 | (2/2) Accurately ripped
15 | (2/2) Accurately ripped
16 | (2/2) Accurately ripped
17 | (2/2) Accurately ripped
18 | (2/2) Accurately ripped
19 | (2/2) Accurately ripped
[AccurateRip ID: 002c551f-0273128c-f90f8f13] found.
Track [ CRC | V2 ] Status
01 [a40ca076|2dc146bd] (0+1/1) Accurately ripped
02 [136c1d2d|a1b359c4] (0+1/1) Accurately ripped
03 [75e74ca5|69b5abe5] (0+1/1) Accurately ripped
04 [b50d29ed|d9f3da04] (0+1/1) Accurately ripped
05 [662dfcc8|0f7daacd] (0+1/1) Accurately ripped
06 [74b9268d|3e0a7319] (0+1/1) Accurately ripped
07 [bfde7693|d6bc5238] (0+1/1) Accurately ripped
08 [1092f372|6972f341] (0+1/1) Accurately ripped
09 [14fbc001|a52077a5] (0+1/1) Accurately ripped
10 [fb51ac43|901642a6] (0+1/1) Accurately ripped
11 [181b9f9e|68aa183a] (0+1/1) Accurately ripped
12 [30bfe15f|4aa9d8b6] (0+1/1) Accurately ripped
13 [c6f9125f|7262e5e5] (0+1/1) Accurately ripped
14 [3f4b7d50|201f6541] (0+1/1) Accurately ripped
15 [5ae3c5ea|06c2524e] (0+1/1) Accurately ripped
16 [62e92160|0ac2a81e] (0+1/1) Accurately ripped
17 [2403337f|b3ae4507] (0+1/1) Accurately ripped
18 [4b1a1cc0|893755c2] (0+1/1) Accurately ripped
19 [0d9bbdc7|337be991] (0+1/1) Accurately ripped

Track Peak [ CRC32 ] [W/O NULL] [ LOG ]
– 95,2 [730F1ECD] [EAE472E8] CRC32
01 78,6 [8B87613D] [26ABDE04]
02 65,0 [764453D6] [D18067F5]
03 68,3 [30FA9AE2] [EF92BE43]
04 72,5 [E6861FFE] [CAAFBC6B]
05 69,2 [C3E65E2E] [BF913A23]
06 74,0 [A807B921] [D4AD224B]
07 81,5 [3525CADC] [1F6312C5]
08 70,7 [13F99240] [010B00F9]
09 79,6 [303DF8F2] [B5A3D111]
10 61,7 [1F320D2D] [709CE79C]
11 66,6 [3F13BB43] [938824DB]
12 75,2 [5EEFD295] [28270137]
13 83,3 [4966B620] [012FA7C1]
14 95,2 [485940FB] [A7B4DF24]
15 62,0 [493024C4] [00F53479]
16 80,4 [4B58FB43] [B56EA214]
17 82,2 [830AECF0] [E802FFBE]
18 68,5 [904E9854] [7FAAD416]
19 74,7 [663B793A] [88C315F8]

Michael Jackson - The Motown Years ...His Greatest Hits (1988)

All thanks go to Anna

>>> Michael Jackson in my Blog <<<

Download from icerbox.com: