Subcategories

Michael Franks - Time Together (2011) {Shanachie 5189}

Posted By: tiburon
Michael Franks - Time Together (2011) {Shanachie 5189}

Michael Franks - Time Together (2011) {Shanachie 5189}
EAC 0.99pb4 | FLAC Image level 6 | Cue+Log | Full Scans 300dpi | 369MB + 5% Recovery
Genre: Smooth Jazz,Bossa Nova

Time Together, Franks’ first CD of new material in five years and his debut for Shanachie is unlikely to change anyone's opinion of him, but that doesn't mean this is a rote recording. Time Together is an airy, groove-ridden summer travelog that ranges from St. Tropez and New York to Paris, France, and Egypt; it journeys through the nostalgic past and finds space in the present moment, with cleverly notated, languorous, ironic observations about life. Franks split the production and arranging duties between Charles Blenzig, Gil Goldstein, Chuck Loeb, Scott Petito, and Mark Egan.
Track List

01. Now That The Summer's Here 5:27
02. One Day In St. Tropez 5:19
03. Summer In New York 5:57
04. Mice 5:26
05. Charlie Chan In Egypt 5:29
06. I'd Rather Be Happy Than Right 4:41
07. Time Together 3:37
08. Samba Blue 4:45
09. My Heart Said Wow 2:47
10. If I Could Make September Stay 5:23
11. Feathers From An Angel's Wings 8:01

musicians

Michael Franks - vocals
Chuck Loeb - guitars,keyboards,drum and percussion programming
Mike Mainieri - vibraphone
Mark Egan - bass
Will Lee - bass,background vocals
Wolfgang Haffner - drums
Eric Marienthal - alto sax
Till Bronner - trumpet
Carmen Cuesta - background vocals
Gil Goldstein - piano
Romero Lubambo - guitar
Shawn Pelton - drums,percussion
Rogerio Boccato - percussion
Lizzy Loeb - background vocals
Veronica Nunn - lead and background vocals
Scott Petito - bass
Jerry Marotta - drums
David Spinoza - guitar
Beth Nielsen Chapman - background vocals
Charles Blenzig - piano,keyboards
Jay Anderson - bass
Billy Kilson - drums
David Mann - sax
Alex Sipiagin - trumpet
Tim LeFebvre - bass
Greg Cohen - bass
Joe Banadio - drums,percussion
Clifford Carter - keyboards


Exact Audio Copy V0.99 prebeta 4 from 23. January 2008

Отчёт EAC об извлечении, выполненном 14. июня 2011, 20:46

Michael Franks / Time Together

Дисковод: PLEXTOR DVDR PX-880SA Adapter: 1 ID: 1

Режим чтения : Достоверность
Использование точного потока : Да
Отключение кэша аудио : Да
Использование указателей C2 : Нет

Коррекция смещения при чтении : 6
Способность читать области Lead-in и Lead-out : Нет
Заполнение пропущенных сэмплов тишиной : Да
Удаление блоков с тишиной в начале и конце : Нет
При вычислениях CRC использовались нулевые сэмплы : Да
Интерфейс : Встроенный Win32-интерфейс для Win NT/2000

Выходной формат : Пользовательский кодировщик
Выбранный битрейт : 1024 kBit/s
Качество : Высокий
Добавление ID3-тэга : Нет
Утилита сжатия : C:\Program Files\Exact Audio Copy\FLAC\FLAC.EXE
Дополнительные параметры : -6 -V -T "ARTIST=%a" -T "TITLE=%t" -T "ALBUM=%g" -T "DATE=%y" -T "TRACKNUMBER=%n" -T "GENRE=%m" -T "COMMENT=%e" %s -o %d


TOC извлечённого CD

Трек | Старт | Длительность | Начальный сектор | Конечный сектор
––––––––––––––––––––––––––––––––––-
1 | 0:00.00 | 5:27.49 | 0 | 24573
2 | 5:27.49 | 5:19.37 | 24574 | 48535
3 | 10:47.11 | 5:57.06 | 48536 | 75316
4 | 16:44.17 | 5:26.54 | 75317 | 99820
5 | 22:10.71 | 5:29.37 | 99821 | 124532
6 | 27:40.33 | 4:41.70 | 124533 | 145677
7 | 32:22.28 | 3:37.35 | 145678 | 161987
8 | 35:59.63 | 4:45.71 | 161988 | 183433
9 | 40:45.59 | 2:47.22 | 183434 | 195980
10 | 43:33.06 | 5:23.17 | 195981 | 220222
11 | 48:56.23 | 8:01.02 | 220223 | 256299


Характеристики диапазона извлечения и сообщения об ошибках

Выбранный диапазон

Имя файла J:\BitComet\Michael Franks(flac)\2011 - Time Together\Michael Franks - Time Together.wav

Пиковый уровень 98.8 %
Качество диапазона 100.0 %
CRC теста 0B3C1498
CRC копии 0B3C1498
Копирование… OK

Ошибок не произошло


AccurateRip: сводка

Трек 1 нет в базе данных
Трек 2 нет в базе данных
Трек 3 нет в базе данных
Трек 4 нет в базе данных
Трек 5 нет в базе данных
Трек 6 нет в базе данных
Трек 7 нет в базе данных
Трек 8 нет в базе данных
Трек 9 нет в базе данных
Трек 10 нет в базе данных
Трек 11 нет в базе данных

Ни одного трека нет в базе AccurateRip

Конец отчёта
Michael Franks 			  		 	 	  		 	    	 			   		   	  		 		   		 			  	 			   		  	   		  		  		      	 			   		 		   			   			 - Time Together (2011) {Shanachie 5189}
Michael Franks - Time Together (2011) {Shanachie 5189}


Special thanks to izia1956 for the rip!!!

Visit My Blog