Subcategories

Michael Kiske - Instant Clarity (1996) [Japanese Ed.]

Posted By: Andi_Deris
Michael Kiske - Instant Clarity (1996) [Japanese Ed.]

Michael Kiske - Instant Clarity (1996) [Japanese Ed.]
EAC Rip | FLAC: Image+Cue+Log | 433 Mb | MP3 CBR 320 kbps | 144 Mb | Scans | Time: 59:46
Heavy Metal, Experimental Rock | Victor Ent. | VICP-5751

'Instant Clarity' is the first solo album of vocalist Michael Kiske (ex-Helloween). The album features guest appearances by Kai Hansen (ex-Helloween, Gamma Ray), Adrian Smith (Iron Maiden) and compositions from Ciriaco Taraxes. 'Instant Clarity' is a difficult album to digest. Even Michael’s awesome voice can’t save the majority of the songs that are on here, it’s like he tried to be a rocker but couldn’t quite pull it off.

Michael Kiske - Instant Clarity (1996) [Japanese Ed.]




Michael Kiske - Instant Clarity (1996) [Japanese Ed.]


Track Listing

01. Be True To Yourself (04:38)
02. The Calling (04:07)
03. Somebody Somewhere (04:27)
04. Burned Out (04:44)
05. New Horizons (04:22)
06. Hunted (04:24)
07. Always (04:29)
08. Thanx A Lot! (05:24)
09. Time's Passing By (03:44)
10. So Sick (04:29)
11. Do I Remember A Life? (10:38)
12. A Song Is Just A Moment (Bonus track for Japan) (04:13)

Produced by Michael Kiske

Musicians

• Michael Kiske: vocals, guitars, keyboards, piano
• Ciriaco Taraxes: guitars, piano on track 12
• Kai Hansen: guitars on tracks 1, 5, 8
• Adrian Smith: guitars on tracks 2, 4, 5
• Jens Mencl: bass
• Kay Rudi Wolke: drums, guitars on track 9
• Norbert Krietemeyer: flute on track 11

Michael Kiske - Instant Clarity (1996) [Japanese Ed.]


Exact Audio Copy V0.99 prebeta 5 from 4. May 2009

Отчёт EAC об извлечении, выполненном 28. января 2010, 14:34

Michael Kiske / Instant Clarity (Japan)

Дисковод: ASUS DRW-1814BL Adapter: 4 ID: 1

Режим чтения : Достоверность
Использование точного потока : Да
Отключение кэша аудио : Да
Использование указателей C2 : Нет

Коррекция смещения при чтении : 6
Способность читать области Lead-in и Lead-out : Нет
Заполнение пропущенных сэмплов тишиной : Да
Удаление блоков с тишиной в начале и конце : Нет
При вычислениях CRC использовались нулевые сэмплы : Да
Интерфейс : Установленный внешний ASPI-интерфейс

Выходной формат : Внутренние WAV-операции
Формат сэмплов : 44.100 Гц; 16 бит; стерео
Смещение при сжатии : 0


TOC извлечённого CD

Трек | Старт | Длительность | Начальный сектор | Конечный сектор
––––––––––––––––––––––––––––––––––-
1 | 0:00.37 | 4:38.53 | 37 | 20939
2 | 4:39.15 | 4:07.47 | 20940 | 39511
3 | 8:46.62 | 4:27.45 | 39512 | 59581
4 | 13:14.32 | 4:44.53 | 59582 | 80934
5 | 17:59.10 | 4:21.72 | 80935 | 100581
6 | 22:21.07 | 4:24.43 | 100582 | 120424
7 | 26:45.50 | 4:29.45 | 120425 | 140644
8 | 31:15.20 | 5:24.17 | 140645 | 164961
9 | 36:39.37 | 3:44.50 | 164962 | 181811
10 | 40:24.12 | 4:29.25 | 181812 | 202011
11 | 44:53.37 | 10:38.28 | 202012 | 249889
12 | 55:31.65 | 4:13.70 | 249890 | 268934


Характеристики диапазона извлечения и сообщения об ошибках

Выбранный диапазон

Имя файла G:\Program files\Рипаные файлы\Michael Kiske - Instant Clarity(Japan)\Michael Kiske - Instant Clarity (Japan).wav

Пиковый уровень 100.0 %
Качество диапазона 100.0 %
CRC копии 3C25C76F
Копирование… OK

Ошибок не произошло

Конец отчёта


Many thanks to the original uploader: deminbek


Allen ~ Lande 2014 The Great Divide
Allen ~ Lande 2014 The Great Divide [Japanese Ed.]

Andi Deris 1999 Done By Mirrors [Japanese Ed.]

Bloodbound 2005 Nosferatu [Japanese Ed.]
Bloodbound 2007 Book Of The Dead [Japanese Ed.]
Bloodbound 2009 Tabula Rasa [Japanese Ed.]
Bloodbound 2011 Unholy Cross
Bloodbound 2012 In The Name Of Metal [Japanese Ed.]
Bloodbound 2014 Stormborn [Japanese Ed.]

Dark Empire 2012 From Refuge To Ruin

Edenbridge 2013 The Bonding [Limited Edition] 2CD

Edguy 2014 Space Police - Defenders Of The Crown [Limited Digibook Ed.] 2CD

Gamma Ray 1990 Heading For Tomorrow [Anniversary Ed. 2015] 2CD
Gamma Ray 2012 Skeletons & Majesties Live (2012) [2CD/2DVD]
Gamma Ray 2014 Empire Of The Undead [Japanese Ed.]

HammerFall 2012 Gates Of Dalhalla [DVD+2CD]
HammerFall 2014 (r)Evolution [Limited Ed.] Digipak

Hansen & Friends 2016 XXX - Three Decades In Metal [Japanese Ltd. Ed.] 2CD

Helloween 2007 Keeper Of The Seven Keys - The Legacy World Tour 2005-2006 [2xDVD]

Iron Savior 2014 Rise Of The Hero [Japanese Ed.]
Iron Savior 2015 Live At The Final Frontier [DVD/2CD Digipak]
Iron Savior 2016 Titancraft [Japanese Ed.]

Jens Johansson 1995 Ten Seasons [Reissue 2000]

Jorn 2012 Bring Heavy Rock To The Land
Jorn 2013 Traveller
Jorn 2016 Heavy Rock Radio [Japanese Ed.]

Kiske / Somerville 2015 City Of Heroes [Deluxe Ed. CD/DVD]

Masterplan 2013 Novum Initium [Limited Ed.]

Michael Kiske 1996 Instant Clarity [Irond, 2006]
Michael Kiske 1999 R.T.S. (Readiness To Sacrifice) [Japanese Ed.]
Michael Kiske 2006 Kiske [Irond]

Place Vendome 2013 Thunder In The Distance [Japanese Ed.]

Timo Tolkki's Avalon 2013 The Land Of New Hope [Deluxe Ed. CD/DVD]

Sebastien 2010 Tears Of White Roses
Sebastien 2015 Dark Chambers Of Deja Vu

Stratovarius 2015 Eternal [Japan SHM-CD]

Unisonic 2014 Light Of Dawn [Japanese Ed.]

Wolfpakk 2011 Wolfpakk
Wolfpakk 2013 Cry Wolf
Wolfpakk 2015 Rise Of The Animal
–––––––––
Nitroflare