Subcategories

Michael Mantler - Review (2006) {ECM 1813)

Posted By: tiburon
Michael Mantler - Review (2006) {ECM 1813)

Michael Mantler - Review (2006) {ECM 1813)
EAC 0.95b3 | FLAC tracks level 8 | Cue+Log+M3U | Full Scans 600dpi png| 624MB + 5% Recovery
MP3 CBR 320 Kbps | 177MB + 5% Recovery
Genre: Jazz, Avant-Garde Jazz

Michael Mantler offers a review of his career (so far), in an anthology that follows his path from the creative heyday of the Jazz Composer's Orchestra through the body of work he has recorded for JCOA, WATT and ECM. Whether juxtaposing players from the worlds of jazz, classical music and rock, setting remarkable words for remarkable voices, composing for instrumental forces from duo to symphony orchestra, or soloing as trumpeter, Mantler sounds like no one else. If the range of his work is its hallmark, his tone, as player and writer, is unmistakably his own.
Track List
01. Unsaid (6) 1:33
02. I'm Glad You're Glad 2:15
03. One Symphony - Part 3 4:38
04. Introductions 7:58
05. Love Ends 1:24
06. Understanding 5:06
07. Solitudine / Lontano / L'Illuminata Rugiada / Proverbi 4:10
08. Speechless 1:56
09. Folly Seeing All This 5:27
10. PSS 1:47
11. Comrade 1:06
12. A L'Abattoir 2:46
13. When I Run 2:31
14. Alien - Part 1 2:56
15. Twenty 5:26
16. Movie Two 5:29
17. Sometimes I See People 2:44
18. The Sinking Spell 4:47
19. 13 2:43
20. Number Six - Part Four 2:07
21. Preview 3:31
22. It Makes No Difference To Me 2:10

musicians
Michael Mantler - trumpet
Jack DeJohnette - drums
Terje Rypdal - guitar
Mike Stern - guitar
Tony Williams - drums
Steve Swallow - bass
Larry Coryell - guitar
Carla Bley - piano,synthesizers,vocal
Nick Mason - drums
Robert Wyatt - vocal
Susi Hyldgaard - vocal,accordion
Bjarne Roupe - guitar
Per Salo - piano
Mona Larsen - voice
Kim Kristensen - piano,synthesizers
Jack Bruce - vocal
Per Jorgensen - voice
Don Preston - vocal,synthesizers
John Greaves - vocal,bass
Karen Mantler - vocal,piano
Alexander Balanescu - violin
Rick Fenn - guitar
Marianne Faithfull - vocal
Kevin Coyne - vocal
Chris Spedding - guitar
Ron McClure - bass
Don Cherry - trumpet
Pharoah Sanders - tenor saxophone
Jazz Composer's Orchestra
London Symphony Orchestra
Balanescu Orchestra
Danish Radio Concert Orchestra
The Danish Radio Big Band
Chamber Music and Songs Ensemble
Radio Symphony Orchestra Frankfurt

Produced by Michael Mantler


EAC extraction logfile from 13. January 2007, 17:47 for CD
Michael Mantler / Review - Recordings 1968-2000

Used drive : PLEXTOR DVDR PX-716A Adapter: 1 ID: 0
Read mode : Secure with NO C2, accurate stream, disable cache
Read offset correction : 30
Overread into Lead-In and Lead-Out : No

Used output format : C:\Programmi\Exact Audio Copy\flac-1.1.2-win\bin\flac.exe (User Defined Encoder)
32 kBit/s
Additional command line options : -8 -V %s

Other options :
Fill up missing offset samples with silence : Yes
Delete leading and trailing silent blocks : No
Installed external ASPI interface


Track 1
Filename F:\[MyRip]\01 - Unsaid.wav

Pre-gap length 0:00:02.00

Peak level 99.8 %
Track quality 100.0 %
Test CRC 89D4BE1E
Copy CRC 89D4BE1E
Copy OK

Track 2
Filename F:\[MyRip]\02 - I'm Gad You're Glad.wav

Peak level 71.3 %
Track quality 100.0 %
Test CRC 0EB90F75
Copy CRC 0EB90F75
Copy OK

Track 3
Filename F:\[MyRip]\03 - One Sinphony - Part 3.wav

Pre-gap length 0:00:01.65

Peak level 99.8 %
Track quality 100.0 %
Test CRC 0194C245
Copy CRC 0194C245
Copy OK

Track 4
Filename F:\[MyRip]\04 - Introduction.wav

Pre-gap length 0:00:02.72

Peak level 99.8 %
Track quality 99.9 %
Test CRC 9C0442F9
Copy CRC 9C0442F9
Copy OK

Track 5
Filename F:\[MyRip]\05 - Love Ends.wav

Pre-gap length 0:00:01.23

Peak level 90.5 %
Track quality 100.0 %
Test CRC 5F60CC56
Copy CRC 5F60CC56
Copy OK

Track 6
Filename F:\[MyRip]\06 - Understanding.wav

Pre-gap length 0:00:02.60

Peak level 100.0 %
Track quality 99.9 %
Test CRC 7C9058CC
Copy CRC 7C9058CC
Copy OK

Track 7
Filename F:\[MyRip]\07 - Solitude , Lontano , L'Illuminata Rugiada , Proverbi.wav

Pre-gap length 0:00:02.61

Peak level 98.4 %
Track quality 100.0 %
Test CRC ED16BADE
Copy CRC ED16BADE
Copy OK

Track 8
Filename F:\[MyRip]\08 - Speechless.wav

Pre-gap length 0:00:02.06

Peak level 94.4 %
Track quality 100.0 %
Test CRC 8118F861
Copy CRC 8118F861
Copy OK

Track 9
Filename F:\[MyRip]\09 - Folly Seeing All This.wav

Pre-gap length 0:00:02.29

Peak level 86.3 %
Track quality 100.0 %
Test CRC 84BEDA4F
Copy CRC 84BEDA4F
Copy OK

Track 10
Filename F:\[MyRip]\10 - PSS.wav

Pre-gap length 0:00:04.27

Peak level 87.4 %
Track quality 100.0 %
Test CRC 088B33F7
Copy CRC 088B33F7
Copy OK

Track 11
Filename F:\[MyRip]\11 - Comrade.wav

Pre-gap length 0:00:01.17

Peak level 91.4 %
Track quality 100.0 %
Test CRC 420B5B7F
Copy CRC 420B5B7F
Copy OK

Track 12
Filename F:\[MyRip]\12 - A L'Abbattoir.wav

Pre-gap length 0:00:01.39

Peak level 95.9 %
Track quality 100.0 %
Test CRC E7E80995
Copy CRC E7E80995
Copy OK

Track 13
Filename F:\[MyRip]\13 - When I Run.wav

Pre-gap length 0:00:01.71

Peak level 72.5 %
Track quality 100.0 %
Test CRC 390B0515
Copy CRC 390B0515
Copy OK

Track 14
Filename F:\[MyRip]\14 - Alien - Part 1.wav

Pre-gap length 0:00:02.34

Peak level 94.1 %
Track quality 100.0 %
Test CRC F383F49B
Copy CRC F383F49B
Copy OK

Track 15
Filename F:\[MyRip]\15 - Twenty.wav

Pre-gap length 0:00:04.10

Peak level 99.8 %
Track quality 99.9 %
Test CRC D18D9FF2
Copy CRC D18D9FF2
Copy OK

Track 16
Filename F:\[MyRip]\16 - Movie Two.wav

Pre-gap length 0:00:00.51

Peak level 98.8 %
Track quality 100.0 %
Test CRC 24AF2F96
Copy CRC 24AF2F96
Copy OK

Track 17
Filename F:\[MyRip]\17 - Sometimes I See People.wav

Pre-gap length 0:00:03.26

Peak level 92.4 %
Track quality 100.0 %
Test CRC 60C3CAD6
Copy CRC 60C3CAD6
Copy OK

Track 18
Filename F:\[MyRip]\18 - The Sinking Spell.wav

Pre-gap length 0:00:03.14

Peak level 99.8 %
Track quality 100.0 %
Test CRC D70D8C6E
Copy CRC D70D8C6E
Copy OK

Track 19
Filename F:\[MyRip]\19 - 13.wav

Pre-gap length 0:00:05.37

Peak level 100.0 %
Track quality 100.0 %
Test CRC 9D411CFE
Copy CRC 9D411CFE
Copy OK

Track 20
Filename F:\[MyRip]\20 - Number Six - Part Four.wav

Pre-gap length 0:00:04.23

Peak level 88.0 %
Track quality 100.0 %
Test CRC 74EDA656
Copy CRC 74EDA656
Copy OK

Track 21
Filename F:\[MyRip]\21 - Preview.wav

Peak level 99.8 %
Track quality 100.0 %
Test CRC 8543072E
Copy CRC 8543072E
Copy OK

Track 22
Filename F:\[MyRip]\22 - It Makes no Difference To Me.wav

Pre-gap length 0:00:04.74

Peak level 58.4 %
Track quality 100.0 %
Test CRC 09667CD4
Copy CRC 09667CD4
Copy OK

No errors occured


End of status report

––––––––––––––––––––––––––––––

EAC extraction logfile from 13. January 2007, 17:47 for CD
Michael Mantler / Review - Recordings 1968-2000

Used drive : PLEXTOR DVDR PX-716A Adapter: 1 ID: 0
Read mode : Secure with NO C2, accurate stream, disable cache
Read offset correction : 30
Overread into Lead-In and Lead-Out : No

Used output format : C:\Programmi\Exact Audio Copy\flac-1.1.2-win\bin\flac.exe (User Defined Encoder)
32 kBit/s
Additional command line options : -8 -V %s

Other options :
Fill up missing offset samples with silence : Yes
Delete leading and trailing silent blocks : No
Installed external ASPI interface


Track 1
Filename F:\[MyRip]\01 - Unsaid.wav

Pre-gap length 0:00:02.00

Peak level 99.8 %
Track quality 100.0 %
Test CRC 89D4BE1E
Copy CRC 89D4BE1E
Copy OK

Track 2
Filename F:\[MyRip]\02 - I'm Gad You're Glad.wav

Peak level 71.3 %
Track quality 100.0 %
Test CRC 0EB90F75
Copy CRC 0EB90F75
Copy OK

Track 3
Filename F:\[MyRip]\03 - One Sinphony - Part 3.wav

Pre-gap length 0:00:01.65

Peak level 99.8 %
Track quality 100.0 %
Test CRC 0194C245
Copy CRC 0194C245
Copy OK

Track 4
Filename F:\[MyRip]\04 - Introduction.wav

Pre-gap length 0:00:02.72

Peak level 99.8 %
Track quality 99.9 %
Test CRC 9C0442F9
Copy CRC 9C0442F9
Copy OK

Track 5
Filename F:\[MyRip]\05 - Love Ends.wav

Pre-gap length 0:00:01.23

Peak level 90.5 %
Track quality 100.0 %
Test CRC 5F60CC56
Copy CRC 5F60CC56
Copy OK

Track 6
Filename F:\[MyRip]\06 - Understanding.wav

Pre-gap length 0:00:02.60

Peak level 100.0 %
Track quality 99.9 %
Test CRC 7C9058CC
Copy CRC 7C9058CC
Copy OK

Track 7
Filename F:\[MyRip]\07 - Solitude , Lontano , L'Illuminata Rugiada , Proverbi.wav

Pre-gap length 0:00:02.61

Peak level 98.4 %
Track quality 100.0 %
Test CRC ED16BADE
Copy CRC ED16BADE
Copy OK

Track 8
Filename F:\[MyRip]\08 - Speechless.wav

Pre-gap length 0:00:02.06

Peak level 94.4 %
Track quality 100.0 %
Test CRC 8118F861
Copy CRC 8118F861
Copy OK

Track 9
Filename F:\[MyRip]\09 - Folly Seeing All This.wav

Pre-gap length 0:00:02.29

Peak level 86.3 %
Track quality 100.0 %
Test CRC 84BEDA4F
Copy CRC 84BEDA4F
Copy OK

Track 10
Filename F:\[MyRip]\10 - PSS.wav

Pre-gap length 0:00:04.27

Peak level 87.4 %
Track quality 100.0 %
Test CRC 088B33F7
Copy CRC 088B33F7
Copy OK

Track 11
Filename F:\[MyRip]\11 - Comrade.wav

Pre-gap length 0:00:01.17

Peak level 91.4 %
Track quality 100.0 %
Test CRC 420B5B7F
Copy CRC 420B5B7F
Copy OK

Track 12
Filename F:\[MyRip]\12 - A L'Abbattoir.wav

Pre-gap length 0:00:01.39

Peak level 95.9 %
Track quality 100.0 %
Test CRC E7E80995
Copy CRC E7E80995
Copy OK

Track 13
Filename F:\[MyRip]\13 - When I Run.wav

Pre-gap length 0:00:01.71

Peak level 72.5 %
Track quality 100.0 %
Test CRC 390B0515
Copy CRC 390B0515
Copy OK

Track 14
Filename F:\[MyRip]\14 - Alien - Part 1.wav

Pre-gap length 0:00:02.34

Peak level 94.1 %
Track quality 100.0 %
Test CRC F383F49B
Copy CRC F383F49B
Copy OK

Track 15
Filename F:\[MyRip]\15 - Twenty.wav

Pre-gap length 0:00:04.10

Peak level 99.8 %
Track quality 99.9 %
Test CRC D18D9FF2
Copy CRC D18D9FF2
Copy OK

Track 16
Filename F:\[MyRip]\16 - Movie Two.wav

Pre-gap length 0:00:00.51

Peak level 98.8 %
Track quality 100.0 %
Test CRC 24AF2F96
Copy CRC 24AF2F96
Copy OK

Track 17
Filename F:\[MyRip]\17 - Sometimes I See People.wav

Pre-gap length 0:00:03.26

Peak level 92.4 %
Track quality 100.0 %
Test CRC 60C3CAD6
Copy CRC 60C3CAD6
Copy OK

Track 18
Filename F:\[MyRip]\18 - The Sinking Spell.wav

Pre-gap length 0:00:03.14

Peak level 99.8 %
Track quality 100.0 %
Test CRC D70D8C6E
Copy CRC D70D8C6E
Copy OK

Track 19
Filename F:\[MyRip]\19 - 13.wav

Pre-gap length 0:00:05.37

Peak level 100.0 %
Track quality 100.0 %
Test CRC 9D411CFE
Copy CRC 9D411CFE
Copy OK

Track 20
Filename F:\[MyRip]\20 - Number Six - Part Four.wav

Pre-gap length 0:00:04.23

Peak level 88.0 %
Track quality 100.0 %
Test CRC 74EDA656
Copy CRC 74EDA656
Copy OK

Track 21
Filename F:\[MyRip]\21 - Preview.wav

Peak level 99.8 %
Track quality 100.0 %
Test CRC 8543072E
Copy CRC 8543072E
Copy OK

Track 22
Filename F:\[MyRip]\22 - It Makes no Difference To Me.wav

Pre-gap length 0:00:04.74

Peak level 58.4 %
Track quality 100.0 %
Test CRC 09667CD4
Copy CRC 09667CD4
Copy OK

No errors occured


End of status report


––––––––––––––––––––––––––––––––––––––––
Analyzed: Michael Mantler / Review
––––––––––––––––––––––––––––––––––––––––

DR Peak RMS Duration Track
––––––––––––––––––––––––––––––––––––––––
DR13 -0.01 dB -17.73 dB 1:34 01-Unsaid (6)
DR11 -2.94 dB -18.24 dB 2:17 02-I'm Glad You're Glad
DR8 -0.01 dB -10.21 dB 4:41 03-One Symphony - Part 3
DR13 -0.01 dB -16.03 dB 7:59 04-Introductions
DR10 -0.86 dB -17.98 dB 1:27 05-Love Ends
DR11 0.00 dB -12.34 dB 5:09 06-Understanding
DR11 -0.13 dB -15.08 dB 4:13 07-Solitudine / Lontano / L'Illuminata Rugiada / Proverbi
DR14 -0.49 dB -18.35 dB 1:59 08-Speechless
DR13 -1.27 dB -17.88 dB 5:31 09-Folly Seeing All This
DR10 -1.16 dB -13.70 dB 1:48 10-PSS
DR11 -0.77 dB -15.39 dB 1:08 11-Comrade
DR11 -0.36 dB -13.31 dB 2:48 12-A L'Abattoir
DR12 -2.79 dB -18.62 dB 2:34 13-When I Run
DR11 -0.53 dB -14.66 dB 3:00 14-Alien - Part 1
DR11 -0.01 dB -13.42 dB 5:27 15-Twenty
DR10 -0.10 dB -12.57 dB 5:33 16-Movie Two
DR11 -0.68 dB -14.52 dB 2:47 17-Sometimes I See People
DR11 -0.01 dB -12.69 dB 4:53 18-The Sinking Spell
DR8 0.00 dB -10.74 dB 2:48 19-13
DR10 -1.11 dB -14.83 dB 2:07 20-Number Six - Part Four
DR8 -0.01 dB -9.29 dB 3:37 21-Preview
DR18 -4.67 dB -30.80 dB 2:10 22-It Makes No Difference To Me
––––––––––––––––––––––––––––––––––––––––

Number of tracks: 22
Official DR value: DR11

Samplerate: 44100 Hz
Channels: 2
Bits per sample: 16
Bitrate: 602 kbps
Codec: FLAC
================================================================================

Michael Mantler - Review (2006) {ECM 1813)
Michael Mantler - Review (2006) {ECM 1813)
Michael Mantler - Review (2006) {ECM 1813)


Thanks to the original ripper