Subcategories

Michael Sembello - Bossa Nova Hotel (1983) [1996, Reissue]

Posted By: BlondStyle
Michael Sembello - Bossa Nova Hotel (1983) [1996, Reissue]

Michael Sembello - Bossa Nova Hotel (1983) [1996, Reissue]
Pop/Rock, Soft Rock, hi-NRG | EAC Rip | FLAC, Tracks+CUE+LOG+Scans (PNG) | 40:42 | 308,66 Mb
Label: Warner Bros. Records (Germany) | Cat.# 7599-23920-2 | Released: 1996-01-18 (1983-09-25)
Michael Sembello - Bossa Nova Hotel (1983) [1996, Reissue]

"Bossa Nova Hotel" is the debut album of rock singer/guitarist Michael Sembello. The album contained ten tracks including the smash hit "Maniac" from the motion picture Flashdance, which topped the Billboard Hot 100 in September 1983. The album itself peaked at #80 on the Billboard 200. "Automatic Man" and "Talk" were the other singles released from the album. "Automatic Man" had three other versions released on an LP and 45 single (which were the Extended mix, Instrumental mix and Single Version). The version of "Maniac" that appeared on the soundtrack to Flashdance is different from the one that appears on this album. "Maniac" also had remixed and instrumental versions of the song. Singer Marilyn Scott covered the song "First Time" on her 1983 album Without Warning.
~Wikipedia

Michael Sembello - Bossa Nova Hotel (1983) [1996, Reissue]

Michael Sembello - Bossa Nova Hotel (1983) [1996, Reissue]




Release of the album: 1983, September, 25 [LP Warner Bros. Records, Cat.# 1-23920, USA]
Release of this CD: 1996, January, 18 [CD Warner Bros. Records (Germany), Cat.# 7599-23920-2 / UPC: 075992392020]
Warner Bros. Records, a Warner Communications Company.
© 1983 Warner Bros. Records, Inc.
℗ 1983 Warner Bros. Records, for the U.S. and WEA International Inc. for the world outside of the U.S.
Made in Germany by Warner Music Manufacturing Europe

Credits:

Coordinator [Production Manager] – Jeff Lamont
Engineer [Additional] – David Marquette, Geoff Gillette
Engineer [Assistant] – Bill Bottrell, Bino Espinoza, Bryan J. Rusenko, Darwin Foye, Gene Wooley, George Johnsen, Glenn Berkovitz, Jeff Vaughn, Jim Horn, Matt Forger, Mitch Gibson, Peter Kudas, Steve Reynolds
Engineer [Assistant], Tape [Digital Tape Editors] – Stephen Schmitt
Mastered By, Tape [Digital Tape Editors] – Bernie Grundman
Mixed By – Tommy Vicari
Producer – Phil Ramone
Programmed By [Simmons Drums] – John Gilston
Programmed By [Stereo Guitar] – Steve Ripley
Programmed By [Synthesizer] – Casey Young, Chris Page, Ian Underwood
Recorded By – James Gallagher, Peter Chaiken, Thom Wilson
Tape [Digital Tape Editors] – Jay Antista, Roger Nichols
Technician [Equipment] – Jim McKeever


Tracklist:

01. Automatic Man (04:18)
02. First Time (03:07)
03. Cowboy (03:33)
04. It's Over (05:01)
05. Maniac (04:21)
06. Godzilla (03:52)
07. Talk (03:27)
08. Cadillac (04:14)
09. Lay Back (04:04)
10. Superman (04:46)

Exact Audio Copy V1.0 beta 3 from 29. August 2011

EAC extraction logfile from 14. August 2016, 21:11

Michael Sembello / Bossa Nova Hotel

Used drive : ASUS DRW-20B1LT Adapter: 2 ID: 0

Read mode : Secure
Utilize accurate stream : Yes
Defeat audio cache : Yes
Make use of C2 pointers : No

Read offset correction : 6
Overread into Lead-In and Lead-Out : No
Fill up missing offset samples with silence : Yes
Delete leading and trailing silent blocks : No
Null samples used in CRC calculations : Yes
Used interface : Native Win32 interface for Win NT & 2000
Gap handling : Appended to previous track

Used output format : User Defined Encoder
Selected bitrate : 896 kBit/s
Quality : High
Add ID3 tag : No
Command line compressor : C:\Program Files\Exact Audio Copy\Flac\flac.exe
Additional command line options : -8 -V -T "ARTIST=%artist%" -T "TITLE=%title%" -T "ALBUM=%albumtitle%" -T "DATE=%year%" -T "TRACKNUMBER=%tracknr%" -T "GENRE=%genre%" -T "COMMENT=EAC FLAC -8" %source%


TOC of the extracted CD

Track | Start | Length | Start sector | End sector
––––––––––––––––––––––––––––-
1 | 0:00.00 | 4:17.55 | 0 | 19329
2 | 4:17.55 | 3:06.42 | 19330 | 33321
3 | 7:24.22 | 3:33.15 | 33322 | 49311
4 | 10:57.37 | 5:00.53 | 49312 | 71864
5 | 15:58.15 | 4:20.52 | 71865 | 91416
6 | 20:18.67 | 3:51.73 | 91417 | 108814
7 | 24:10.65 | 3:27.32 | 108815 | 124371
8 | 27:38.22 | 4:13.40 | 124372 | 143386
9 | 31:51.62 | 4:04.18 | 143387 | 161704
10 | 35:56.05 | 4:46.07 | 161705 | 183161


Track 1

Filename K:\EACrips\Michael Sembello - Bossa Nova Hotel\01 - Automatic Man.wav

Pre-gap length 0:00:02.00

Peak level 95.0 %
Extraction speed 3.4 X
Track quality 100.0 %
Test CRC 73545E6B
Copy CRC 73545E6B
Accurately ripped (confidence 3) [243F1826] (AR v2)
Copy OK

Track 2

Filename K:\EACrips\Michael Sembello - Bossa Nova Hotel\02 - First Time.wav

Peak level 93.0 %
Extraction speed 2.8 X
Track quality 99.9 %
Test CRC 0F5CE48F
Copy CRC 0F5CE48F
Accurately ripped (confidence 3) [CEC05119] (AR v2)
Copy OK

Track 3

Filename K:\EACrips\Michael Sembello - Bossa Nova Hotel\03 - Cowboy.wav

Peak level 81.4 %
Extraction speed 3.9 X
Track quality 100.0 %
Test CRC E1EC4A6D
Copy CRC E1EC4A6D
Accurately ripped (confidence 3) [D9F58651] (AR v2)
Copy OK

Track 4

Filename K:\EACrips\Michael Sembello - Bossa Nova Hotel\04 - It's Over.wav

Peak level 95.4 %
Extraction speed 4.5 X
Track quality 100.0 %
Test CRC 2B84D52E
Copy CRC 2B84D52E
Accurately ripped (confidence 3) [7FC1D8EF] (AR v2)
Copy OK

Track 5

Filename K:\EACrips\Michael Sembello - Bossa Nova Hotel\05 - Maniac.wav

Peak level 98.4 %
Extraction speed 4.7 X
Track quality 100.0 %
Test CRC 667093EA
Copy CRC 667093EA
Accurately ripped (confidence 3) [98552FFA] (AR v2)
Copy OK

Track 6

Filename K:\EACrips\Michael Sembello - Bossa Nova Hotel\06 - Godzilla.wav

Pre-gap length 0:00:01.12

Peak level 86.1 %
Extraction speed 4.9 X
Track quality 100.0 %
Test CRC B0870409
Copy CRC B0870409
Accurately ripped (confidence 3) [923AD282] (AR v2)
Copy OK

Track 7

Filename K:\EACrips\Michael Sembello - Bossa Nova Hotel\07 - Talk.wav

Peak level 83.0 %
Extraction speed 5.0 X
Track quality 100.0 %
Test CRC D057D68B
Copy CRC D057D68B
Accurately ripped (confidence 3) [48B670B7] (AR v2)
Copy OK

Track 8

Filename K:\EACrips\Michael Sembello - Bossa Nova Hotel\08 - Cadillac.wav

Peak level 90.6 %
Extraction speed 5.4 X
Track quality 100.0 %
Test CRC 6BCCEDDF
Copy CRC 6BCCEDDF
Accurately ripped (confidence 3) [BC913722] (AR v2)
Copy OK

Track 9

Filename K:\EACrips\Michael Sembello - Bossa Nova Hotel\09 - Lay Back.wav

Peak level 95.2 %
Extraction speed 5.7 X
Track quality 100.0 %
Test CRC 076AB36F
Copy CRC 076AB36F
Accurately ripped (confidence 3) [F7ADDA56] (AR v2)
Copy OK

Track 10

Filename K:\EACrips\Michael Sembello - Bossa Nova Hotel\10 - Superman.wav

Peak level 87.1 %
Extraction speed 6.0 X
Track quality 100.0 %
Test CRC 8878955B
Copy CRC 8878955B
Accurately ripped (confidence 3) [E40CB604] (AR v2)
Copy OK


All tracks accurately ripped

No errors occurred

End of status report

==== Log checksum 21EFA4CC8FF1B6E481A8C776C6C7E4383674660CB711944F1BFBCF0C9DDE2E6D ====

––––––––––––––––––––––––––––––––––––––––
Analyzed: Michael Sembello / Bossa Nova Hotel
––––––––––––––––––––––––––––––––––––––––

DR Peak RMS Duration Track
––––––––––––––––––––––––––––––––––––––––
DR11 -0.44 dB -13.66 dB 4:18 01-Automatic Man
DR12 -0.63 dB -14.36 dB 3:07 02-First Time
DR11 -1.78 dB -14.53 dB 3:33 03-Cowboy
DR12 -0.40 dB -14.98 dB 5:01 04-It's Over
DR11 -0.14 dB -13.02 dB 4:21 05-Maniac
DR11 -1.29 dB -14.77 dB 3:52 06-Godzilla
DR12 -1.62 dB -16.84 dB 3:27 07-Talk
DR12 -0.85 dB -15.97 dB 4:14 08-Cadillac
DR12 -0.42 dB -14.82 dB 4:04 09-Lay Back
DR12 -1.19 dB -15.96 dB 4:46 10-Superman
––––––––––––––––––––––––––––––––––––––––

Number of tracks: 10
Official DR value: DR12

Samplerate: 44100 Hz
Channels: 2
Bits per sample: 16
Bitrate: 815 kbps
Codec: FLAC
================================================================================

Thanks to the original releaser

♫~Welcome To My Blog~♫

password: BlondStyle