Tags
Language
Tags

Michael Stearns - Chronos [OST] (1985)

Posted By: gribovar
Michael Stearns - Chronos [OST] (1985)

Michael Stearns - Chronos [OST] (1985)
EAC Rip | FLAC (tracks+.cue+log) - 159 MB | MP3 CBR 320 kbps (LAME 3.93) - 101 MB | Covers (4 MB) included
Genre: Ambient | RAR 3% Rec. | Label: Sonic Atmospheres (Sonic Atmospheres 312)

Michael's enveloping film score to Ron Fricke's pandimensional time lapse IMAX film masterpiece. This is a package tour through time and space, with ports of call throughout the ancient and modern worlds. Michael guides us on an aural journey that is tuned to the time scales and rhythms of the sets… the slow steady march of Nature, the measured acceleration of the Egyptian movement, and the free fall through a window-in-time into classical civilization. Finally, a roller coaster ride of music, as the film careens through Paris, New York, and Los Angeles.
Tracklist:
01. Chronos
Movement 1 - Corridors Of Time
2 - Essence And The Ancients
3 - Angels, Bells And Pastorale
4 - Escalator
5 - Voices
6 - Portraits
7 - The Ride (Finale)

Total time: 41:45

Exact Audio Copy V0.99 prebeta 5 from 4. May 2009

EAC extraction logfile from 18. February 2010, 13:47

Michael Stearns / Chronos

Used drive : _NEC DVD_RW ND-3540A Adapter: 0 ID: 0

Read mode : Secure
Utilize accurate stream : Yes
Defeat audio cache : Yes
Make use of C2 pointers : No

Read offset correction : 48
Overread into Lead-In and Lead-Out : No
Fill up missing offset samples with silence : Yes
Delete leading and trailing silent blocks : No
Null samples used in CRC calculations : Yes
Used interface : Native Win32 interface for Win NT & 2000
Gap handling : Appended to previous track

Used output format : User Defined Encoder
Selected bitrate : 320 kBit/s
Quality : High
Add ID3 tag : No
Command line compressor : C:\Program Files\Exact Audio Copy\Flac\flac.exe
Additional command line options : -V -8 -T "artist=%a" -T "title=%t" -T "album=%g" -T "date=%y" -T "tracknumber=%n" -T "genre=%m" %s


TOC of the extracted CD

Track | Start | Length | Start sector | End sector
––––––––––––––––––––––––––––-
1 | 0:00.00 | 41:45.00 | 0 | 187874


Track 1

Filename F:\MUSIC\__RIPS\Michael Stearns - Chronos\01 - Chronos.wav

Pre-gap length 0:00:02.00

Peak level 97.0 %
Track quality 100.0 %
Test CRC 9F180445
Copy CRC 9F180445
Cannot be verified as accurate (confidence 2) [39CF0B2C], AccurateRip returned [D8C652CC]
Copy OK


No tracks could be verified as accurate
You may have a different pressing from the one(s) in the database

No errors occurred

End of status report

[CUETools log; Date: 10.09.2020 19:14:25; Version: 2.1.4]
[CTDB TOCID: Fvm.g72EMsVGKeVRrlDG7wvveiw-] found.
Track | CTDB Status
1 | (23/26) Accurately ripped
[AccurateRip ID: 0002dde3-0005bbc7-0209c901] found.
Track [ CRC | V2 ] Status
01 [39cf0b2c|76e9e547] (00+03/18) Accurately ripped
Offsetted by 250:
01 [d8c652cc] (03/18) Accurately ripped
Offsetted by 148:
01 [ce0ed40e] (00/18) No match (V2 was not tested)
Offsetted by 443:
01 [d9e21895] (00/18) No match (V2 was not tested)

Track Peak [ CRC32 ] [W/O NULL] [ LOG ]
– 97,0 [9F180445] [66CAB9F3] CRC32
01 97,0 [9F180445] [66CAB9F3] CRC32

Thanks to the original releaser

See also:
Michael Stearns - Sustaining Cylinders (1977) [Reissue 2001]
Michael Stearns - Planetary Unfolding (1981)
Michael Stearns - M'Ocean (1984)
Michael Stearns - Within - The Nine Dimensions (1998)