Tags
Language
Tags

Michael Stearns - Planetary Unfolding (1981)

Posted By: gribovar
Michael Stearns - Planetary Unfolding (1981)

Michael Stearns - Planetary Unfolding (1981)
EAC Rip | FLAC (tracks+.cue+log) - 171 MB | Covers - 29 MB
Genre: Space Music, Ambient | RAR 3% Rec. | Label: Sonic Atmospheres (307), 1985

Imagine the Earth as a being of sound. The sounds are of all times, its past life mixed with sounds yet to be heard. Now imagine the cosmos as a vibrating living orchestration, with a resonance so complex and deep that we are engulfed by a vast and tender silence. Considered a classic in its genre, Planetary Unfolding was performed entirely on the mighty Serge Synthesizer. From the opening movement "In the Beginning…" we are transported to the far reaches of deep space.
Tracklist:
01. In the Beginning…
02. Toto I've a Feeling We're not in Kansas Anymore.
03. Wherever Two or More are Gathered…
04. Life in the Gravity Well
05. As the Earth Kissed the Moon
06. Something's Moving

Total time: 45:50

Exact Audio Copy V1.0 beta 2 from 29. April 2011

EAC extraction logfile from 15. November 2011, 21:54

Michael Stearns / Planetary Unfolding

Used drive : PIONEER DVD-RW DVR-218L Adapter: 0 ID: 0

Read mode : Secure
Utilize accurate stream : Yes
Defeat audio cache : Yes
Make use of C2 pointers : No

Read offset correction : 6
Overread into Lead-In and Lead-Out : No
Fill up missing offset samples with silence : Yes
Delete leading and trailing silent blocks : No
Null samples used in CRC calculations : Yes
Used interface : Native Win32 interface for Win NT & 2000
Gap handling : Appended to previous track

Used output format : User Defined Encoder
Selected bitrate : 1024 kBit/s
Quality : High
Add ID3 tag : No
Command line compressor : D:\Programs\Multimedia\flac-1.2.1-win\bin\flac.exe
Additional command line options : -V -8 -T "Genre=%genre%" -T "Artist=%artist%" -T "Title=%title%" -T "Album=%albumtitle%" -T "Date=%year%" -T "Tracknumber=%tracknr%" -T "Comment=%comment%" %source%


TOC of the extracted CD

Track | Start | Length | Start sector | End sector
––––––––––––––––––––––––––––-
1 | 0:00.00 | 8:00.37 | 0 | 36036
2 | 8:00.37 | 6:20.00 | 36037 | 64536
3 | 14:20.37 | 9:19.38 | 64537 | 106499
4 | 23:40.00 | 6:55.37 | 106500 | 137661
5 | 30:35.37 | 9:55.00 | 137662 | 182286
6 | 40:30.37 | 5:20.00 | 182287 | 206286


Track 1

Filename H:\Michael Stearns - Planetary Unfolding\01. ''In the Beginning…''.wav

Pre-gap length 0:00:02.00

Peak level 50.7 %
Extraction speed 1.2 X
Track quality 100.0 %
Test CRC 5D51576E
Copy CRC 5D51576E
Cannot be verified as accurate (confidence 3) [D153E579], AccurateRip returned [13C0D9E8] (AR v2)
Copy OK

Track 2

Filename H:\Michael Stearns - Planetary Unfolding\02. ''Toto I've a feeling we're not in Kansas anymore.''.wav

Peak level 62.9 %
Extraction speed 1.4 X
Track quality 100.0 %
Test CRC 44FE495C
Copy CRC 44FE495C
Cannot be verified as accurate (confidence 3) [46BFDEDF], AccurateRip returned [C06BB144] (AR v2)
Copy OK

Track 3

Filename H:\Michael Stearns - Planetary Unfolding\03. ''Wherever two or more are gathered…''.wav

Peak level 55.5 %
Extraction speed 1.6 X
Track quality 100.0 %
Test CRC 527B9B89
Copy CRC 527B9B89
Cannot be verified as accurate (confidence 3) [3A151DC9], AccurateRip returned [C914D2B4] (AR v2)
Copy OK

Track 4

Filename H:\Michael Stearns - Planetary Unfolding\04. Life in the Gravity Well.wav

Pre-gap length 0:00:29.38

Peak level 61.2 %
Extraction speed 1.8 X
Track quality 100.0 %
Test CRC 3359BA3A
Copy CRC 3359BA3A
Cannot be verified as accurate (confidence 3) [70823484], AccurateRip returned [CC2976DE] (AR v2)
Copy OK

Track 5

Filename H:\Michael Stearns - Planetary Unfolding\05. As the Earth Kissed the Moon.wav

Peak level 54.5 %
Extraction speed 2.0 X
Track quality 100.0 %
Test CRC 7513D727
Copy CRC 7513D727
Cannot be verified as accurate (confidence 3) [966E528E], AccurateRip returned [54116F65] (AR v2)
Copy OK

Track 6

Filename H:\Michael Stearns - Planetary Unfolding\06. ''Something's Moving''.wav

Peak level 76.3 %
Extraction speed 2.0 X
Track quality 100.0 %
Test CRC C4D228E0
Copy CRC C4D228E0
Cannot be verified as accurate (confidence 3) [3EF28D47], AccurateRip returned [F316DD61] (AR v2)
Copy OK


No tracks could be verified as accurate
You may have a different pressing from the one(s) in the database

No errors occurred

End of status report

==== Log checksum A13CCBB04709E9001F35DF7320AF39DBC2F8C9B82502B72C3EDB24F9F6A5EAE6 ====

[CUETools log; Date: 17.11.2019 22:26:38; Version: 2.1.4]
[CTDB TOCID: NzT1HWS31Kvq67.LSLOwf_js_l8-] found.
Track | CTDB Status
1 | (23/23) Accurately ripped
2 | (23/23) Accurately ripped
3 | (22/23) Accurately ripped
4 | (21/23) Accurately ripped
5 | (23/23) Accurately ripped
6 | (21/23) Accurately ripped
[AccurateRip ID: 000b307e-003bc79f-470abe06] found.
Track [ CRC | V2 ] Status
01 [4794bbc6|d153e579] (00+03/20) Accurately ripped
02 [7fcfe0ac|46bfdedf] (00+03/20) Accurately ripped
03 [c486cd6d|3a151dc9] (00+03/20) Accurately ripped
04 [998ae5fc|70823484] (00+03/19) Accurately ripped
05 [11d9b364|966e528e] (00+03/19) Accurately ripped
06 [f01cbd6e|3ef28d47] (00+03/18) Accurately ripped
Offsetted by -493:
01 [13c0d9e8] (03/20) Accurately ripped
02 [c06bb144] (03/20) Accurately ripped
03 [c914d2b4] (03/20) Accurately ripped
04 [cc2976de] (03/19) Accurately ripped
05 [54116f65] (03/19) Accurately ripped
06 [f316dd61] (03/18) Accurately ripped
Offsetted by -481:
01 [4347a82a] (02/20) Accurately ripped
02 [91bea132] (02/20) Accurately ripped
03 [d48063e6] (02/20) Accurately ripped
04 [f30da141] (02/19) Accurately ripped
05 [0a665097] (02/19) Accurately ripped
06 [0c0b5b4f] (02/18) Accurately ripped
Offsetted by -294:
01 [fb379a26] (00/20) No match (V2 was not tested)
02 [7bd6ce09] (00/20) No match (V2 was not tested)
03 [453ead08] (00/20) No match (V2 was not tested)
04 [017721d4] (00/19) No match (V2 was not tested)
05 [cb56a2cf] (00/19) No match (V2 was not tested)
06 [a5762c7c] (00/18) No match (V2 was not tested)

Track Peak [ CRC32 ] [W/O NULL] [ LOG ]
– 76,3 [8A69D3BA] [B03D9A08]
01 50,7 [5D51576E] [AB9CCC63] CRC32
02 62,9 [44FE495C] [6C590107] CRC32
03 55,5 [527B9B89] [422E55A6] CRC32
04 61,2 [3359BA3A] [AB44944A] CRC32
05 54,5 [7513D727] [F093D7C9] CRC32
06 76,3 [C4D228E0] [8B923720] CRC32

Thanks to tyom86