Tags
Language
Tags

Michael Stearns - The Lost World (1995)

Posted By: gribovar
Michael Stearns - The Lost World (1995)

Michael Stearns - The Lost World (1995)
EAC Rip | FLAC (tracks+.cue+log) - 285 MB | MP3 CBR 320 kbps (LAME 3.93) - 128 MB | Covers - 15 MB
Genre: Ambient | RAR 3% Rec. | Label: Hearts of Space (HS 11054-2)

The 54-minute concept album "The Lost World" is a gem of cinematic ambient music which sees accomplished ambient sound painter Michael Stearns deliver another stunning piece of sonic art. Inspired by a trip into The Lost World of Venezuela, this highly textural work is acts as a time capsule, being able to paint a vibrant picture of grand natural surroundings with the many sounds collected during the journey and assorted electronic sounds. The outcome is an impeccable sounding, vast and overall rich sonic tapestry interweaving complex synthesizer layers, assorted percussion, flute, voice and diverse natural soundscapes, in which the Mighty Serge is also clearly present. The expert merging of acoustic and electronic sources into impressive ominous and highly cinematic atmospheres of grand design is fascinating and at times breath taking. It all makes the compelling and evocative ambiences of "The Lost World" a satisfying, intense, and very rewarding sound experience for listeners with an eye for adventurous electronic ambient music.
Tracklist:
01. Kama Meru
02. Lost World Theme
03. Imu Paru
04. Maripak: The Last Pterodactyl
05. Matawi: Killer of Men
06. Sabana
07. Volcano
08. Auyan
09. Warao
10. St. Francis
11. Crystal Canyon
12. Lost World Reprise

Total time: 54:31

Exact Audio Copy V0.99 prebeta 4 from 23. January 2008

EAC extraction logfile from 20. October 2008, 21:41

Michael Stearns / The Lost World

Used drive : PIONEER DVD-RW DVR-110D Adapter: 5 ID: 0

Read mode : Secure
Utilize accurate stream : Yes
Defeat audio cache : Yes
Make use of C2 pointers : No

Read offset correction : 48
Overread into Lead-In and Lead-Out : No
Fill up missing offset samples with silence : Yes
Delete leading and trailing silent blocks : No
Null samples used in CRC calculations : Yes
Used interface : Installed external ASPI interface
Gap handling : Appended to previous track

Used output format : User Defined Encoder
Selected bitrate : 320 kBit/s
Quality : High
Add ID3 tag : No
Command line compressor : C:\Program Files\FLAC\flac.exe
Additional command line options : -V -6 -T "artist=%a" -T "title=%t" -T "album=%g" -T "date=%y" -T "tracknumber=%n" -T "genre=%m" %s


TOC of the extracted CD

Track | Start | Length | Start sector | End sector
––––––––––––––––––––––––––––-
1 | 0:00.00 | 2:14.20 | 0 | 10069
2 | 2:14.20 | 5:08.32 | 10070 | 33201
3 | 7:22.52 | 5:03.30 | 33202 | 55956
4 | 12:26.07 | 6:39.49 | 55957 | 85930
5 | 19:05.56 | 4:54.52 | 85931 | 108032
6 | 24:00.33 | 4:20.68 | 108033 | 127600
7 | 28:21.26 | 4:31.57 | 127601 | 147982
8 | 32:53.08 | 2:34.35 | 147983 | 159567
9 | 35:27.43 | 4:58.23 | 159568 | 181940
10 | 40:25.66 | 5:52.32 | 181941 | 208372
11 | 46:18.23 | 3:48.73 | 208373 | 225545
12 | 50:07.21 | 4:25.01 | 225546 | 245421


Track 1

Filename D:\Rips\Michael_Stearns_-_The_Lost_World-(FLAC)-1995\01-Michael_Stearns_-_Kama_Meru.wav

Pre-gap length 0:00:02.00

Peak level 96.5 %
Track quality 100.0 %
Test CRC 90D292A2
Copy CRC 90D292A2
Track not present in AccurateRip database
Copy OK

Track 2

Filename D:\Rips\Michael_Stearns_-_The_Lost_World-(FLAC)-1995\02-Michael_Stearns_-_Lost_World_Theme.wav

Pre-gap length 0:00:01.43

Peak level 96.6 %
Track quality 100.0 %
Test CRC 5F4761F3
Copy CRC 5F4761F3
Track not present in AccurateRip database
Copy OK

Track 3

Filename D:\Rips\Michael_Stearns_-_The_Lost_World-(FLAC)-1995\03-Michael_Stearns_-_Imu_Paru.wav

Pre-gap length 0:00:03.44

Peak level 96.6 %
Track quality 100.0 %
Test CRC 24ACEB22
Copy CRC 24ACEB22
Track not present in AccurateRip database
Copy OK

Track 4

Filename D:\Rips\Michael_Stearns_-_The_Lost_World-(FLAC)-1995\04-Michael_Stearns_-_Maripak-_The_Last_Pterodactyl.wav

Pre-gap length 0:00:01.41

Peak level 96.6 %
Track quality 100.0 %
Test CRC C9C6AC9B
Copy CRC C9C6AC9B
Track not present in AccurateRip database
Copy OK

Track 5

Filename D:\Rips\Michael_Stearns_-_The_Lost_World-(FLAC)-1995\05-Michael_Stearns_-_Matawi-_Killer_Of_Men.wav

Pre-gap length 0:00:03.44

Peak level 89.1 %
Track quality 100.0 %
Test CRC B718B957
Copy CRC B718B957
Track not present in AccurateRip database
Copy OK

Track 6

Filename D:\Rips\Michael_Stearns_-_The_Lost_World-(FLAC)-1995\06-Michael_Stearns_-_Sabana.wav

Pre-gap length 0:00:03.41

Peak level 67.6 %
Track quality 100.0 %
Test CRC 0C2CD4C4
Copy CRC 0C2CD4C4
Track not present in AccurateRip database
Copy OK

Track 7

Filename D:\Rips\Michael_Stearns_-_The_Lost_World-(FLAC)-1995\07-Michael_Stearns_-_Volcano.wav

Pre-gap length 0:00:01.45

Peak level 96.6 %
Track quality 100.0 %
Test CRC 18234C63
Copy CRC 18234C63
Track not present in AccurateRip database
Copy OK

Track 8

Filename D:\Rips\Michael_Stearns_-_The_Lost_World-(FLAC)-1995\08-Michael_Stearns_-_Auyan.wav

Pre-gap length 0:00:02.49

Peak level 96.6 %
Track quality 100.0 %
Test CRC A7FC4A79
Copy CRC A7FC4A79
Track not present in AccurateRip database
Copy OK

Track 9

Filename D:\Rips\Michael_Stearns_-_The_Lost_World-(FLAC)-1995\09-Michael_Stearns_-_Warao.wav

Pre-gap length 0:00:03.43

Peak level 59.3 %
Track quality 100.0 %
Test CRC 544DB71C
Copy CRC 544DB71C
Track not present in AccurateRip database
Copy OK

Track 10

Filename D:\Rips\Michael_Stearns_-_The_Lost_World-(FLAC)-1995\10-Michael_Stearns_-_St._Francis.wav

Pre-gap length 0:00:02.72

Peak level 36.3 %
Track quality 100.0 %
Test CRC E9A16670
Copy CRC E9A16670
Track not present in AccurateRip database
Copy OK

Track 11

Filename D:\Rips\Michael_Stearns_-_The_Lost_World-(FLAC)-1995\11-Michael_Stearns_-_Crystal_Canyon.wav

Pre-gap length 0:00:03.42

Peak level 53.0 %
Track quality 100.0 %
Test CRC 89AD9577
Copy CRC 89AD9577
Track not present in AccurateRip database
Copy OK

Track 12

Filename D:\Rips\Michael_Stearns_-_The_Lost_World-(FLAC)-1995\12-Michael_Stearns_-_Lost_World_Reprise.wav

Pre-gap length 0:00:03.41

Peak level 96.6 %
Track quality 99.9 %
Test CRC C697E6EB
Copy CRC C697E6EB
Track not present in AccurateRip database
Copy OK


None of the tracks are present in the AccurateRip database

No errors occurred

End of status report

[CUETools log; Date: 13.09.2020 18:51:26; Version: 2.1.4]
[CTDB TOCID: WuxCVvECNiR.VqmN45gfU9fueW4-] found.
Track | CTDB Status
1 | (11/11) Accurately ripped
2 | (11/11) Accurately ripped
3 | (11/11) Accurately ripped
4 | (11/11) Accurately ripped
5 | (11/11) Accurately ripped
6 | (11/11) Accurately ripped
7 | (11/11) Accurately ripped
8 | (11/11) Accurately ripped
9 | (11/11) Accurately ripped
10 | (11/11) Accurately ripped
11 | (11/11) Accurately ripped
12 | (11/11) Accurately ripped
[AccurateRip ID: 0018417b-00e403ba-9e0cc80c] found.
Track [ CRC | V2 ] Status
01 [d6ae8006|bd3bec24] (08+07/17) Accurately ripped
02 [ab22da6b|fe334dea] (08+07/17) Accurately ripped
03 [29a027be|31c22546] (07+07/16) Accurately ripped
04 [97b67e6e|a565168b] (08+07/17) Accurately ripped
05 [4191be01|ce754f26] (08+07/17) Accurately ripped
06 [91369759|432b2631] (08+07/17) Accurately ripped
07 [4be531e6|17fe99b6] (09+07/18) Accurately ripped
08 [45b5e9a8|9691d3b8] (08+07/17) Accurately ripped
09 [0283d00a|efa67cce] (08+07/17) Accurately ripped
10 [9a5769f5|662f8ccf] (08+07/17) Accurately ripped
11 [180db0e5|6b0a47ad] (08+07/17) Accurately ripped
12 [0b990a70|b269eafc] (07+07/16) Accurately ripped
Offsetted by 670:
01 [736eb716] (00/17) No match (V2 was not tested)
02 [c508fdf1] (00/17) No match (V2 was not tested)
03 [09840222] (00/16) No match (V2 was not tested)
04 [5f7f6e28] (00/17) No match (V2 was not tested)
05 [ecd9ead9] (00/17) No match (V2 was not tested)
06 [7e438f31] (00/17) No match (V2 was not tested)
07 [5d1182fe] (00/18) No match (V2 was not tested)
08 [9b23da54] (00/17) No match (V2 was not tested)
09 [aa63fb2a] (00/17) No match (V2 was not tested)
10 [8a24b94d] (00/17) No match (V2 was not tested)
11 [d6894223] (00/17) No match (V2 was not tested)
12 [29d9aaa5] (00/16) No match (V2 was not tested)

Track Peak [ CRC32 ] [W/O NULL] [ LOG ]
– 96,6 [5B46F2F5] [889BB1DA]
01 96,5 [90D292A2] [B2805855] CRC32
02 96,6 [5F4761F3] [0CACD152] CRC32
03 96,6 [24ACEB22] [AFB66F31] CRC32
04 96,5 [C9C6AC9B] [0CD862F4] CRC32
05 89,1 [B718B957] [287D3F78] CRC32
06 67,6 [0C2CD4C4] [78160D61] CRC32
07 96,6 [18234C63] [B05EE43F] CRC32
08 96,6 [A7FC4A79] [6694F58C] CRC32
09 59,3 [544DB71C] [2F837561] CRC32
10 36,3 [E9A16670] [10697B27] CRC32
11 53,0 [89AD9577] [40387004] CRC32
12 96,5 [C697E6EB] [C7B23FF4] CRC32

Thanks to Zest101

See also:
Michael Stearns - Sustaining Cylinders (1977) [Reissue 2001]
Michael Stearns - Planetary Unfolding (1981)
Michael Stearns - M'Ocean (1984)
Michael Stearns - Chronos [OST] (1985)
Michael Stearns - Within - The Nine Dimensions (1998)