Subcategories

Michael Zee - Five Seven Maybe Five Eight (1984/86) [Reissue 1994]

Posted By: Andi_Deris
Michael Zee - Five Seven Maybe Five Eight (1984/86) [Reissue 1994]

Michael Zee - Five Seven Maybe Five Eight (1984/86) [Reissue 1994]
EAC Rip | FLAC: Image+Cue+Log | 312 Mb | MP3 CBR 320 kbps | 116 Mb | Scans | 54 Mb | Time: 45:52
Genre: Melodic Rock, AOR | Label: Long Island Rec. | Cat.: LIRC 00020

Great discovery, an unknown AOR pearl from the 80's released on a gold CD in typical Long Island Rock Classic tradition. This is in the early Diving for Pearls, Rick Springfield, Bryan Adams AOR style. Long Island Records Rock Classic Series. Limited and numbered to 2000 copies only. Fantastic canadian AOR/Melodic Rock stuff. If you're into Survivor/Stan Meissner, you'd love this one. Just listen to timeless hits like "I'll Be Waiting" or "Safe At Last".



Michael Zee - Five Seven Maybe Five Eight (1984/86) [Reissue 1994]


Track Listing

01. I've Got News For You (3:13)
02. Blueprints For Love (4:40)
03. I'll Hold On (3:35)
04. I'm No Loser (3:12)
05. Baby It's Right (3:33)
06. He's Got Something (4:10)
07. I'll Be Waiting (4:26)
08. Safe at Last (3:53)
09. Can't Get Even (3:05)
10. Anyone But You (4:45)
11. You Got It All (3:07)
12. Obsession (4:13)

Tracks 1-4: The EP "Five Seven, Maybe Five Eight" released in 1984
Tracks 5-10: The album "Stubborn Man" recorded in 1986, unreleased
Tracks 11, 12: Recorded in 1986, previously unreleased

Re-Mastering by Carl Dixon

Musicians

• Michael Zee (Michael Z): guitars, lead and backing vocals
• Victor D'Arsie: keyboards, bass, glockenspiel, backing vocals
• Matt Greenberg, Jim Nielsen: bass
• Glenn Martin: drums
• Terry Martell: drums, percussion

Michael Zee - Five Seven Maybe Five Eight (1984/86) [Reissue 1994]


Exact Audio Copy V1.0 beta 3 from 29. August 2011

EAC extraction logfile from 21. December 2011, 18:09

Michael Zee / Five Seven Maybe Five Eight

Used drive : SlimtypeDVD A DS8A5SH Adapter: 0 ID: 1

Read mode : Secure
Utilize accurate stream : Yes
Defeat audio cache : Yes
Make use of C2 pointers : No

Read offset correction : 6
Overread into Lead-In and Lead-Out : No
Fill up missing offset samples with silence : Yes
Delete leading and trailing silent blocks : No
Null samples used in CRC calculations : Yes
Used interface : Native Win32 interface for Win NT & 2000

Used output format : User Defined Encoder
Selected bitrate : 192 kBit/s
Quality : High
Add ID3 tag : No
Command line compressor : C:\Program Files (x86)\Exact Audio Copy\Flac\flac.exe
Additional command line options : -V -8 -T "Date=%year%" -T "Genre=%genre%" %source%


TOC of the extracted CD

Track | Start | Length | Start sector | End sector
––––––––––––––––––––––––––––-
1 | 0:00.33 | 3:13.32 | 33 | 14539
2 | 3:13.65 | 4:40.73 | 14540 | 35612
3 | 7:54.63 | 3:35.12 | 35613 | 51749
4 | 11:30.00 | 3:12.15 | 51750 | 66164
5 | 14:42.15 | 3:33.20 | 66165 | 82159
6 | 18:15.35 | 4:10.10 | 82160 | 100919
7 | 22:25.45 | 4:26.28 | 100920 | 120897
8 | 26:51.73 | 3:53.47 | 120898 | 138419
9 | 30:45.45 | 3:05.18 | 138420 | 152312
10 | 33:50.63 | 4:45.55 | 152313 | 173742
11 | 38:36.43 | 3:07.37 | 173743 | 187804
12 | 41:44.05 | 4:13.15 | 187805 | 206794


Range status and errors

Selected range

Filename D:\My Music\Michael Zee - 1984 Five Seven Maybe Five Eight\Michael Zee - Five Seven Maybe Five Eight.wav

Peak level 100.0 %
Extraction speed 2.7 X
Range quality 99.9 %
Test CRC 646DC87E
Copy CRC 646DC87E
Copy OK

No errors occurred


AccurateRip summary

Track 1 cannot be verified as accurate (confidence 1) [73D1E5DA], AccurateRip returned [BF6A6921] (AR v2)
Track 2 accurately ripped (confidence 1) [B2CF6817] (AR v1)
Track 3 accurately ripped (confidence 1) [CFCAF466] (AR v1)
Track 4 accurately ripped (confidence 1) [8929D43C] (AR v1)
Track 5 accurately ripped (confidence 1) [42FCA50D] (AR v1)
Track 6 accurately ripped (confidence 1) [3A9D8E2D] (AR v1)
Track 7 accurately ripped (confidence 1) [881F62E0] (AR v1)
Track 8 accurately ripped (confidence 1) [33D01CCB] (AR v1)
Track 9 accurately ripped (confidence 1) [9940F860] (AR v1)
Track 10 accurately ripped (confidence 1) [2F6528E3] (AR v1)
Track 11 accurately ripped (confidence 1) [FA5A6F12] (AR v1)
Track 12 accurately ripped (confidence 1) [8A16DF33] (AR v1)

11 трек(и) скопированы точно
1 трек(и) не удалось проверить на точность

Some tracks could not be verified as accurate

End of status report

==== Log checksum C67D9E30E2690F63C294841B8C3828B06AD64643BB167DC16C079758C77E855D ====


Many thanks to the original uploader: kolushew

SEE also:
Metropolis 1999 The Power Of The Night [Japanese Ed. 2000]

Michael Zee 1995 Candyland

Stan Meissner 1984 Dangerous Games [Reissue 1994]
–––––––––––
Nitroflare