Subcategories

Michaela Paetsch Neftel - Joachim Raff: Violin Concertos Nos. 1 & 2, Cavatina, Ungrischer (2000)

Posted By: tirexiss
Michaela Paetsch Neftel - Joachim Raff: Violin Concertos Nos. 1 & 2, Cavatina, Ungrischer (2000)

Michaela Paetsch Neftel - Joachim Raff: Violin Concertos Nos. 1 & 2, Cavatina, Ungrischer (2000)
EAC | FLAC (image+.cue, log) | Covers Included | 01:10:06 | 351 MB
Genre: Classical | Label: Tudor | Catalog: 7086

If the idea of a marginally more advanced Mendelssohn or a slightly more coherent Liszt sounds appealing, try Joseph Joachim Raff. In this disc of his two violin concertos coupled with two shorter works for violin and orchestra, Raff writes for the soloist in an effervescent style that clearly has its origins in Mendelssohn's elfin manner. The clarity of Raff's writing and the lightness of his lyricism strongly recalls Mendelssohn's own Violin Concerto, but since Raff's works were written decades after Mendelssohn's, the soloist is set against the slightly more advanced harmonic idiom of Liszt. Fortunately, the lucidity of Raff's part-writing and the cogency of his modulations, while it calls to mind Liszt's harmonic adventures, is more secure than Liszt's and the result is less rambling if also less innovative. But if Raff's music is also less interesting than either Mendelssohn's or Liszt's, it is surely not the fault of violinist Michaela Paetsch Neftel, whose warm tone, secure intonation, and virtuoso technique makes the best possible case for Raff's concertos. Accompanied by Hans Stadlmair and the Bamberg Symphony Chorus – the stalwart performers who have recorded much of Raff's orchestral music for Tudor – Neftel's performances are strong, sprightly, and sweet and as convincing as is imaginable considering the repertoire. Tudor's sound is clear, warm, and round.

Michaela Paetsch Neftel - Joachim Raff: Violin Concertos Nos. 1 & 2, Cavatina, Ungrischer (2000)

Track List:

Joachim Joachim Raff (1822 - 1882)

Concerto for violin and orchestra No. 2 a-moll, op. 206 (1877)
1. I. Allegro [09:54]
2. II. Adagio [11:39]
3. III. Allegro [11:09]

4. Cavatina for violin and orchestra, op. 85 No. 3 (1859). Larghetto, quasi andantino [04:48]

5. Hungarian (Ungrischer, À La Hongroise) for violin and orchestra, op. 203 No. 5 (1876). Larghetto. - Allegro [08:21]

Concerto for violin and orchestra No. 1 h-moll, op. 161 (1870 - 1871)
6. I. Allegro patetico [11:42]
7. II. Andante non troppo [05:40]
8. III. Allegro trionfale [06:03]

Performers:
Michaela Paetsch Neftel (violin)
Bamberger Symphoniker
Conductor Hans Stadlmair

Exact Audio Copy V1.0 beta 1 from 15. November 2010

EAC extraction logfile from 14. June 2011, 19:39

Michaela Paetsch Neftel - Bamberger Symphoniker, Hans Stadlmair / Raff: Violinkonzerte

Used drive : PIONEER DVD-RW DVR-215 Adapter: 2 ID: 1

Read mode : Secure
Utilize accurate stream : Yes
Defeat audio cache : Yes
Make use of C2 pointers : No

Read offset correction : 48
Overread into Lead-In and Lead-Out : No
Fill up missing offset samples with silence : Yes
Delete leading and trailing silent blocks : No
Null samples used in CRC calculations : Yes
Used interface : Native Win32 interface for Win NT & 2000

Used output format : User Defined Encoder
Selected bitrate : 896 kBit/s
Quality : High
Add ID3 tag : No
Command line compressor : C:\Program Files\Exact Audio Copy\FLAC\FLAC.EXE
Additional command line options : -6 -V -T "ARTIST=%a" -T "TITLE=%t" -T "ALBUM=%g" -T "DATE=%y" -T "TRACKNUMBER=%n" -T "GENRE=%m" -T "COMMENT=%e" %j–picture="%i"%j %s -o %d


TOC of the extracted CD

Track | Start | Length | Start sector | End sector
––––––––––––––––––––––––––––-
1 | 0:00.00 | 9:59.70 | 0 | 44994
2 | 9:59.70 | 11:44.26 | 44995 | 97820
3 | 21:44.21 | 11:18.39 | 97821 | 148709
4 | 33:02.60 | 4:57.16 | 148710 | 171000
5 | 38:00.01 | 8:30.44 | 171001 | 209294
6 | 46:30.45 | 11:47.18 | 209295 | 262337
7 | 58:17.63 | 5:45.15 | 262338 | 288227
8 | 64:03.03 | 6:02.46 | 288228 | 315423


Range status and errors

Selected range

Filename C:\Users\Otto\Desktop\work\library\Raff - Violin Concertos 1&2 etc - Neftel, Stadlmair, Bamberger (flac,scans) JJRVCNS\cd\Raff - Violin Concertos 1&2 etc - Neftel, Stadlmair, Bamberger.wav

Peak level 98.1 %
Extraction speed 0.5 X
Range quality 100.0 %
Copy CRC 90F8CF11
Copy OK

No errors occurred

End of status report

==== Log checksum BA1AE85E5BFBD7A06C0501D3F6A7BEB825F0E3BB25CB70968D0117B3E3A9F066 ====

[CUETools log; Date: 14.10.2017 19:01:24; Version: 2.1.5]
[CTDB TOCID: ANazpsiHTSHYIxbfdmvJEl0qxZA-] found.
Track | CTDB Status
1 | (0/9) No match
2 | (0/9) No match
3 | (0/9) No match
4 | (0/9) No match
5 | (0/9) No match
6 | (0/9) No match
7 | (0/9) No match
8 | (0/9) No match
[AccurateRip ID: 00177714-0099a83b-78106d08] found.
Track [ CRC | V2 ] Status
01 [68bd3ae6|ae2ea9c8] (0+0/7) No match
02 [fa7595fe|0211cc51] (0+0/7) No match
03 [207558b9|2576a45f] (0+0/7) No match
04 [ba5ec43c|6fd6fa95] (0+0/7) No match
05 [ed0c8d75|49fae912] (0+0/7) No match
06 [832e554b|2f907ebf] (0+0/7) No match
07 [584ecc8e|b03190be] (0+0/7) No match
08 [360b3a60|8ee398e7] (0+0/7) No match
Offsetted by 120:
01 [e99e6f2e] (0/7) No match (V2 was not tested)
02 [8c6efcfe] (0/7) No match (V2 was not tested)
03 [fb924e69] (0/7) No match (V2 was not tested)
04 [f33a9a9c] (0/7) No match (V2 was not tested)
05 [a5e5c9fd] (0/7) No match (V2 was not tested)
06 [602e9f53] (0/7) No match (V2 was not tested)
07 [b9548f7e] (0/7) No match (V2 was not tested)
08 [ab814ab0] (0/7) No match (V2 was not tested)

Track Peak [ CRC32 ] [W/O NULL] [ LOG ]
– 98,1 [90F8CF11] [9E9303A7] CRC32
01 97,5 [97E84DD6] [3BFCC591]
02 70,1 [3F7C66CB] [952D56BA]
03 87,8 [2F812885] [EE5A5AC6]
04 76,2 [18A6E35D] [DF5CE3F4]
05 98,1 [A7B0CD00] [0410D0C0]
06 87,4 [9A1B9A1D] [A0FB142A]
07 39,6 [77FE40AE] [AC8F15F3]
08 81,5 [67B5A3D9] [61DDF18D]

Thanks to the Original ripper (unknown)!

Download: