Subcategories

Midge Ure - Soundtrack: 1978-2019 (2019) {2CD/DVD Box Set}

Posted By: popsakov
Midge Ure - Soundtrack: 1978-2019 (2019) {2CD/DVD Box Set}

Midge Ure - Soundtrack: 1978-2019 (2019) {2CD/DVD Box Set}
2CD | EAC Rip | FLAC (Img) + Cue + Log ~ 976 Mb | MP3 CBR320 ~ 343 Mb | 01:10:09 + 01:12:29
DVD5 | MPEG-2 Video, NTSC 720x480 (16:9), 29.97 fps, VBR ~ 3700 kb/s
DD 2.0, 48.0 kHz/16 bit, 224 kb/s | ~ 4,58 Gb | Full Scans ~ 93 Mb | RAR 5% Recovery
Synth-Pop, Pop Rock, New Wave | Chrysalis Records #CRB1284

Best known for his work with Ultravox and as a co-founder writer/founder of Band Aid’s ‘Do They Know It’s Christmas’, Midge Ure has also had a rich and illustrious career prior to Ultravox with the Rich Kids, Visage and throughout his career as a solo artist. Chrysalis Records are releasing a new 32-song collection, encompassing four decades of Midge Ure’s rich and varied career. This 2CD/1DVD is presented with double-gatefold card sleeves, a 20-page booklet with track notes by Midge and housed in a clamshell box. It features promo videos including the Rich Kids, through to his solo work and various collaborations. Bonus features include documentaries and additional live and video clips. As a special bonus, Midge has recorded a commentary over the promo videos. Midge Ure will be on a world tour from October – beginning with a full UK tour, then moving to Poland, Germany, Holland, Scandinavia, Australia, New Zealand and North America.

***************

Track List CD1:

01. Call Of The Wild [7" Version] (1986) [4:20]
02. Answers To Nothing [7" Version] (1988) [3:38]
03. Dancing With Tears In My Eyes [7" Version] - Ultravox (1984) [4:09]
04. The Gift (1985) [5:09]
05. Wastelands [7" Version] (1985) [4:21]
06. After a Fashion [7" Version] Mick Karn & Midge Ure (1983) [4:00]
07. Remembrance Day [7" Version] (1988) [4:28]
08. No Regrets [7" Version] (1982) [4:02]
09. Marching Men - Rich Kids (1978) [3:52]
10. If I Was [7" Version] (1985) [4:52]
11. Fade To Grey (2017 Version) - Band Electronica (2017) [3:55]
12. Dear God [7" Version] (1988) [5:00]
13. The Man Who Sold The World (1982) [5:43]
14. That Certain Smile [7" Version] (1985) 3:25]
15. Sister And Brother [feat. Kate Bush] [Alt. 7" Version] (1988) [4:45]
16. All In One Day [7" Version] - Ultravox (1986) [4:20]

Exact Audio Copy V1.3 from 2. September 2016

EAC extraction logfile from 2. November 2019, 15:41

Midge Ure / Soundtrack 1978-2019 - CD1

Used drive : ATAPI iHAS122 C Adapter: 1 ID: 0

Read mode : Secure
Utilize accurate stream : Yes
Defeat audio cache : Yes
Make use of C2 pointers : No

Read offset correction : 6
Overread into Lead-In and Lead-Out : No
Fill up missing offset samples with silence : Yes
Delete leading and trailing silent blocks : No
Null samples used in CRC calculations : Yes
Used interface : Native Win32 interface for Win NT & 2000

Used output format : Internal WAV Routines
Sample format : 44.100 Hz; 16 Bit; Stereo


TOC of the extracted CD

Track | Start | Length | Start sector | End sector
––––––––––––––––––––––––––––-
1 | 0:00.00 | 4:20.30 | 0 | 19529
2 | 4:20.30 | 3:38.27 | 19530 | 35906
3 | 7:58.57 | 4:09.66 | 35907 | 54647
4 | 12:08.48 | 5:09.02 | 54648 | 77824
5 | 17:17.50 | 4:21.58 | 77825 | 97457
6 | 21:39.33 | 4:00.17 | 97458 | 115474
7 | 25:39.50 | 4:28.50 | 115475 | 135624
8 | 30:08.25 | 4:02.09 | 135625 | 153783
9 | 34:10.34 | 3:52.58 | 153784 | 171241
10 | 38:03.17 | 4:52.48 | 171242 | 193189
11 | 42:55.65 | 3:55.68 | 193190 | 210882
12 | 46:51.58 | 5:02.20 | 210883 | 233552
13 | 51:54.03 | 5:43.35 | 233553 | 259312
14 | 57:37.38 | 3:25.02 | 259313 | 274689
15 | 61:02.40 | 4:45.47 | 274690 | 296111
16 | 65:48.12 | 4:20.50 | 296112 | 315661


Range status and errors

Selected range

Filename C:\Users\44740\Desktop\Midge Ure - Soundtrack 1978-2019 - CD1.wav

Peak level 100.0 %
Extraction speed 3.3 X
Range quality 100.0 %
Test CRC BB08BD6D
Copy CRC BB08BD6D
Copy OK

No errors occurred


AccurateRip summary

Track 1 accurately ripped (confidence 1) [23297DB0] (AR v2)
Track 2 accurately ripped (confidence 1) [BA32DEF6] (AR v2)
Track 3 accurately ripped (confidence 1) [3E64D0AD] (AR v2)
Track 4 accurately ripped (confidence 1) [ADB21F14] (AR v2)
Track 5 accurately ripped (confidence 1) [89C3068D] (AR v2)
Track 6 accurately ripped (confidence 1) [B4D1B043] (AR v2)
Track 7 accurately ripped (confidence 1) [96600727] (AR v2)
Track 8 accurately ripped (confidence 1) [DE9A19C5] (AR v2)
Track 9 accurately ripped (confidence 1) [73140037] (AR v2)
Track 10 accurately ripped (confidence 1) [61037B6F] (AR v2)
Track 11 accurately ripped (confidence 1) [1101D33F] (AR v2)
Track 12 accurately ripped (confidence 1) [0FA34D62] (AR v2)
Track 13 accurately ripped (confidence 1) [7F3C064C] (AR v2)
Track 14 accurately ripped (confidence 1) [A2478EEE] (AR v2)
Track 15 accurately ripped (confidence 1) [68E40380] (AR v2)
Track 16 accurately ripped (confidence 1) [4D6B9412] (AR v2)

All tracks accurately ripped

End of status report

–– CUETools DB Plugin V2.1.6

[CTDB TOCID: XpjaaSwARXWO2UFul1urlgIPnoY-] found
Submit result: XpjaaSwARXWO2UFul1urlgIPnoY- has been confirmed
Track | CTDB Status
1 | (27/27) Accurately ripped
2 | (27/27) Accurately ripped
3 | (27/27) Accurately ripped
4 | (27/27) Accurately ripped
5 | (27/27) Accurately ripped
6 | (27/27) Accurately ripped
7 | (27/27) Accurately ripped
8 | (27/27) Accurately ripped
9 | (27/27) Accurately ripped
10 | (27/27) Accurately ripped
11 | (27/27) Accurately ripped
12 | (27/27) Accurately ripped
13 | (27/27) Accurately ripped
14 | (27/27) Accurately ripped
15 | (27/27) Accurately ripped
16 | (26/27) Accurately ripped


==== Log checksum 99D5D2451777580AC7A7B1421B405D9B364C9EB9C1B60AF2B41012B9C63BF303 ====

Track List CD2:

01. Become (2014) [4:02
02. Touching Hearts And Skies (2016) [3:37]
03. Glorious [2019 Single Mix] - Midge Ure & Rusty Egan (2017) [5:40]
04. Star Crossed (2014) [5:28]
05. You Move Me [Radio Edit] (2000) [4:07]
06. I Survived [Single Edit] (2014) [3:47]
07. Personal Heaven - Midge Ure & Glenn Gregory (2001) [6:20]
08. Beneath A Spielberg Sky [7" Version] (2000) [4:29]
09. Breathe [7" Version] (1996) [4:19]
10. Nevermore (2008) [2:53]
11. Cold, Cold Heart [7" Version] (1991) [4:07]
12. Let Me Go (2000) [6:22]
13. I See Hope (In The Morning Light) [7" Version] (1991) [5:28]
14. Let It Rise - Schiller feat. Midge Ure (2010) [3:46]
15. Dark Dark Night [2019 Remix] - Midge Ure feat Moby (2014) [4:22]
16. Vienna (Orchestrated Version) (2017) [5:07]

Exact Audio Copy V1.3 from 2. September 2016

EAC extraction logfile from 2. November 2019, 16:12

Midge Ure / Soundtrack 1978-2019 - CD2

Used drive : ATAPI iHAS122 C Adapter: 1 ID: 0

Read mode : Secure
Utilize accurate stream : Yes
Defeat audio cache : Yes
Make use of C2 pointers : No

Read offset correction : 6
Overread into Lead-In and Lead-Out : No
Fill up missing offset samples with silence : Yes
Delete leading and trailing silent blocks : No
Null samples used in CRC calculations : Yes
Used interface : Native Win32 interface for Win NT & 2000

Used output format : Internal WAV Routines
Sample format : 44.100 Hz; 16 Bit; Stereo


TOC of the extracted CD

Track | Start | Length | Start sector | End sector
––––––––––––––––––––––––––––-
1 | 0:00.00 | 4:02.35 | 0 | 18184
2 | 4:02.35 | 3:37.02 | 18185 | 34461
3 | 7:39.37 | 4:09.04 | 34462 | 53140
4 | 11:48.41 | 5:27.73 | 53141 | 77738
5 | 17:16.39 | 4:07.05 | 77739 | 96268
6 | 21:23.44 | 3:47.60 | 96269 | 113353
7 | 25:11.29 | 6:20.31 | 113354 | 141884
8 | 31:31.60 | 4:29.52 | 141885 | 162111
9 | 36:01.37 | 4:19.32 | 162112 | 181568
10 | 40:20.69 | 2:53.53 | 181569 | 194596
11 | 43:14.47 | 4:07.05 | 194597 | 213126
12 | 47:21.52 | 6:22.65 | 213127 | 241841
13 | 53:44.42 | 5:28.35 | 241842 | 266476
14 | 59:13.02 | 3:46.30 | 266477 | 283456
15 | 62:59.32 | 4:22.06 | 283457 | 303112
16 | 67:21.38 | 5:07.20 | 303113 | 326157


Range status and errors

Selected range

Filename C:\Users\44740\Desktop\Midge Ure - Soundtrack 1978-2019 - CD2.wav

Peak level 94.3 %
Extraction speed 8.3 X
Range quality 99.9 %
Test CRC 8824A384
Copy CRC 8824A384
Copy OK

No errors occurred


AccurateRip summary

Track 1 not present in database
Track 2 not present in database
Track 3 not present in database
Track 4 not present in database
Track 5 not present in database
Track 6 not present in database
Track 7 not present in database
Track 8 not present in database
Track 9 not present in database
Track 10 not present in database
Track 11 not present in database
Track 12 not present in database
Track 13 not present in database
Track 14 not present in database
Track 15 not present in database
Track 16 not present in database

None of the tracks are present in the AccurateRip database

End of status report

–– CUETools DB Plugin V2.1.6

[CTDB TOCID: EvxJ3PKXHlsqrzuklSJ2BbCXH4c-] found
Submit result: already submitted
Track | CTDB Status
1 | (26/26) Accurately ripped
2 | (26/26) Accurately ripped
3 | (26/26) Accurately ripped
4 | (26/26) Accurately ripped
5 | (26/26) Accurately ripped
6 | (26/26) Accurately ripped
7 | (26/26) Accurately ripped
8 | (26/26) Accurately ripped
9 | (26/26) Accurately ripped
10 | (26/26) Accurately ripped
11 | (26/26) Accurately ripped
12 | (26/26) Accurately ripped
13 | (26/26) Accurately ripped
14 | (26/26) Accurately ripped
15 | (26/26) Accurately ripped
16 | (26/26) Accurately ripped


==== Log checksum DCF993933DB683D1F54A2A2F7DD8549831B01345DDCD049A2452F02B4AB6B272 ====

Track List DVD:

01. Marching Men - Rich Kids (1978) [3:45]
02. No Regrets (1982) [4:05]
03. After A Fashion - Midge Ure & Mick Karn (1983) [3:53]
04. If I Was (1985) [4:07]
05. That Certain Smile (1985) [3:25]
06. Call Of The Wild (1986) [3:47]
07. Answers To Nothing (1988) [3:33]
08. Dear God (1988) [4:58]
09. Cold, Cold Heart (1991) [4:10]
10. I See Hope (In The Morning Light) (1991) [4:22]
11. Breathe (1996) [4:07]
12. You Move Me (2000) [4:07]
13. Beneath a Spielberg Sky (2001) [4:02]
14. Become (2014) [4:00]
15. Let It Rise (feat. Midge Ure) [Live] - Schiller [Live 2014] [4:54]
16. Breathe (Orchestrated Version) [2017] [4:42]

Bonus:
17. Yellow Pearl/Passing Strangers (feat. Band Electronica) [Live 2017] [7:30]
18. Fade To Grey (feat. Band Electronica) [2017 Live] [3:59]
19. Vienna (Orchestrated Version) (2017) [5:17]
20. Dancing With Tears In My Eyes (Orchestrated Version) (2017) [5:05]
21. 'A Portrait Of' - EPK (Documentary) (1985) [16:45]
22. Answers - A Musical Biography (Documentary) (1990) [49:00]
23. Orchestrated [The Making Of] (Documentary) (2017) [8:45]

General
Complete name : J:\_DOWNLOAD\Lond.UM19\Midge Ure - Soundtrack 1978-2019 (2019) DVD\VIDEO_TS\VTS_03_1.VOB
Format : MPEG-PS
File size : 1 024 MiB
Duration : 38 min 41 s
Overall bit rate mode : Variable
Overall bit rate : 3 700 kb/s

Video
ID : 224 (0xE0)
Format : MPEG Video
Format version : Version 2
Format profile : Main@Main
Format settings : BVOP
Format settings, BVOP : Yes
Format settings, Matrix : Default
Format settings, GOP : M=3, N=12
Format settings, picture structure : Frame
Duration : 38 min 41 s
Bit rate mode : Variable
Bit rate : 3 178 kb/s
Maximum bit rate : 8 000 kb/s
Width : 720 pixels
Height : 480 pixels
Display aspect ratio : 16:9
Frame rate : 29.970 (30000/1001) FPS
Standard : NTSC
Color space : YUV
Chroma subsampling : 4:2:0
Bit depth : 8 bits
Scan type : Interlaced
Scan order : Bottom Field First
Compression mode : Lossy
Bits/(Pixel*Frame) : 0.307
Time code of first frame : 00:00:00;00
Time code source : Group of pictures header
GOP, Open/Closed : Open
GOP, Open/Closed of first frame : Closed
Stream size : 880 MiB (86%)

Audio #1
ID : 189 (0xBD)-128 (0x80)
Format : AC-3
Format/Info : Audio Coding 3
Commercial name : Dolby Digital
Muxing mode : DVD-Video
Duration : 38 min 41 s
Bit rate mode : Constant
Bit rate : 224 kb/s
Channel(s) : 2 channels
Channel layout : L R
Sampling rate : 48.0 kHz
Frame rate : 31.250 FPS (1536 SPF)
Bit depth : 16 bits
Compression mode : Lossy
Stream size : 62.0 MiB (6%)
Service kind : Complete Main

Audio #2
ID : 189 (0xBD)-129 (0x81)
Format : AC-3
Format/Info : Audio Coding 3
Commercial name : Dolby Digital
Muxing mode : DVD-Video
Duration : 38 min 41 s
Bit rate mode : Constant
Bit rate : 224 kb/s
Channel(s) : 2 channels
Channel layout : L R
Sampling rate : 48.0 kHz
Frame rate : 31.250 FPS (1536 SPF)
Bit depth : 16 bits
Compression mode : Lossy
Stream size : 62.0 MiB (6%)
Service kind : Complete Main

Menu

General
Complete name : J:\_DOWNLOAD\Lond.UM19\Midge Ure - Soundtrack 1978-2019 (2019) DVD\VIDEO_TS\VTS_03_2.VOB
Format : MPEG-PS
File size : 834 MiB
Duration : 27 min 46 s
Overall bit rate mode : Variable
Overall bit rate : 4 198 kb/s

Video
ID : 224 (0xE0)
Format : MPEG Video
Format version : Version 2
Format profile : Main@Main
Format settings : BVOP
Format settings, BVOP : Yes
Format settings, Matrix : Default
Format settings, GOP : M=3, N=12
Format settings, picture structure : Frame
Duration : 27 min 46 s
Bit rate mode : Variable
Bit rate : 3 666 kb/s
Maximum bit rate : 8 000 kb/s
Width : 720 pixels
Height : 480 pixels
Display aspect ratio : 16:9
Frame rate : 29.970 (30000/1001) FPS
Standard : NTSC
Color space : YUV
Chroma subsampling : 4:2:0
Bit depth : 8 bits
Scan type : Interlaced
Scan order : Bottom Field First
Compression mode : Lossy
Bits/(Pixel*Frame) : 0.354
Time code of first frame : 00:38:41;16
Time code source : Group of pictures header
GOP, Open/Closed : Open
Stream size : 728 MiB (87%)

Audio #1
ID : 189 (0xBD)-128 (0x80)
Format : AC-3
Format/Info : Audio Coding 3
Commercial name : Dolby Digital
Muxing mode : DVD-Video
Duration : 27 min 46 s
Bit rate mode : Constant
Bit rate : 224 kb/s
Channel(s) : 2 channels
Channel layout : L R
Sampling rate : 48.0 kHz
Frame rate : 31.250 FPS (1536 SPF)
Bit depth : 16 bits
Compression mode : Lossy
Delay relative to video : -146 ms
Stream size : 44.5 MiB (5%)
Service kind : Complete Main

Audio #2
ID : 189 (0xBD)-129 (0x81)
Format : AC-3
Format/Info : Audio Coding 3
Commercial name : Dolby Digital
Muxing mode : DVD-Video
Duration : 27 min 46 s
Bit rate mode : Constant
Bit rate : 224 kb/s
Channel(s) : 2 channels
Channel layout : L R
Sampling rate : 48.0 kHz
Frame rate : 31.250 FPS (1536 SPF)
Bit depth : 16 bits
Compression mode : Lossy
Delay relative to video : -146 ms
Stream size : 44.5 MiB (5%)
Service kind : Complete Main

Menu

General
Complete name : J:\_DOWNLOAD\Lond.UM19\Midge Ure - Soundtrack 1978-2019 (2019) DVD\VIDEO_TS\VTS_04_1.VOB
Format : MPEG-PS
File size : 1 024 MiB
Duration : 37 min 43 s
Overall bit rate mode : Variable
Overall bit rate : 3 794 kb/s

Video
ID : 224 (0xE0)
Format : MPEG Video
Format version : Version 2
Format profile : Main@Main
Format settings : BVOP
Format settings, BVOP : Yes
Format settings, Matrix : Default
Format settings, GOP : M=3, N=12
Format settings, picture structure : Frame
Duration : 37 min 43 s
Bit rate mode : Variable
Bit rate : 3 495 kb/s
Maximum bit rate : 8 000 kb/s
Width : 720 pixels
Height : 480 pixels
Display aspect ratio : 16:9
Frame rate : 29.970 (30000/1001) FPS
Standard : NTSC
Color space : YUV
Chroma subsampling : 4:2:0
Bit depth : 8 bits
Scan type : Interlaced
Scan order : Bottom Field First
Compression mode : Lossy
Bits/(Pixel*Frame) : 0.337
Time code of first frame : 00:00:00;00
Time code source : Group of pictures header
GOP, Open/Closed : Open
GOP, Open/Closed of first frame : Closed
Stream size : 943 MiB (92%)

Audio
ID : 189 (0xBD)-128 (0x80)
Format : AC-3
Format/Info : Audio Coding 3
Commercial name : Dolby Digital
Muxing mode : DVD-Video
Duration : 37 min 43 s
Bit rate mode : Constant
Bit rate : 224 kb/s
Channel(s) : 2 channels
Channel layout : L R
Sampling rate : 48.0 kHz
Frame rate : 31.250 FPS (1536 SPF)
Bit depth : 16 bits
Compression mode : Lossy
Stream size : 60.5 MiB (6%)
Service kind : Complete Main

Menu

General
Complete name : J:\_DOWNLOAD\Lond.UM19\Midge Ure - Soundtrack 1978-2019 (2019) DVD\VIDEO_TS\VTS_04_2.VOB
Format : MPEG-PS
File size : 301 MiB
Duration : 11 min 21 s
Overall bit rate mode : Variable
Overall bit rate : 3 710 kb/s

Video
ID : 224 (0xE0)
Format : MPEG Video
Format version : Version 2
Format profile : Main@Main
Format settings : BVOP
Format settings, BVOP : Yes
Format settings, Matrix : Default
Format settings, GOP : M=3, N=12
Format settings, picture structure : Frame
Duration : 11 min 21 s
Bit rate mode : Variable
Bit rate : 3 412 kb/s
Maximum bit rate : 8 000 kb/s
Width : 720 pixels
Height : 480 pixels
Display aspect ratio : 16:9
Frame rate : 29.970 (30000/1001) FPS
Standard : NTSC
Color space : YUV
Chroma subsampling : 4:2:0
Bit depth : 8 bits
Scan type : Interlaced
Scan order : Bottom Field First
Compression mode : Lossy
Bits/(Pixel*Frame) : 0.329
Time code of first frame : 00:37:43;26
Time code source : Group of pictures header
GOP, Open/Closed : Open
Stream size : 277 MiB (92%)

Audio
ID : 189 (0xBD)-128 (0x80)
Format : AC-3
Format/Info : Audio Coding 3
Commercial name : Dolby Digital
Muxing mode : DVD-Video
Duration : 11 min 21 s
Bit rate mode : Constant
Bit rate : 224 kb/s
Channel(s) : 2 channels
Channel layout : L R
Sampling rate : 48.0 kHz
Frame rate : 31.250 FPS (1536 SPF)
Bit depth : 16 bits
Compression mode : Lossy
Delay relative to video : -88 ms
Stream size : 18.2 MiB (6%)
Service kind : Complete Main

Menu

General
Complete name : J:\_DOWNLOAD\Lond.UM19\Midge Ure - Soundtrack 1978-2019 (2019) DVD\VIDEO_TS\VTS_05_1.VOB
Format : MPEG-PS
File size : 426 MiB
Duration : 16 min 48 s
Overall bit rate mode : Variable
Overall bit rate : 3 540 kb/s

Video
ID : 224 (0xE0)
Format : MPEG Video
Format version : Version 2
Format profile : Main@Main
Format settings : BVOP
Format settings, BVOP : Yes
Format settings, Matrix : Default
Format settings, GOP : M=3, N=12
Format settings, picture structure : Frame
Duration : 33 ms
Bit rate mode : Variable
Bit rate : 3 246 kb/s
Maximum bit rate : 8 000 kb/s
Width : 720 pixels
Height : 480 pixels
Display aspect ratio : 16:9
Frame rate : 29.970 (30000/1001) FPS
Standard : NTSC
Color space : YUV
Chroma subsampling : 4:2:0
Bit depth : 8 bits
Scan type : Interlaced
Scan order : Bottom Field First
Compression mode : Lossy
Bits/(Pixel*Frame) : 0.313
Time code of first frame : 01:03:12;01
Time code source : Group of pictures header
GOP, Open/Closed : Open
GOP, Open/Closed of first frame : Closed
Stream size : 13.2 KiB (0%)

Audio
ID : 189 (0xBD)-128 (0x80)
Format : AC-3
Format/Info : Audio Coding 3
Commercial name : Dolby Digital
Muxing mode : DVD-Video
Duration : 16 min 48 s
Bit rate mode : Constant
Bit rate : 224 kb/s
Channel(s) : 2 channels
Channel layout : L R
Sampling rate : 48.0 kHz
Frame rate : 31.250 FPS (1536 SPF)
Bit depth : 16 bits
Compression mode : Lossy
Stream size : 26.9 MiB (6%)
Service kind : Complete Main

Menu

General
Complete name : J:\_DOWNLOAD\Lond.UM19\Midge Ure - Soundtrack 1978-2019 (2019) DVD\VIDEO_TS\VTS_06_1.VOB
Format : MPEG-PS
File size : 213 MiB
Duration : 8 min 29 s
Overall bit rate mode : Variable
Overall bit rate : 3 505 kb/s

Video
ID : 224 (0xE0)
Format : MPEG Video
Format version : Version 2
Format profile : Main@Main
Format settings : BVOP
Format settings, BVOP : Yes
Format settings, Matrix : Default
Format settings, GOP : M=3, N=12
Format settings, picture structure : Frame
Duration : 33 ms
Bit rate mode : Variable
Bit rate : 3 212 kb/s
Maximum bit rate : 8 000 kb/s
Width : 720 pixels
Height : 480 pixels
Display aspect ratio : 16:9
Frame rate : 29.970 (30000/1001) FPS
Standard : NTSC
Color space : YUV
Chroma subsampling : 4:2:0
Bit depth : 8 bits
Scan type : Interlaced
Scan order : Bottom Field First
Compression mode : Lossy
Bits/(Pixel*Frame) : 0.310
Time code of first frame : 00:51:47;24
Time code source : Group of pictures header
GOP, Open/Closed : Open
GOP, Open/Closed of first frame : Closed
Stream size : 13.1 KiB (0%)

Audio
ID : 189 (0xBD)-128 (0x80)
Format : AC-3
Format/Info : Audio Coding 3
Commercial name : Dolby Digital
Muxing mode : DVD-Video
Duration : 8 min 29 s
Bit rate mode : Constant
Bit rate : 224 kb/s
Channel(s) : 2 channels
Channel layout : L R
Sampling rate : 48.0 kHz
Frame rate : 31.250 FPS (1536 SPF)
Bit depth : 16 bits
Compression mode : Lossy
Stream size : 13.6 MiB (6%)
Service kind : Complete Main

Menu

General
Complete name : J:\_DOWNLOAD\Lond.UM19\Midge Ure - Soundtrack 1978-2019 (2019) DVD\VIDEO_TS\VTS_07_1.VOB
Format : MPEG-PS
File size : 231 MiB
Duration : 7 min 30 s
Overall bit rate mode : Variable
Overall bit rate : 4 293 kb/s

Video
ID : 224 (0xE0)
Format : MPEG Video
Format version : Version 2
Format profile : Main@Main
Format settings : BVOP
Format settings, BVOP : Yes
Format settings, Matrix : Default
Format settings, GOP : M=3, N=12
Format settings, picture structure : Frame
Duration : 33 ms
Bit rate mode : Variable
Bit rate : 3 983 kb/s
Maximum bit rate : 8 000 kb/s
Width : 720 pixels
Height : 480 pixels
Display aspect ratio : 16:9
Frame rate : 29.970 (30000/1001) FPS
Standard : NTSC
Color space : YUV
Chroma subsampling : 4:2:0
Bit depth : 8 bits
Scan type : Interlaced
Scan order : Bottom Field First
Compression mode : Lossy
Bits/(Pixel*Frame) : 0.385
Time code of first frame : 00:00:00;00
Time code source : Group of pictures header
GOP, Open/Closed : Open
GOP, Open/Closed of first frame : Closed
Stream size : 16.2 KiB (0%)

Audio
ID : 189 (0xBD)-128 (0x80)
Format : AC-3
Format/Info : Audio Coding 3
Commercial name : Dolby Digital
Muxing mode : DVD-Video
Duration : 7 min 30 s
Bit rate mode : Constant
Bit rate : 224 kb/s
Channel(s) : 2 channels
Channel layout : L R
Sampling rate : 48.0 kHz
Frame rate : 31.250 FPS (1536 SPF)
Bit depth : 16 bits
Compression mode : Lossy
Stream size : 12.0 MiB (5%)
Service kind : Complete Main

Menu

General
Complete name : J:\_DOWNLOAD\Lond.UM19\Midge Ure - Soundtrack 1978-2019 (2019) DVD\VIDEO_TS\VTS_08_1.VOB
Format : MPEG-PS
File size : 116 MiB
Duration : 4 min 1 s
Overall bit rate mode : Variable
Overall bit rate : 4 033 kb/s

Video
ID : 224 (0xE0)
Format : MPEG Video
Format version : Version 2
Format profile : Main@Main
Format settings : BVOP
Format settings, BVOP : Yes
Format settings, Matrix : Default
Format settings, GOP : M=3, N=12
Format settings, picture structure : Frame
Duration : 33 ms
Bit rate mode : Variable
Bit rate : 3 729 kb/s
Maximum bit rate : 8 000 kb/s
Width : 720 pixels
Height : 480 pixels
Display aspect ratio : 16:9
Frame rate : 29.970 (30000/1001) FPS
Standard : NTSC
Color space : YUV
Chroma subsampling : 4:2:0
Bit depth : 8 bits
Scan type : Interlaced
Scan order : Bottom Field First
Compression mode : Lossy
Bits/(Pixel*Frame) : 0.360
Time code of first frame : 00:07:31;01
Time code source : Group of pictures header
GOP, Open/Closed : Open
GOP, Open/Closed of first frame : Closed
Stream size : 15.2 KiB (0%)

Audio
ID : 189 (0xBD)-128 (0x80)
Format : AC-3
Format/Info : Audio Coding 3
Commercial name : Dolby Digital
Muxing mode : DVD-Video
Duration : 4 min 1 s
Bit rate mode : Constant
Bit rate : 224 kb/s
Channel(s) : 2 channels
Channel layout : L R
Sampling rate : 48.0 kHz
Frame rate : 31.250 FPS (1536 SPF)
Bit depth : 16 bits
Compression mode : Lossy
Stream size : 6.44 MiB (6%)
Service kind : Complete Main

Menu

General
Complete name : J:\_DOWNLOAD\Lond.UM19\Midge Ure - Soundtrack 1978-2019 (2019) DVD\VIDEO_TS\VTS_09_1.VOB
Format : MPEG-PS
File size : 143 MiB
Duration : 5 min 19 s
Overall bit rate mode : Variable
Overall bit rate : 3 766 kb/s

Video
ID : 224 (0xE0)
Format : MPEG Video
Format version : Version 2
Format profile : Main@Main
Format settings : BVOP
Format settings, BVOP : Yes
Format settings, Matrix : Default
Format settings, GOP : M=3, N=12
Format settings, picture structure : Frame
Duration : 33 ms
Bit rate mode : Variable
Bit rate : 3 467 kb/s
Maximum bit rate : 8 000 kb/s
Width : 720 pixels
Height : 480 pixels
Display aspect ratio : 16:9
Frame rate : 29.970 (30000/1001) FPS
Standard : NTSC
Color space : YUV
Chroma subsampling : 4:2:0
Bit depth : 8 bits
Scan type : Interlaced
Scan order : Bottom Field First
Compression mode : Lossy
Bits/(Pixel*Frame) : 0.335
Time code of first frame : 00:11:32;13
Time code source : Group of pictures header
GOP, Open/Closed : Open
GOP, Open/Closed of first frame : Closed
Stream size : 14.1 KiB (0%)

Audio
ID : 189 (0xBD)-128 (0x80)
Format : AC-3
Format/Info : Audio Coding 3
Commercial name : Dolby Digital
Muxing mode : DVD-Video
Duration : 5 min 19 s
Bit rate mode : Constant
Bit rate : 224 kb/s
Channel(s) : 2 channels
Channel layout : L R
Sampling rate : 48.0 kHz
Frame rate : 31.250 FPS (1536 SPF)
Bit depth : 16 bits
Compression mode : Lossy
Stream size : 8.53 MiB (6%)
Service kind : Complete Main

Menu

General
Complete name : J:\_DOWNLOAD\Lond.UM19\Midge Ure - Soundtrack 1978-2019 (2019) DVD\VIDEO_TS\VTS_10_1.VOB
Format : MPEG-PS
File size : 135 MiB
Duration : 5 min 8 s
Overall bit rate mode : Variable
Overall bit rate : 3 682 kb/s

Video
ID : 224 (0xE0)
Format : MPEG Video
Format version : Version 2
Format profile : Main@Main
Format settings : BVOP
Format settings, BVOP : Yes
Format settings, Matrix : Default
Format settings, GOP : M=3, N=12
Format settings, picture structure : Frame
Duration : 33 ms
Bit rate mode : Variable
Bit rate : 3 385 kb/s
Maximum bit rate : 8 000 kb/s
Width : 720 pixels
Height : 480 pixels
Display aspect ratio : 16:9
Frame rate : 29.970 (30000/1001) FPS
Standard : NTSC
Color space : YUV
Chroma subsampling : 4:2:0
Bit depth : 8 bits
Scan type : Interlaced
Scan order : Bottom Field First
Compression mode : Lossy
Bits/(Pixel*Frame) : 0.327
Time code of first frame : 00:16:52;01
Time code source : Group of pictures header
GOP, Open/Closed : Open
GOP, Open/Closed of first frame : Closed
Stream size : 13.8 KiB (0%)

Audio
ID : 189 (0xBD)-128 (0x80)
Format : AC-3
Format/Info : Audio Coding 3
Commercial name : Dolby Digital
Muxing mode : DVD-Video
Duration : 5 min 8 s
Bit rate mode : Constant
Bit rate : 224 kb/s
Channel(s) : 2 channels
Channel layout : L R
Sampling rate : 48.0 kHz
Frame rate : 31.250 FPS (1536 SPF)
Bit depth : 16 bits
Compression mode : Lossy
Stream size : 8.23 MiB (6%)
Service kind : Complete Main

Menu

Midge Ure - Soundtrack: 1978-2019 (2019) {2CD/DVD Box Set}

Midge Ure - Soundtrack: 1978-2019 (2019) {2CD/DVD Box Set}

Midge Ure - Soundtrack: 1978-2019 (2019) {2CD/DVD Box Set}

Midge Ure - Soundtrack: 1978-2019 (2019) {2CD/DVD Box Set}

Midge Ure - Soundtrack: 1978-2019 (2019) {2CD/DVD Box Set}

Midge Ure - Soundtrack: 1978-2019 (2019) {2CD/DVD Box Set}

Midge Ure - Soundtrack: 1978-2019 (2019) {2CD/DVD Box Set}


All thanks go to London

>>> Midge Ure in my Blog <<<

DOWNLOAD: